#TITLE:Bad Apple & Good Orange;
#SUBTITLE:;
#ARTIST:IOSYS;
#TITLETRANSLIT:Bad Apple and Good Orange;
#SUBTITLETRANSLIT:;
#ARTISTTRANSLIT:;
#GENRE:Touhou Remix;
#CREDIT:AznPunk07/Frozen_Heat/GuardianFrozen;
#MENUCOLOR:#ffb209;
#METERTYPE:DDR;
#BANNER:Bad Apple & Good Orange-bn.png;
#BACKGROUND:Bad Apple & Good Orange-bg.png;
#LYRICSPATH:Bad Apple & Good Orange.lrc;
#CDTITLE:!cdtitle.png;
#MUSIC:Bad Apple & Good Orange.mp3;
#OFFSET:-0.537;
#SAMPLESTART:14.545;
#SAMPLELENGTH:13.940;
#SELECTABLE:YES;
#LISTSORT:;
#BPMS:0.000=138.000;
#STOPS:;
#BGCHANGES:0.000=[Video Game Remix] - Bad Apple & Good Orange.avi=1.800=1=1=0,
2.000=[Video Game Remix] - Bad Apple & Good Orange.avi=1.000=0=0=1,
239.500=[Video Game Remix] - Bad Apple & Good Orange-bg.png=1.000=0=0=1,
99999=-nosongbg-=1.000=0=0=0 // don't automatically add -songbackground-
;
#ATTACKS:;

//---------------dance-single - ----------------
#NOTES:
     dance-single:
     :
     Hard:
     9:
     0.562,0.683,0.266,0.161,0.499: // measure 1
0000
0000
0000
0000
,  // measure 2
0000
0000
0000
0000
,  // measure 3
0000
0000
0000
0000
,  // measure 4
0000
0000
0000
0000
,  // measure 5
1000
0000
0000
0000
0010
0000
0000
1000
0000
1000
0000
0001
0000
0000
0100
0000
,  // measure 6
0001
0000
0000
0000
0010
0000
0000
0100
0000
0010
0000
0100
0000
0000
1000
0000
,  // measure 7
0010
0000
0000
0010
0100
0000
0000
0100
0001
1000
0001
1000
0001
0010
0100
0000
,  // measure 8
1000
1010
0100
0101
,  // measure 9
0010
0000
1000
0100
0001
0100
1000
0000
,  // measure 10
0001
0100
0001
0000
1000
0010
0001
0000
,  // measure 11
0010
1000
0001
0000
0100
0001
0010
0000
,  // measure 12
1100
0000
0010
0100
1000
0100
0000
0000
,  // measure 13
0010
0000
0001
0000
1000
0000
0000
1000
0010
0000
0100
0000
0001
0000
0000
0001
,  // measure 14
0010
0000
0100
0000
0010
0000
0000
0010
0001
0000
1000
0000
0010
0000
0000
0000
,  // measure 15
0100
0000
0000
0001
0000
0000
0000
0000
0000
0000
0000
0000
0001
0000
0000
0000
1000
0000
0000
0000
0100
0000
0000
0000
2000
0000
0000
0000
0000
0000
0000
0000
0000
0000
0000
0000
3010
0000
0000
0100
0000
0000
0010
0000
0000
0100
0000
0000
,  // measure 16
0001
0000
0010
0100
0000
0010
0001
0000
0001
1000
0000
0010
1000
0100
0001
0100
,  // measure 17
1000
0000
0000
0010
0000
0000
0010
0000
0000
0000
0000
0100
0000
0000
0100
0000
,  // measure 18
0000
0000
0000
0001
0000
0000
0001
0000
0000
0000
0000
1000
0000
0000
1000
0000
,  // measure 19
0000
0000
0000
0001
0000
0000
0001
0000
0000
0000
0000
0100
0000
0000
0100
0000
,  // measure 20
0000
0000
0000
0010
0000
0000
0010
0000
0000
0000
0000
1000
0000
0000
1000
0000
,  // measure 21
0100
1000
0010
0100
,  // measure 22
0001
1000
0001
0010
,  // measure 23
0100
0000
0000
0010
0000
0000
0001
0000
1000
0000
0000
0010
0000
0000
0100
0000
,  // measure 24
0010
0000
1000
0001
,  // measure 25
1000
0000
0000
0100
0000
0000
1000
0000
0010
0000
0000
0100
0000
0000
0010
0100
,  // measure 26
0001
0000
0001
0010
0000
0001
0100
0010
0001
0000
0010
0100
0000
0100
0001
0010
,  // measure 27
0001
0000
0000
0100
0000
0000
0001
0000
0010
0000
0000
0100
0000
0000
0010
0100
,  // measure 28
1000
0000
0010
0100
0000
1000
0100
0010
1000
0000
0000
1100
0000
0000
0010
0100
,  // measure 29
1000
0000
0000
0001
0000
0000
0100
0000
0010
0000
0000
1000
0000
0000
0010
1000
,  // measure 30
0001
0000
0010
0001
0000
0010
0001
1000
0010
0000
0001
0010
0000
0000
1000
0001
,  // measure 31
0010
0000
0000
0100
0000
0000
1000
0000
0001
0000
0000
0100
0000
0010
0100
0000
,  // measure 32
0001
0000
0000
0011
0000
0000
0100
0000
0000
1100
0000
0000
0000
0000
0001
1000
,  // measure 33
0001
0000
0000
0100
0000
0000
0010
0000
1000
0000
0100
0000
0010
0000
0100
0000
,  // measure 34
1000
0000
0000
0010
0000
0000
0100
0000
0001
0000
1000
0000
0100
0000
0001
0000
,  // measure 35
0000
0010
0001
0100
0000
0010
1000
0001
,  // measure 36
0000
0000
0010
0000
0001
0000
1000
0000
0100
0010
0000
0110
0000
0000
0001
0000
,  // measure 37
1000
0000
0000
0001
0000
0000
0100
0000
0010
0000
0001
0000
0010
0000
1000
0000
,  // measure 38
0100
0000
0000
1000
0000
0000
0010
0000
0000
0000
0000
0000
0100
0000
0000
0001
,  // measure 39
0010
0000
0000
0011
0000
0000
1100
0000
0000
1000
0000
0000
0010
0000
0100
0001
,  // measure 40
0000
0000
1000
0000
0000
0000
0001
0000
0100
0000
0010
1000
0100
0000
0010
0001
,  // measure 41
0010
0000
0100
1000
0000
1000
0100
0000
0010
0000
0001
0000
1000
0000
0010
0000
,  // measure 42
0100
0000
0100
0001
0000
0001
0010
0000
0010
0000
0001
0000
1000
0000
0010
0000
,  // measure 43
0000
0100
0001
0010
0000
0010
1000
0100
,  // measure 44
0000
0000
0100
0000
0001
0000
0010
0000
0100
1000
0000
1100
0000
0000
0010
0000
,  // measure 45
0002
0203
2300
3020
,  // measure 46
0032
2003
3020
0230
,  // measure 47
0302
0000
1000
0000
0000
0000
0103
0020
,  // measure 48
0000
0000
0000
0000
1030
0000
0000
1010
0000
0000
0000
0000
0101
0000
1000
0100
,  // measure 49
0000
0000
0011
0000
0000
1001
0000
0000
0101
0000
0000
1001
0000
0000
0011
0010
,  // measure 50
0000
0000
1001
0000
0000
1100
0000
0000
1001
0000
0000
1010
0000
0000
1001
0001
,  // measure 51
0000
0000
1010
0000
0000
0101
0000
0000
1001
0000
0000
1100
1000
0000
0022
0000
,  // measure 52
0000
0000
0000
0003
0130
0000
1100
0000
,  // measure 53
0010
0000
0001
0100
0010
0100
0001
1000
,  // measure 54
0001
1000
0100
0000
0010
0001
1000
0000
,  // measure 55
0001
0100
0001
0000
1000
0100
1000
0000
,  // measure 56
0001
0000
0100
0000
0001
0000
1000
0000
0200
0000
0300
0020
0000
0030
0200
0000
,  // measure 57
1300
0010
0001
0000
0010
0100
0001
0000
,  // measure 58
0010
0001
1000
0000
0100
0010
0001
0000
,  // measure 59
0010
0000
0000
1000
0000
0000
0000
0000
0000
0000
0000
0000
0010
0000
0000
0000
0001
0000
0000
0000
0100
0000
0000
0000
0010
0000
0000
0000
0000
0000
0010
0000
0000
1000
0000
0000
0000
0000
0000
0010
0000
0000
0001
0000
0000
0000
0000
0000
,  // measure 60
0010
0000
0100
0001
0000
0100
0010
0000
1000
0100
0000
0010
0100
1000
0200
0300
;

//---------------dance-single - ----------------
#NOTES:
     dance-single:
     :
     Medium:
     7:
     0.413,0.455,0.180,0.133,0.109:
0000
0000
0000
0000
,
0000
0000
0000
0000
,
0000
0000
0000
0000
,
0000
0000
0000
0000
,
0001
0100
0010
1000
,
0001
0010
0100
1000
,
0100
0000
0000
0100
0010
0000
0000
0010
0001
0000
0001
0000
0001
0000
1000
0000
,
0001
0101
0010
1010
,
1000
0000
1000
0100
0010
0000
0010
0000
,
0001
0100
0010
0000
0001
0100
0010
0000
,
1000
0001
0010
0000
0010
0001
0100
0000
,
0100
0000
0010
1000
0100
0100
0000
0000
,
0010
0100
1000
0000
1000
0100
0010
0000
,
0010
0001
1000
0000
1000
0001
0100
0000
,
0001
0101
0010
1010
,
0001
0010
0100
0000
0100
0010
0001
0000
,
1000
0000
0000
0010
0000
0100
0001
0000
,
1000
0000
0000
0010
0000
1000
0100
0000
,
0010
0000
0000
0001
0000
0100
0010
0000
,
1000
0000
0000
0001
0000
1000
0100
0000
,
0010
0100
1000
0001
,
0100
0010
1000
0001
,
0100
0110
0010
0110
,
1001
0000
0000
0000
,
0001
0000
0100
0001
0010
0000
0100
1000
,
0020
1000
0130
0000
,
1000
0000
0010
1000
0100
0000
0010
0001
,
0200
0000
0000
0000
0010
0000
0000
0000
0302
0000
0000
1000
0000
0000
1003
0000
,
0100
0000
0010
0001
0100
0000
0010
0000
,
2000
0100
3001
0000
,
0010
0000
0100
0001
1000
0000
0100
0010
,
0100
0000
0000
0100
0000
0000
0100
0000
0000
0100
0000
0000
0000
0000
0000
0000
,
0010
0000
0000
0001
0000
0000
0010
0000
0000
0000
0001
0000
0100
0000
0000
0000
,
0010
0000
0000
1000
0000
0000
0010
0000
0000
0000
1000
0000
0100
0000
0000
0000
,
0010
0000
0001
0100
1000
0000
0100
0001
,
0010
0000
0000
0000
0100
0000
0000
0000
1000
0000
0000
0001
0000
0000
1000
0000
,
0010
0000
0000
0100
0000
0000
0001
0000
0000
0000
1000
0000
0100
0000
0000
0000
,
0010
0000
0000
0100
0000
0000
1000
0000
0000
0000
0000
0001
0000
0000
0000
0100
,
0001
0000
0000
0010
0000
0000
0001
0000
0000
1000
0000
0000
0010
0000
1000
0100
,
0000
0010
0000
0100
1000
0001
0100
0000
,
0010
0000
0000
1000
0000
0000
0010
0000
0100
0000
0001
0000
0010
0000
0000
0000
,
0100
0000
0000
0010
0000
0000
0001
0000
1000
0000
0010
0000
1000
0000
0000
0000
,
0001
0000
0100
0010
0001
0000
1000
0100
,
0001
0010
1200
0310
,
2000
3200
0320
0031
,
2000
3002
0203
0310
,
2000
0000
0010
0000
0001
0000
3100
0020
,
0000
0000
0030
0000
,
0000
0000
0001
0000
0000
0100
0000
0000
0101
0000
0000
1001
0000
0000
0011
0000
,
0000
0000
1000
0000
0000
0010
0000
0000
1010
0000
0000
1001
0000
0000
1100
0000
,
0000
0000
1000
0000
0000
0010
0000
0000
1010
0000
0000
0110
0000
0000
0101
0000
,
0000
0000
0020
0130
,
0010
0000
1000
0100
0010
0000
1000
0100
,
0010
0000
0001
0000
0100
0001
0010
0000
,
0010
0001
0100
0000
0100
0010
1000
0000
,
0001
0000
1000
0100
0010
0001
0000
0000
,
0001
0100
1000
0000
1000
0100
0001
0000
,
0100
0001
0010
0000
0010
0100
1000
0000
,
0011
1100
0001
1000
,
0001
0100
1000
0000
1000
0100
0001
0100
;

//---------------dance-single - ----------------
#NOTES:
     dance-single:
     :
     Beginner:
     1:
     0.098,0.170,0.000,0.066,0.000:
0000
0000
0000
0000
,
0000
0000
0000
0000
,
0000
0000
0000
0000
,
0000
0000
0000
0000
,
1000
0000
0000
0000
,
0001
0000
0000
0000
,
0010
0000
0000
0000
,
0100
0100
0100
0100
,
0100
0000
0000
0000
,
0000
0000
0000
0000
,
1000
0000
0000
0000
,
0001
0000
0000
0000
,
0010
0010
0000
0000
,
0000
0000
0000
0000
,
0002
0003
0000
0000
,
2000
3000
0000
0000
,
0010
0000
0000
0000
,
0000
0000
0000
0000
,
0100
0000
0000
0000
,
0000
0000
0000
0000
,
0001
0000
0000
0000
,
0010
0000
0000
0000
,
0100
0000
0000
0000
,
1000
0000
0000
0000
,
1000
0000
0000
0000
,
0010
0000
0000
0000
,
0100
0000
0000
0000
,
0001
0000
0000
0000
,
1000
0000
0000
0000
,
0001
0000
0000
0000
,
0010
0000
0000
0000
,
0100
0100
0100
0000
,
0010
0000
0000
0000
,
0001
0000
0000
0000
,
1000
0000
0000
0000
,
0010
0000
0000
0000
,
0100
0000
0000
0000
,
0001
0000
0000
0000
,
2000
3000
0000
0000
,
0002
0003
0000
0000
,
0010
0000
0000
0000
,
0100
0000
0000
0000
,
0010
0000
0000
0000
,
0001
0000
0000
0000
,
2000
3000
0000
0000
,
0002
0003
0000
0000
,
0200
0000
0000
0000
,
0300
0000
0000
0000
,
0000
0010
0010
0010
,
0000
0010
0010
0010
,
0000
0010
0010
0010
,
0000
0000
0000
0000
,
0001
0000
0000
0000
,
0100
0000
0000
0000
,
1000
0000
0000
0000
,
0100
0000
0000
0000
,
0010
0010
0000
0000
,
0100
0100
0000
0000
,
1000
0000
0000
0000
,
0001
0000
1000
0000
;

//---------------dance-single - ----------------
#NOTES:
     dance-single:
     :
     Easy:
     3:
     0.273,0.312,0.085,0.057,0.000:
0000
0000
0000
0000
,
0000
0000
0000
0000
,
0000
0000
0000
0000
,
0000
0000
0000
0000
,
0001
0000
0100
0000
,
0010
0000
1000
0000
,
0001
0010
0100
1000
,
1001
0110
1001
0000
,
1000
0100
0010
0100
,
1000
0100
0010
0100
,
1000
1000
0001
0001
,
0100
0010
0110
0000
,
0001
0010
0100
0010
,
0001
0010
0100
0010
,
0001
0001
1000
1000
,
0020
0100
1000
0130
,
0100
0000
0000
0000
,
0001
0000
0000
0000
,
1000
0000
0000
0000
,
0010
0000
0000
0000
,
1000
0100
0010
0100
,
1000
0100
0001
0100
,
1000
0000
0001
0000
,
0100
0000
0000
0000
,
0010
1000
0001
0010
,
0200
1000
0010
1000
,
0310
0001
0100
0010
,
2000
0010
0002
3003
,
0010
0100
0001
1000
,
0002
0010
1000
0010
,
0103
0010
1000
0001
,
0010
0100
0010
0000
,
0010
0100
1000
0100
,
0010
0100
1000
0100
,
0010
0010
0001
0001
,
1000
0001
0200
0310
,
0001
0100
1000
0100
,
0001
0100
1000
0100
,
0001
0010
0100
1000
,
0100
0100
0010
0000
,
0010
0001
0100
0001
,
0010
0001
0100
0001
,
0010
0100
1000
1000
,
0010
0100
0010
0000
,
1000
0001
0100
0000
,
0001
1000
0100
0010
,
0001
1000
0001
0100
,
0000
0000
0000
0000
,
0000
0010
0100
1001
,
0000
0100
0010
1001
,
0000
0010
0100
1001
,
0000
0000
0010
0100
,
0010
0010
0001
0001
,
1000
0100
0001
0010
,
1000
1000
0001
0001
,
1000
0100
0001
0000
,
0001
0010
0001
1000
,
0001
0100
0010
1000
,
0001
0001
1000
1000
,
0010
0110
0100
0110
;
