#TITLE:rAAw Battery;
#SUBTITLE:;
#ARTIST:Jivemaster;
#TITLETRANSLIT:;
#SUBTITLETRANSLIT:;
#ARTISTTRANSLIT:;
#CREDIT:;
#BANNER:bn.png;
#BACKGROUND:bg.png;
#LYRICSPATH:;
#CDTITLE:;
#MUSIC:rAAw Battery.mp3;
#OFFSET:-0.041;
#SAMPLESTART:56.600;
#SAMPLELENGTH:12.000;
#SELECTABLE:YES;
#BPMS:0.000=140.000,32.000=280.001,36.000=140.000,103.000=70.000,107.000=140.000,155.000=280.000,159.000=140.000,251.000=70.000,253.000=280.000,257.000=140.000;
#STOPS:32.000=0.054
,32.250=0.054
,32.500=0.054
,32.750=0.054
,33.000=0.054
,33.250=0.054
,33.500=0.054
,33.750=0.054
,34.000=0.054
,34.250=0.054
,34.500=0.054
,34.750=0.054
,35.000=0.054
,35.250=0.054
,35.500=0.054
,35.750=0.054
,64.000=1.286
,93.000=0.429
,93.500=0.434
,155.000=0.054
,155.250=0.054
,155.500=0.054
,155.750=0.054
,156.000=0.054
,156.250=0.054
,156.500=0.054
,156.750=0.054
,157.000=0.054
,157.250=0.054
,157.500=0.054
,157.750=0.054
,158.000=0.054
,158.250=0.054
,158.500=0.054
,158.750=0.054
,160.000=0.429
,161.250=0.214
,162.500=0.429
,163.750=0.214
,165.000=0.429
,166.250=0.214
,167.500=0.429
,168.000=0.214
,170.000=0.429
,171.250=0.214
,172.500=0.429
,173.750=0.214
,175.000=0.429
,176.250=0.214
,176.500=0.214
,177.500=0.214
,178.000=0.194
,253.000=0.054
,253.250=0.054
,253.500=0.054
,253.750=0.054
,254.000=0.054
,254.250=0.054
,254.500=0.054
,254.750=0.054
,255.000=0.054
,255.250=0.054
,255.500=0.054
,255.750=0.054
,256.000=0.054
,256.250=0.054
,256.500=0.054
,256.750=0.054
;
#BGCHANGES:;

//---------------dance-single - Pandemonium X----------------
#NOTES:
     dance-single:
     Pandemonium X:
     Hard:
     9:
     0.704,0.904,0.314,0.446,0.450: // measure 1
0000
0000
0000
0000
,  // measure 2
1000
0001
0010
0001
0100
0001
0020
0000
,  // measure 3
0031
1000
0001
0100
0001
0010
0200
0000
,  // measure 4
1300
0001
0100
0001
0010
0001
0200
0000
,  // measure 5
0310
1000
0001
0010
0011
0000
1100
0000
,  // measure 6
2002
3003
0000
0000
0001
0000
0000
0000
0100
0000
0000
0000
0001
0000
0000
0000
0010
0000
0000
0000
0001
0000
0000
0000
0200
0000
0000
0000
0000
0000
0000
0000
,  // measure 7
0310
1000
0010
1000
0100
1000
0020
0000
,  // measure 8
0130
0010
1000
0001
0010
0001
0200
0000
,  // measure 9
0310
1000
0010
1000
0010
1000
0010
1000
0010
1000
0010
1000
0010
1000
0010
1000
,  // measure 10
0010
0000
0000
0000
1001
0000
0000
0001
0010
0000
0100
0000
2200
0000
3300
0000
,  // measure 11
1000
0000
0000
0000
1001
0000
0000
0001
0100
0000
0010
0000
2020
0000
3030
0000
,  // measure 12
1010
0000
0000
0000
0101
0000
0000
0001
0010
0000
0001
0000
0200
0000
0000
0000
,  // measure 13
0310
0000
0000
0000
0110
0000
0000
0010
0100
0000
0010
0000
1010
0000
1000
0000
,  // measure 14
0001
0000
1000
0000
0001
0000
0010
0001
0100
0000
0010
0000
0220
0000
0330
0000
,  // measure 15
0010
0000
1000
0000
0001
0000
0010
0001
0100
0000
0010
0000
0220
0000
0330
0000
,  // measure 16
0100
0000
0010
0000
1000
0000
0001
1000
0001
0000
1000
0000
2200
0000
3300
0000
,  // measure 17
0000
0001
0010
0002
0000
0103
0001
0200
,  // measure 18
0000
0310
1000
0002
0000
1003
0001
0200
,  // measure 19
0000
0310
1000
0200
0000
1300
0010
0200
,  // measure 20
0000
0310
1000
0002
0000
0103
0101
0000
,  // measure 21
1100
0000
0001
0200
0000
0310
1000
0200
,  // measure 22
0000
1300
0010
0200
0000
0310
1000
0002
,  // measure 23
0000
1003
0001
0200
0000
0310
1000
0002
,  // measure 24
0000
1003
1000
0010
1001
0000
0001
1000
,  // measure 25
0001
0100
0001
0010
0001
0100
0010
0100
,  // measure 26
0010
0000
1000
0000
0100
0000
0010
0000
0001
0000
0100
0000
0001
0000
0000
1100
,  // measure 27
0000
0000
0010
0000
0100
0000
0001
0000
1001
0000
0000
0000
0000
0000
1100
0000
0000
0000
0101
0000
0001
1000
0100
0000
1000
0000
0000
0000
0001
0000
0000
0000
,  // measure 28
0010
0001
0000
1000
0100
0000
0001
0100
0000
0010
0100
0000
0000
0000
0010
0000
,  // measure 29
0100
0010
0000
1000
0001
0000
0010
0001
0000
0100
0010
0000
0100
0000
0000
0010
,  // measure 30
0000
0000
0000
0000
0000
0000
0000
0000
0000
0000
0000
0000
1000
0100
0000
0001
,  // measure 31
0010
0000
0000
0000
0001
1000
0100
0010
0001
1000
0001
1000
0200
0000
0000
1000
,  // measure 32
0000
0000
2000
0000
0000
0000
0000
0000
3300
0000
1000
0001
0200
0000
0000
0010
,  // measure 33
0000
0000
0020
0000
0000
0000
0330
0000
0010
0000
1000
0000
0002
0000
0000
0100
,  // measure 34
0000
0013
0000
0001
0010
0100
1100
0000
,  // measure 35
0101
0000
0000
0000
0110
0000
0010
0000
1001
0000
0010
0000
0002
0000
0000
0100
,  // measure 36
0000
0000
0020
0000
0000
0000
0000
0000
0033
0000
0001
0010
0200
0000
0000
0010
,  // measure 37
0000
0000
0020
0000
0000
0000
0330
0000
0010
0000
0001
0000
2000
0000
0000
0001
,  // measure 38
0000
0000
0010
0000
0000
0000
3010
0000
1000
0000
0001
0000
0001
0010
0200
0000
,  // measure 39
0000
0000
0000
0300
0010
0100
0010
0100
0010
1000
0001
0100
0010
1000
0001
0010
,  // measure 40
0001
0100
0010
2000
3200
0320
0032
0203
0320
0030
2002
3003
1000
0000
0001
0000
,  // measure 41
1000
0000
0001
0000
1000
0100
0100
0000
0100
0000
0010
0000
0010
0000
0001
1000
,  // measure 42
1000
0000
1000
0000
1000
0000
1000
0000
0001
0010
0001
0000
0001
0000
0001
0000
,  // measure 43
1100
0000
1001
0000
0110
0000
0010
0000
0110
0000
1000
0000
1000
0100
0001
0000
,  // measure 44
0010
0000
0001
0000
1000
0000
0100
1000
0010
0000
1000
0000
1001
0000
1000
0000
,  // measure 45
0001
0010
0011
0000
1000
0000
1100
0000
0011
0000
1000
0001
0100
0000
0010
0000
,  // measure 46
1000
0001
1000
0100
1000
0000
0001
1000
,  // measure 47
0001
0100
0001
0010
0001
0000
1000
0001
,  // measure 48
0100
0001
0010
0100
1000
0000
1000
0001
,  // measure 49
0010
0000
0001
0000
0001
0100
0010
1000
0100
0000
1100
0000
1000
0100
0000
0000
,  // measure 50
0001
0000
0010
0001
0000
0000
0001
0000
1000
0001
0000
0000
1000
0001
0000
0000
,  // measure 51
0001
0000
0100
0001
0000
0000
0010
0000
0010
1000
0000
0000
1000
0100
0000
0000
,  // measure 52
0001
0000
0010
0001
0000
0000
1000
0000
0001
0100
0000
0000
0010
0100
0000
0000
,  // measure 53
0010
0000
0000
0000
1000
0000
0000
0000
0100
0000
0001
0000
0010
0000
0001
0000
0100
0000
0000
0000
1010
0000
0000
0000
2002
3003
0000
0000
0001
0000
0000
0000
,  // measure 54
0100
0000
0010
0000
1000
0000
0010
0000
0100
0000
0010
0100
0010
0000
1000
0000
,  // measure 55
0001
0000
0100
0000
0001
0000
0010
0000
0100
0000
1000
0001
0010
0000
0100
0000
,  // measure 56
0010
0000
1000
0000
0100
0000
1000
0000
0100
0000
1000
0100
1000
0000
0010
0000
,  // measure 57
0100
0000
0001
0000
0001
0100
0001
1000
0010
0000
1000
0000
0001
1000
0001
0000
,  // measure 58
1000
0000
0001
1000
0001
0000
1000
0000
0001
1000
0000
0000
1000
0100
1000
0000
,  // measure 59
0100
0000
1000
0100
1000
0000
0100
0000
1000
0100
0000
0000
0001
0010
0001
0000
,  // measure 60
0010
0000
0001
0010
0001
0000
0010
0000
0001
0010
0000
0000
1000
0001
1000
0000
,  // measure 61
0001
0000
0100
0000
0010
1000
0001
0010
0001
0000
0011
0000
0001
0001
0000
0000
,  // measure 62
0000
0000
0001
0001
0000
0000
0000
0000
1000
1000
0000
0000
0010
0010
0000
0000
,  // measure 63
0000
0000
0000
0000
0100
0000
0100
0000
0000
0000
0000
0000
0000
0000
0000
0000
0010
0000
0000
0000
1000
0000
0000
0000
0001
0000
0000
0001
0000
0000
0000
0000
,  // measure 64
0000
0000
1000
0001
1000
0100
1000
0001
0010
0001
0100
0001
0010
0001
0100
0010
,  // measure 65
1000
0100
1000
0001
0020
0000
0030
0000
0000
0000
0000
0000
0000
0000
0000
0000
;

//---------------dance-single - Pandemonium X----------------
#NOTES:
     dance-single:
     Pandemonium X:
     Medium:
     6:
     0.462,0.532,0.256,0.380,0.029: // measure 1
0000
0000
0000
0000
,  // measure 2
0001
0000
1001
0000
1000
0001
0200
0000
,  // measure 3
0310
0000
0110
0000
0010
1000
0002
0000
,  // measure 4
1003
0000
1001
0000
0001
1000
0200
0000
,  // measure 5
1300
0100
1100
0011
,  // measure 6
1001
0000
0110
0000
0010
1000
0002
0000
,  // measure 7
0103
0000
0101
0000
0001
0100
0020
0000
,  // measure 8
0130
0000
0110
0000
0010
1000
0002
0000
,  // measure 9
1003
0001
1000
0001
1000
0001
1000
0001
,  // measure 10
1000
0000
1001
0000
0001
0100
0020
0000
,  // measure 11
0130
0000
0110
0000
0010
1000
0200
0000
,  // measure 12
1300
0000
1100
0000
1000
0001
0200
0000
,  // measure 13
0310
0100
0110
1001
,  // measure 14
0001
1000
0001
0100
0002
0000
0103
0000
,  // measure 15
0010
1000
0100
1000
0200
0000
2000
3300
,  // measure 16
0010
1000
0001
0100
0020
0000
0100
0030
,  // measure 17
0000
1000
0001
2000
0000
0000
3001
2000
,  // measure 18
0000
0000
3001
2000
0000
0000
3001
2000
,  // measure 19
0000
0000
3010
2000
0000
0000
3010
2000
,  // measure 20
0000
0000
3010
2000
0000
0000
3010
0000
,  // measure 21
0101
0000
0001
0200
0000
0000
0301
0200
,  // measure 22
0000
0000
0301
0020
0000
0000
0031
0020
,  // measure 23
0000
0000
0031
0200
0000
0000
0301
0200
,  // measure 24
0000
0000
0301
1000
0001
0000
0001
1000
,  // measure 25
0001
0000
0100
0001
0100
0000
0010
0100
,  // measure 26
0010
0100
0010
2020
,  // measure 27
3030
0202
0303
1001
,  // measure 28
0110
0000
0010
1000
0010
0000
0100
0000
,  // measure 29
0110
0000
0010
1000
0001
0100
0002
0000
,  // measure 30
0200
0000
0303
0000
,  // measure 31
0000
0000
0000
0000
0000
0000
0000
0000
1000
0000
0001
0000
0100
0000
0000
0100
,  // measure 32
0000
0000
0100
0000
0000
0000
0000
0000
0000
0000
0010
0000
0100
0000
0000
0100
,  // measure 33
0000
0000
0100
0000
0000
0000
0000
0000
0010
0000
1000
0000
0001
0000
0000
1000
,  // measure 34
0000
0001
0000
1000
0001
0100
0001
0000
,  // measure 35
0001
0000
0000
0000
0101
0000
0000
0000
1100
0000
0000
0000
1000
0000
0000
0100
,  // measure 36
0000
0000
2000
0000
0000
0000
0000
0000
3000
0000
1000
0000
0100
0000
0000
0010
,  // measure 37
0000
0000
0100
0000
0000
0000
0000
0000
0010
0000
0100
0000
0010
0000
0000
1000
,  // measure 38
0000
0001
0000
1000
0100
0010
0001
0020
,  // measure 39
0000
0000
0001
0000
0031
0000
1000
0001
,  // measure 40
0100
0001
0100
0010
1000
1100
0100
0000
,  // measure 41
1000
0001
0100
0010
0000
0100
0010
0100
,  // measure 42
0010
0000
1000
0001
1000
0001
0000
0100
,  // measure 43
0101
1000
1000
0001
0100
0010
0100
0010
,  // measure 44
1000
0001
1000
0001
1000
0100
1000
0100
,  // measure 45
1000
0001
0000
1000
1000
0001
0100
0000
,  // measure 46
0000
0010
0000
0000
0010
0000
0100
0000
,  // measure 47
0000
0010
0000
0000
1000
0000
0010
0000
,  // measure 48
0000
0100
0000
0000
0010
0000
0100
0000
,  // measure 49
0000
0010
1000
0001
1000
0001
1000
0000
,  // measure 50
1000
0000
1000
0000
1000
0001
0100
0000
,  // measure 51
0100
0000
0100
0000
0100
0010
1000
0000
,  // measure 52
1000
0000
1000
0000
1000
0010
0100
0000
,  // measure 53
0010
0000
0010
1000
0001
1000
1001
0000
,  // measure 54
0000
0101
0000
0000
1000
0000
1100
0000
,  // measure 55
0000
0011
0000
0000
0001
0000
0101
0000
,  // measure 56
0000
1010
0000
0000
0010
0000
0110
0000
,  // measure 57
0000
0010
0100
0001
1000
0001
1000
0000
,  // measure 58
1000
0000
0001
1000
0001
0100
0001
0000
,  // measure 59
0100
0000
0001
0100
0001
0010
0001
0000
,  // measure 60
0100
0000
0010
1000
0001
1000
0001
0000
,  // measure 61
1000
0000
1000
0100
0001
0100
0002
0000
,  // measure 62
0000
0103
0000
0000
1000
0000
0200
0000
,  // measure 63
0000
1300
0000
0000
1000
0001
0200
0300
,  // measure 64
0000
0000
0010
1000
0002
0000
2003
0000
3002
0000
2003
0000
3002
0000
2003
0000
,  // measure 65
3002
2003
3002
0003
0000
0000
0000
0000
;

//---------------dance-single - Pandemonium X----------------
#NOTES:
     dance-single:
     Pandemonium X:
     Easy:
     4:
     0.313,0.345,0.231,0.223,0.000: // measure 1
0000
0000
0000
0000
,  // measure 2
1000
0001
0100
0101
,  // measure 3
0001
0100
0010
1001
,  // measure 4
1000
0001
0100
1010
,  // measure 5
0100
1000
0011
1100
,  // measure 6
1001
0001
0100
1010
,  // measure 7
0100
1000
0100
0011
,  // measure 8
0001
0100
0010
1001
,  // measure 9
0002
0000
0000
0000
,  // measure 10
0103
0001
0100
1010
,  // measure 11
0010
0100
0010
1001
,  // measure 12
1000
0100
1000
0011
,  // measure 13
0001
0100
0110
1001
,  // measure 14
1100
0100
1000
0011
,  // measure 15
0001
0100
0010
1001
,  // measure 16
1000
0001
0100
1100
,  // measure 17
0000
0002
0003
2000
,  // measure 18
3000
0020
0030
0200
,  // measure 19
0300
0020
0030
2000
,  // measure 20
3000
0002
0003
1001
,  // measure 21
0110
1002
0003
2000
,  // measure 22
3000
0200
0300
2000
,  // measure 23
3000
0020
0030
0200
,  // measure 24
0300
0010
0000
0001
,  // measure 25
1000
0001
0100
0010
,  // measure 26
1000
0010
0100
0110
,  // measure 27
0000
1001
0000
1000
,  // measure 28
0001
0100
0001
0010
,  // measure 29
0001
0100
0020
2000
,  // measure 30
0000
0000
0000
3030
,  // measure 31
0000
0000
0000
0000
1000
0001
0200
0000
,  // measure 32
0000
0000
0300
0000
0000
0010
2000
0000
,  // measure 33
0000
3000
0000
0000
1000
0001
2000
0000
,  // measure 34
0000
3000
0000
0000
1000
0000
0100
0000
,  // measure 35
0010
0011
1100
2002
,  // measure 36
0000
0000
0000
3003
0000
0001
0200
0000
,  // measure 37
0000
0300
0000
0000
0010
1000
0002
0000
,  // measure 38
0000
1003
0000
0000
1000
0000
0002
0200
,  // measure 39
0000
0000
0303
2000
,  // measure 40
0000
0000
0000
0000
0000
3000
0001
0000
,  // measure 41
1000
0000
0001
0100
0000
0010
0000
0100
,  // measure 42
0010
0000
1000
0000
1000
0001
0000
0100
,  // measure 43
0110
0000
0110
0000
0010
0000
1000
0001
,  // measure 44
0000
1000
0000
1000
1000
0000
0001
0000
,  // measure 45
0100
0001
0000
1000
1000
0000
0001
0000
,  // measure 46
0000
1000
0000
0000
0001
0000
0100
0000
,  // measure 47
0000
0010
0000
0000
0100
0000
0010
0000
,  // measure 48
0000
0100
0000
0000
0010
0000
0000
1000
,  // measure 49
0000
0000
0001
1000
0001
0000
1000
0000
,  // measure 50
0000
1000
0000
0000
1000
0000
0001
0000
,  // measure 51
0000
0001
0000
0000
0001
0000
0100
0000
,  // measure 52
0000
0100
0000
0000
0100
0000
0010
0000
,  // measure 53
0000
0000
0010
0100
0010
0000
0010
0000
,  // measure 54
0100
0010
1000
0010
,  // measure 55
0100
0010
1000
0001
,  // measure 56
1000
0001
0100
0001
,  // measure 57
0010
0000
0001
0100
0001
0100
0001
0000
,  // measure 58
0100
0010
1000
0100
,  // measure 59
1000
0100
1000
0001
,  // measure 60
0010
0001
0100
0010
,  // measure 61
1000
0000
0001
1000
0001
0000
1000
0000
,  // measure 62
0000
1000
0000
0000
1000
0000
0001
0000
,  // measure 63
0000
0001
0000
0000
0001
1000
0100
0000
,  // measure 64
0000
0002
0000
0000
,  // measure 65
0000
0003
0000
0000
;

//---------------dance-single - Pandemonium X----------------
#NOTES:
     dance-single:
     Pandemonium X:
     Beginner:
     2:
     0.105,0.159,0.041,0.000,0.000: // measure 1
0000
0000
0000
0000
,  // measure 2
0010
0000
0000
0000
,  // measure 3
0001
0000
0000
0000
,  // measure 4
1000
0000
0000
0000
,  // measure 5
0100
0000
0010
0010
,  // measure 6
0010
0000
0000
0000
,  // measure 7
1000
0000
0000
0000
,  // measure 8
0001
0000
0000
0000
,  // measure 9
0000
0000
0000
0000
,  // measure 10
1001
0000
0000
0000
,  // measure 11
0010
0000
0000
0000
,  // measure 12
1000
0000
0000
0000
,  // measure 13
0001
0000
0100
0100
,  // measure 14
0100
0000
0000
0000
,  // measure 15
0010
0000
0000
0000
,  // measure 16
1000
0000
0000
0000
,  // measure 17
0000
0001
0000
0001
,  // measure 18
0000
0001
0000
0001
,  // measure 19
0000
0001
0000
0001
,  // measure 20
0000
0001
0000
0001
,  // measure 21
0000
1000
0000
1000
,  // measure 22
0000
1000
0000
1000
,  // measure 23
0000
1000
0000
1000
,  // measure 24
0000
1000
0000
0010
,  // measure 25
0000
0000
0000
0010
,  // measure 26
0000
0000
0000
0110
,  // measure 27
0000
0010
0000
1001
,  // measure 28
0000
0000
0000
1000
,  // measure 29
0000
0000
0000
1000
,  // measure 30
0000
0000
0000
0000
,  // measure 31
0000
0000
0000
0010
,  // measure 32
0000
0000
0000
1000
,  // measure 33
0000
0000
0000
0001
,  // measure 34
0000
0000
0000
0100
,  // measure 35
0100
0100
0100
0100
,  // measure 36
0000
0000
0000
0010
,  // measure 37
0000
0000
0000
1000
,  // measure 38
0000
0000
0000
0001
,  // measure 39
0000
0000
0000
0000
,  // measure 40
0000
0000
0000
0010
,  // measure 41
0000
0000
0000
1000
0000
0000
0000
0000
,  // measure 42
0001
0000
0000
0000
0000
0001
0000
0000
,  // measure 43
1000
0000
1000
0000
0000
0000
0000
1000
,  // measure 44
0000
0000
0010
0000
,  // measure 45
0100
0100
0000
0100
0100
0000
0100
0000
,  // measure 46
0000
0000
0000
0010
,  // measure 47
0000
0000
0000
1000
,  // measure 48
0000
0000
0000
0001
,  // measure 49
0000
0000
0000
1000
,  // measure 50
0000
0000
0000
0010
,  // measure 51
0000
0000
0000
0100
,  // measure 52
0000
0000
0000
0010
,  // measure 53
0000
0000
0000
1001
,  // measure 54
0000
0000
0000
0001
,  // measure 55
0000
0000
0000
1000
,  // measure 56
0000
0000
0000
0010
,  // measure 57
0000
0100
0100
0100
,  // measure 58
0000
0000
0000
0010
,  // measure 59
0000
0000
0000
1000
,  // measure 60
0000
0000
0000
0001
,  // measure 61
0000
0000
0000
1000
,  // measure 62
0000
0000
0000
0001
,  // measure 63
0000
0000
0000
0000
,  // measure 64
0000
0000
0000
0000
,  // measure 65
0000
1001
0000
0000
;
