#TITLE:Zero-Two;
#SUBTITLE:;
#ARTIST:IR2-X;
#TITLETRANSLIT:;
#SUBTITLETRANSLIT:;
#ARTISTTRANSLIT:;
#CREDIT:;
#BANNER:bn.png;
#BACKGROUND:bg.png;
#LYRICSPATH:;
#CDTITLE:;
#MUSIC:Zero-Two.mp3;
#OFFSET:-0.020;
#SAMPLESTART:43.900;
#SAMPLELENGTH:22.000;
#SELECTABLE:YES;
#DISPLAYBPM:*;
#BPMS:0.000=174.920,60.000=87.500,62.000=175.000,118.000=87.500,118.500=175.000,124.500=350.001,126.500=175.002,182.500=87.501,183.000=175.002,189.000=350.003,191.000=175.002,247.000=87.501,247.500=175.002,253.500=350.003,255.500=175.002,270.500=350.003,272.500=87.501,273.000=175.002,279.000=350.003,281.000=175.002,289.000=350.003,291.000=175.002,299.000=87.501,299.500=175.002,314.500=87.501,315.000=175.002,321.000=350.003,323.000=175.002;
#STOPS:;
#BGCHANGES:;

//---------------dance-single - Pandemonium X----------------
#NOTES:
     dance-single:
     Pandemonium X:
     Hard:
     10:
     0.686,0.891,0.421,0.066,0.896: // measure 1
0000
0000
0000
0000
,  // measure 2
0000
0000
0000
0000
,  // measure 3
0000
0000
0000
0000
,  // measure 4
0000
0000
0000
0000
,  // measure 5
0000
0000
0000
0000
,  // measure 6
0000
0000
0000
0000
,  // measure 7
0000
0000
0000
0000
,  // measure 8
0000
0000
0000
0000
,  // measure 9
1001
0101
0011
1001
,  // measure 10
1100
0000
0000
1001
0000
0000
0101
0000
0000
1000
0000
0001
,  // measure 11
0100
0000
0000
0010
0000
0000
0100
0000
0000
0010
0000
1000
,  // measure 12
0100
1000
0001
0100
,  // measure 13
0110
1000
1001
0001
,  // measure 14
1100
0001
1010
0100
,  // measure 15
0110
1000
1001
0001
,  // measure 16
0011
0000
0000
0100
0000
0000
1000
0000
0000
1001
0000
0001
,  // measure 17
0100
0000
0000
0010
0000
1000
0100
0000
0000
1000
0000
0001
,  // measure 18
0100
0000
0000
0010
0000
0100
0010
0000
0000
0100
0000
0010
,  // measure 19
1000
0000
0000
1000
0000
0001
1000
0000
0000
0001
0000
1000
,  // measure 20
0100
0000
0000
0010
0000
0001
0100
0000
0000
0110
0000
1000
,  // measure 21
0010
0000
0000
1010
0000
1000
0010
0000
0000
0110
0000
0010
,  // measure 22
0100
0000
0000
1001
0000
0100
1000
0000
0000
0011
0000
0001
,  // measure 23
0100
0000
0000
0110
0000
0000
1000
0001
0010
0001
0000
0011
,  // measure 24
0000
0000
1000
0000
0000
0001
0100
0000
0100
0010
0000
0100
,  // measure 25
0010
0000
0000
0110
0000
0000
1000
0000
0001
1000
0000
1000
,  // measure 26
0100
0000
0000
1100
0000
0000
1000
0000
0001
0010
0000
1000
,  // measure 27
0100
0000
0000
0101
0000
0000
0010
0000
0010
1000
0000
0001
,  // measure 28
0010
0000
0000
1100
0000
0000
1001
0000
0001
0100
0000
1000
,  // measure 29
0100
0000
0000
1100
0000
0000
1010
0000
1000
0100
0000
0001
,  // measure 30
0010
0000
1100
0000
1001
1000
0000
0001
,  // measure 31
0000
0000
0000
0010
0000
0000
0000
0001
0000
0010
0000
0000
0000
0000
0000
1100
0000
0000
0000
1000
0000
0100
0000
0000
,  // measure 32
0000
1000
0000
0002
0000
0000
0000
0000
0000
0000
0000
0000
0000
0000
0000
1003
0000
0000
0000
1000
0000
0100
0000
0000
,  // measure 33
0000
0001
0000
0100
0000
0000
0000
0010
0000
0100
0000
0000
0000
0100
0000
0010
0000
0000
0000
1000
0000
0001
0000
0000
,  // measure 34
0000
1000
0000
0100
0000
0000
0000
0001
0000
0010
0000
0000
0000
0000
0000
0011
0000
0000
0000
1000
0000
0100
0000
0000
,  // measure 35
0000
0010
0000
0100
0000
0000
0000
1000
0000
0001
0000
0000
0000
0000
0000
1001
0000
0000
0000
0001
0000
0100
0000
0000
,  // measure 36
0000
0010
0000
1000
0000
0000
0000
0000
0000
1100
0000
0000
0000
0000
0000
1100
0000
0000
0000
1000
0000
0100
0000
0000
,  // measure 37
0000
0001
0000
0010
0000
0000
0000
1000
0000
0001
0000
0000
0000
0100
0000
0001
0000
0000
0000
0001
0000
0010
0000
0000
,  // measure 38
0000
1000
0000
0100
0000
0000
0000
1000
0000
0001
0000
0000
0000
0001
0000
0010
0000
0000
0000
1000
0000
0100
0000
0000
,  // measure 39
0000
0001
0000
0100
0000
0000
0000
0010
0000
0100
0000
0000
0000
0010
0000
1000
0000
0001
0000
0010
0000
0001
0000
0000
,  // measure 40
0000
1001
0000
0000
0000
0000
0000
1010
0000
0000
0000
0000
0000
1000
0000
0100
0000
0000
0000
0100
0000
1000
0000
0000
,  // measure 41
0000
1000
0000
0100
0000
0000
0000
1000
0000
0001
0000
0000
0000
0001
0000
0010
0000
0000
0000
0010
0000
0001
0000
0000
,  // measure 42
0000
0001
0000
0010
0000
0000
0000
0001
0000
0100
0000
0000
0000
0010
0000
0100
0000
0000
0000
1000
0000
0001
0000
0000
,  // measure 43
0000
1000
0000
0100
0000
0000
0000
0001
0000
0010
0000
0000
0000
1000
0000
0100
0000
0000
0000
0001
0000
0100
0000
0000
,  // measure 44
0000
1000
0000
0001
0000
0000
0000
1000
0000
0100
0000
0000
0000
1000
0000
0001
0000
0000
0000
0001
0000
0010
0000
0000
,  // measure 45
0000
1000
0000
0001
0000
0000
0000
0001
0000
0010
0000
0000
0000
1000
0000
0100
0000
0000
0000
1000
0000
0001
0000
0000
,  // measure 46
0000
0001
0000
0010
0000
0000
0000
1000
0000
0100
0000
0000
0000
1000
0000
0001
0000
0000
1001
0000
0000
0000
1000
0000
,  // measure 47
0001
0000
0001
0100
0000
0010
0100
0000
0010
1000
0000
1000
,  // measure 48
0100
0000
0000
0000
1000
0000
1020
0000
0000
0000
0000
0000
0000
0000
0000
0000
0000
0000
1030
0000
0000
0100
0000
0000
,  // measure 49
0001
0010
0001
0100
0010
0100
0001
0010
,  // measure 50
1000
0100
1000
0001
0100
0001
0010
0001
,  // measure 51
0100
0010
1000
0010
0100
0010
1000
0001
,  // measure 52
0010
1000
0100
0001
0100
0010
0100
0001
,  // measure 53
1000
0100
1000
0001
0100
0001
0010
0001
,  // measure 54
0100
0001
1000
0100
1000
0001
0010
0001
,  // measure 55
1000
0000
0000
0100
0000
0000
1000
0000
0000
0001
0000
0000
0100
0000
0000
0010
0000
0000
1000
0000
0100
0000
0010
0000
,  // measure 56
0001
0000
1001
0000
0000
0001
0000
0000
0001
0101
0000
0001
,  // measure 57
0100
0000
0010
1000
0000
1000
0100
0000
0001
0010
0000
0001
,  // measure 58
0100
0000
0010
1000
0000
1000
0001
0010
1000
0100
0000
1000
,  // measure 59
0100
0000
0001
0010
0000
1000
0100
0000
0001
0100
0000
0010
,  // measure 60
0100
0000
1000
0001
0000
0100
1000
0100
0001
0010
0000
0001
,  // measure 61
0010
0000
1000
0100
0000
0001
0100
0000
0100
0010
0000
0010
,  // measure 62
1000
0000
0000
0000
1000
0000
0001
0000
0000
0000
1000
0000
0001
0000
0010
0000
0001
0000
0000
0000
0000
1001
0000
0000
,  // measure 63
0000
1000
0000
0100
0000
0000
0000
0001
0000
0010
0000
0000
0000
1000
0000
0001
0000
0000
0000
0000
0000
0001
0000
0000
,  // measure 64
0000
1000
0000
0001
0000
0000
0000
0000
0000
0002
0000
0000
0000
0000
0000
0000
0000
0000
0000
0000
0000
0013
0000
0000
,  // measure 65
0000
0001
0000
0010
0000
0000
0000
1000
0000
0100
0000
0000
0000
0000
0000
1001
0000
0000
0000
0000
0000
1100
0000
0000
,  // measure 66
0000
0000
0000
0011
0000
0000
0000
0000
0000
0101
0000
0000
0000
0000
0000
0010
0000
1000
0000
0001
0000
0010
0000
0000
,  // measure 67
0000
0001
0000
0010
0000
0000
0000
1000
0000
0100
0000
0000
0000
1000
0000
0001
0000
0000
0000
0001
0000
0010
0000
0000
,  // measure 68
0000
1000
0000
0100
0000
1000
0000
0001
0000
0100
0000
0000
0000
0000
0000
0020
0000
0000
0000
0000
0000
0000
0000
0000
,  // measure 69
0000
0000
0000
0030
0000
0000
1001
0000
0000
0000
1000
0000
0100
0000
0000
0000
0001
0000
0010
0000
0000
0000
0001
0000
,  // measure 70
0100
0000
0001
0100
0000
1000
0100
0010
0001
0200
0000
0000
,  // measure 71
0000
0000
0000
0310
0000
1000
0001
0000
0001
0010
0000
1000
,  // measure 72
0100
0000
1000
0001
0010
0100
1000
0000
1001
0000
0000
0110
,  // measure 73
0000
0000
0010
2010
0000
0000
0000
0000
0000
3100
1000
0100
,  // measure 74
1000
0100
0010
0001
0010
0001
0100
0010
1000
0001
0010
0001
,  // measure 75
0100
0000
0010
0000
1000
0000
0100
0000
1000
0000
0100
0000
1000
0000
0001
0000
0100
0000
0001
1000
0001
0010
0000
0001
,  // measure 76
0000
1000
0000
0100
0000
1000
0000
0001
0000
0100
0000
0010
0000
0100
0000
0010
0000
1000
0000
0001
0000
0010
0000
0001
,  // measure 77
0000
1000
0000
0001
0000
0100
0000
0001
0000
1000
0000
0100
0000
1000
0000
0100
0000
0001
0000
0010
0000
0001
0000
0100
,  // measure 78
0000
0010
0000
1000
0000
0100
0000
0001
0000
0010
0000
0001
0000
1000
0000
0001
0000
0100
0000
0010
0000
0100
0000
0010
,  // measure 79
0000
1000
0000
0001
0000
0010
0000
0001
0000
1000
0000
0100
0000
1000
0000
0000
0000
0000
0001
0000
1000
0000
0001
0000
,  // measure 80
0010
0001
0100
0010
1000
0100
0010
0001
0010
0100
1000
0001
,  // measure 81
0100
0010
1000
0200
0000
0000
0000
0000
0000
2000
0000
0000
,  // measure 82
0000
0000
0000
0000
,  // measure 83
0000
0000
0000
0000
,  // measure 84
3300
0000
0000
0000
;

//---------------dance-single - Pandemonium X----------------
#NOTES:
     dance-single:
     Pandemonium X:
     Medium:
     8:
     0.525,0.608,0.900,0.050,0.223: // measure 1
0000
0000
0000
0000
,  // measure 2
0000
0000
0000
0000
,  // measure 3
0000
0000
0000
0000
,  // measure 4
0000
0000
0000
0000
,  // measure 5
0000
0000
0000
0000
,  // measure 6
0000
0000
0000
0000
,  // measure 7
0000
0000
0000
0000
,  // measure 8
0000
0000
0000
0000
,  // measure 9
0110
0010
1000
0010
,  // measure 10
0110
0010
0110
0100
,  // measure 11
1001
0000
0000
0001
0000
0000
1000
0000
0000
0001
0000
0100
,  // measure 12
0001
0001
1000
0100
,  // measure 13
1100
0000
0101
0000
,  // measure 14
0110
0000
1001
0000
,  // measure 15
1100
0000
0011
0000
,  // measure 16
0110
1001
1100
0100
,  // measure 17
1100
1000
1100
0100
,  // measure 18
0110
0010
0011
0001
,  // measure 19
0101
0100
0110
0010
,  // measure 20
1010
0100
0110
0010
,  // measure 21
1010
0001
1001
1000
,  // measure 22
1100
0010
0011
0001
,  // measure 23
0101
0000
0000
0001
0000
0000
1000
0001
1000
0001
0000
1000
,  // measure 24
0000
0000
0001
0000
0000
0001
0100
0000
0000
0010
0000
0000
,  // measure 25
0110
0010
1010
0010
,  // measure 26
1001
0010
0110
0010
,  // measure 27
1001
0100
1001
0100
,  // measure 28
1001
0001
1010
0001
,  // measure 29
1010
1000
0011
1000
,  // measure 30
0011
0000
1000
0000
0001
1001
0000
0001
,  // measure 31
0000
1100
0000
0010
0000
0011
0000
0100
,  // measure 32
0000
0010
0000
0000
0000
0100
0000
0110
,  // measure 33
0000
0110
0000
0110
0000
1001
0000
1001
,  // measure 34
0000
1001
0000
1001
0000
1010
0000
1010
,  // measure 35
0000
1010
0000
1010
0000
0101
0000
0101
,  // measure 36
0000
0101
0000
0101
0000
0011
0000
0011
,  // measure 37
0000
0011
0000
0011
0000
1100
0000
1100
,  // measure 38
0000
1100
0000
1100
0000
1100
0000
0011
,  // measure 39
0000
0000
0000
0011
0000
0000
0000
0000
0000
0011
0000
0000
0000
0000
0000
0001
0000
1000
0000
0001
0000
1000
0000
0000
,  // measure 40
0000
0100
0000
0000
0000
0000
0000
1001
0000
0000
0000
0000
0000
1000
0000
0100
0000
0000
0000
0000
0000
1100
0000
0000
,  // measure 41
0000
1100
0000
1100
0000
1001
0000
1001
,  // measure 42
0000
0101
0000
0101
0000
0101
0000
0011
,  // measure 43
0000
0101
0000
0011
0000
1100
0000
1010
,  // measure 44
0000
1100
0000
1010
0000
1001
0000
1100
,  // measure 45
0000
0011
0000
0101
0000
1010
0000
1100
,  // measure 46
0000
0011
0000
1100
0000
1001
1001
0000
,  // measure 47
0101
0101
0011
1010
,  // measure 48
1100
2000
0000
3001
,  // measure 49
1000
0000
0001
1000
0001
0000
0100
0000
,  // measure 50
0001
0000
0100
0001
0100
0000
0001
0000
,  // measure 51
0100
0000
0010
1000
0100
0000
1000
0000
,  // measure 52
0001
0000
1000
0001
0100
0000
0001
0000
,  // measure 53
0001
1000
1000
0001
,  // measure 54
1000
0001
0100
0010
,  // measure 55
1000
0000
0000
0100
0000
0000
1000
0000
0000
0010
1000
0010
,  // measure 56
1000
0000
0010
0000
0000
0100
0000
0000
0001
1000
0000
0000
,  // measure 57
0001
0100
0010
0100
,  // measure 58
0010
0000
0000
1000
0000
0000
0010
0000
0010
0100
0000
0000
,  // measure 59
0010
1000
0001
0100
,  // measure 60
0001
0000
0000
0010
0000
0000
0001
0000
0001
0010
0000
0000
,  // measure 61
0001
0100
0010
1000
,  // measure 62
0100
0000
0000
0000
0000
0000
1000
0000
0000
0000
0000
0000
0010
0000
0000
0000
0010
0000
0100
0000
0000
1010
0000
0000
,  // measure 63
0000
0010
0000
0100
0000
1001
0000
0010
,  // measure 64
0000
1001
0000
2000
0000
0000
0000
3001
,  // measure 65
0000
0101
0000
1100
0000
0001
0000
0100
,  // measure 66
0000
0000
0000
0010
0000
0000
0000
0000
0000
1000
0000
0000
0000
0000
0000
0010
0000
0000
0000
0100
0000
0010
0000
0000
,  // measure 67
0000
0100
0000
0010
0000
1000
0000
0010
,  // measure 68
0000
0100
0000
0010
0000
2000
0000
0000
,  // measure 69
0000
3000
1001
0000
0001
0000
0100
0000
,  // measure 70
0010
1000
0010
0110
,  // measure 71
0000
1001
0010
0100
,  // measure 72
0010
0000
0000
1000
0001
1000
0100
0000
1100
0000
0000
1100
,  // measure 73
0000
0000
0010
0002
0000
0000
0000
0000
0000
1003
0000
1000
,  // measure 74
0100
0000
0010
0001
0000
0001
0100
0000
0010
0100
0000
0001
,  // measure 75
1000
0000
0000
0000
1000
0000
0001
0000
0000
0000
0100
0000
0001
0000
0000
0000
0100
0000
0010
0000
0000
1000
0000
0000
,  // measure 76
0000
1000
0000
0100
0000
0000
0000
0010
0000
0001
0000
0000
0000
0001
0000
0100
0000
0000
0000
0010
0000
0100
0000
0000
,  // measure 77
0000
0010
0000
1000
0000
0000
0000
1000
0000
0001
0000
0000
0000
0010
0000
0001
0000
0000
0000
1000
0000
0100
0000
0000
,  // measure 78
0000
1000
0000
0010
0000
0000
0000
0100
0000
0010
0000
0000
0000
1000
0000
0001
0000
0000
0000
0010
0000
0001
0000
0000
,  // measure 79
0000
1000
0000
0100
0000
0000
0000
1000
0000
0001
0000
0000
0000
0010
0000
0000
0000
0000
1001
0000
0000
0000
1000
0000
,  // measure 80
0100
0000
0001
0010
0000
0001
0100
0000
0010
1000
0000
0001
,  // measure 81
0010
0000
1000
0200
0000
0000
0000
0000
0000
2000
0000
0000
,  // measure 82
0000
0000
0000
3300
;

//---------------dance-single - Pandemonium X----------------
#NOTES:
     dance-single:
     Pandemonium X:
     Easy:
     5:
     0.304,0.367,0.223,0.017,0.000: // measure 1
0000
0000
0000
0000
,  // measure 2
0000
0000
0000
0000
,  // measure 3
0000
0000
0000
0000
,  // measure 4
0000
0000
0000
0000
,  // measure 5
0000
0000
0000
0000
,  // measure 6
0000
0000
0000
0000
,  // measure 7
0000
0000
0000
0000
,  // measure 8
0000
0000
0000
0000
,  // measure 9
1010
0000
0000
0000
,  // measure 10
0010
0000
1000
0000
,  // measure 11
0001
0000
0000
0000
,  // measure 12
1000
0000
0000
0000
,  // measure 13
0001
0000
0001
0000
,  // measure 14
1000
0000
0001
0000
,  // measure 15
0100
0000
0010
0000
,  // measure 16
1000
1100
1100
0000
,  // measure 17
0001
0000
1001
0000
,  // measure 18
1000
0000
1010
0000
,  // measure 19
0010
0000
1001
0000
,  // measure 20
0100
0000
1100
0000
,  // measure 21
0001
0000
1000
0000
,  // measure 22
0100
0000
1000
0000
,  // measure 23
0010
0000
0110
0000
,  // measure 24
0110
0000
1001
0000
,  // measure 25
0001
0000
1000
0000
,  // measure 26
0100
0000
1000
0000
,  // measure 27
0010
0000
0100
0000
,  // measure 28
0010
0000
0100
0000
,  // measure 29
0010
0000
1000
0000
,  // measure 30
0001
0000
0000
0000
1000
0000
0000
0001
,  // measure 31
0000
0000
0000
0100
0000
0000
0000
0010
,  // measure 32
0000
0110
0000
0000
0000
0110
0000
0010
,  // measure 33
0000
0010
0000
0010
0000
0100
0000
0100
,  // measure 34
0000
0100
0000
0100
0000
0010
0000
0010
,  // measure 35
0000
0010
0000
0010
0000
1000
0000
1000
,  // measure 36
0000
1000
0000
1000
0000
0001
0000
0001
,  // measure 37
0000
0001
0000
0001
0000
1000
0000
1000
,  // measure 38
0000
1000
0000
1000
0000
0010
0000
0010
,  // measure 39
0000
0010
0000
0010
0000
0110
0000
0000
,  // measure 40
0000
0000
0000
0000
0000
0001
0000
1000
,  // measure 41
0000
0001
0000
0100
0000
0010
0000
1000
,  // measure 42
0000
0010
0000
0100
0000
0010
0000
0010
,  // measure 43
0000
0100
0000
0100
0000
0010
0000
1000
,  // measure 44
0000
0001
0000
1000
0000
0001
0000
1000
,  // measure 45
0000
0100
0000
0010
0000
0001
0000
1000
,  // measure 46
0000
0100
0000
0010
0000
0001
0010
0000
,  // measure 47
0100
1000
0001
0100
,  // measure 48
0010
1000
0000
0010
,  // measure 49
0010
0100
0100
0010
,  // measure 50
0100
0010
0100
0001
,  // measure 51
0001
1000
1000
0001
,  // measure 52
1000
0001
1000
0001
,  // measure 53
0100
0010
1000
0100
,  // measure 54
1000
0100
1000
0010
,  // measure 55
0001
0010
0001
0100
,  // measure 56
0000
0000
0000
0110
,  // measure 57
0010
1000
0001
1000
,  // measure 58
0001
0100
0010
1000
,  // measure 59
1100
1000
0001
0100
,  // measure 60
0010
1000
0010
0100
,  // measure 61
1001
0001
0100
0010
,  // measure 62
1000
0000
0100
0000
1000
0000
0000
1100
,  // measure 63
0000
0001
0000
0100
0000
0010
0000
1000
,  // measure 64
0000
0001
0000
0100
0000
0000
0000
0110
,  // measure 65
0000
0110
0000
0110
0000
0010
0000
1000
,  // measure 66
0000
0001
0000
0100
0000
0001
0000
0011
,  // measure 67
0000
0001
0000
0100
0000
0010
0000
1000
,  // measure 68
0000
0100
0000
1000
0000
1010
0000
0000
,  // measure 69
0000
1001
0001
0100
,  // measure 70
0010
0100
0010
1010
,  // measure 71
0000
1010
0010
1000
,  // measure 72
0010
1000
0100
0010
,  // measure 73
0001
0000
0000
1001
,  // measure 74
0001
0100
0010
1000
,  // measure 75
0100
0000
0010
0000
0001
0000
0000
0001
,  // measure 76
0000
0100
0000
1000
0000
0100
0000
0010
,  // measure 77
0000
0001
0000
0100
0000
0010
0000
1000
,  // measure 78
0000
0010
0000
0100
0000
0010
0000
1000
,  // measure 79
0000
0001
0000
0100
0000
0001
0010
0000
,  // measure 80
0001
0100
1000
0010
,  // measure 81
0100
2002
0000
3003
;

//---------------dance-single - Pandemonium X----------------
#NOTES:
     dance-single:
     Pandemonium X:
     Beginner:
     3:
     0.159,0.200,0.149,0.000,0.000: // measure 1
0000
0000
0000
0000
,  // measure 2
0000
0000
0000
0000
,  // measure 3
0000
0000
0000
0000
,  // measure 4
0000
0000
0000
0000
,  // measure 5
0000
0000
0000
0000
,  // measure 6
0000
0000
0000
0000
,  // measure 7
0000
0000
0000
0000
,  // measure 8
0000
0000
0000
0000
,  // measure 9
1001
0000
0000
0000
,  // measure 10
0001
0000
0001
0000
,  // measure 11
0001
0000
0000
0000
,  // measure 12
0100
0000
0000
0000
,  // measure 13
0010
0000
0010
0000
,  // measure 14
0010
0000
0010
0000
,  // measure 15
1000
0000
1000
0000
,  // measure 16
1000
0000
0001
0000
,  // measure 17
0001
0000
0001
0000
,  // measure 18
0000
0000
1000
0000
,  // measure 19
1000
0000
1000
0000
,  // measure 20
0000
0000
0010
0000
,  // measure 21
0010
0000
0010
0000
,  // measure 22
0000
0000
0100
0000
,  // measure 23
0100
0000
0100
0000
,  // measure 24
0010
0000
1001
0000
,  // measure 25
0001
0000
0001
0000
,  // measure 26
0000
0000
1000
0000
,  // measure 27
1000
0000
1000
0000
,  // measure 28
0000
0000
0010
0000
,  // measure 29
0010
0000
0010
0000
,  // measure 30
0000
0000
0000
0000
0100
0000
0000
0100
,  // measure 31
0000
0000
0000
0100
0000
0000
0000
0010
,  // measure 32
0000
1001
0000
0000
0000
1001
0000
0000
,  // measure 33
0000
0000
0000
0000
0000
0001
0000
0000
,  // measure 34
0000
0000
0000
0000
0000
1000
0000
0000
,  // measure 35
0000
0000
0000
0000
0000
0010
0000
0000
,  // measure 36
0000
0000
0000
0000
0000
0100
0000
0000
,  // measure 37
0000
0000
0000
0000
0000
0010
0000
0000
,  // measure 38
0000
0000
0000
0000
0000
1000
0000
0000
,  // measure 39
0000
0000
0000
0000
0000
1001
0000
0000
,  // measure 40
0000
0110
0000
0000
0000
0110
0000
0000
,  // measure 41
0000
0010
0000
0000
0000
0010
0000
0000
,  // measure 42
0000
0000
0000
0000
0000
1000
0000
0000
,  // measure 43
0000
1000
0000
0000
0000
1000
0000
0000
,  // measure 44
0000
0000
0000
0000
0000
0001
0000
0000
,  // measure 45
0000
1000
0000
0000
0000
0001
0000
0000
,  // measure 46
0000
0100
0000
0000
0000
0000
0110
0000
,  // measure 47
0000
0000
0010
0000
,  // measure 48
0010
0010
0000
0010
,  // measure 49
0000
0010
0000
0010
,  // measure 50
0000
0010
0000
1000
,  // measure 51
0000
1000
0000
1000
,  // measure 52
0000
1000
0000
0001
,  // measure 53
0000
0001
0000
0001
,  // measure 54
0000
0001
0000
1000
,  // measure 55
0000
0001
0000
0110
,  // measure 56
0000
0000
0000
0110
,  // measure 57
0000
0000
0000
0000
,  // measure 58
0000
0010
0010
0000
,  // measure 59
0010
0000
0000
0000
,  // measure 60
0000
0000
1000
1000
,  // measure 61
1000
0000
0000
0000
,  // measure 62
0000
0000
0000
0000
0001
0000
0000
1001
,  // measure 63
0000
0000
0000
0000
,  // measure 64
0000
0000
0000
0010
0000
0000
0000
1001
,  // measure 65
0000
0001
0000
0001
0000
0000
0000
0000
,  // measure 66
0000
0000
0000
0000
0000
0000
0000
1000
,  // measure 67
0000
0000
0000
0000
0000
0000
0000
0010
,  // measure 68
0000
0000
0000
0100
0000
0010
0000
0000
,  // measure 69
0000
0110
0000
0000
,  // measure 70
0000
0000
0000
0010
,  // measure 71
0000
1000
0000
0001
,  // measure 72
0000
1000
0000
0000
,  // measure 73
0000
1001
0000
1001
,  // measure 74
0000
0001
0000
0001
,  // measure 75
0000
0000
0001
0000
0000
0000
0000
1000
,  // measure 76
0000
0000
0000
1000
0000
0000
0000
0001
,  // measure 77
0000
0000
0000
1000
0000
0000
0000
0001
,  // measure 78
0000
0000
0000
0100
0000
0000
0000
0010
,  // measure 79
0000
0000
0000
1000
0000
0000
1001
0000
,  // measure 80
0000
1000
0000
0001
,  // measure 81
0000
1001
0000
1001
;
