#TITLE:This Feeling;
#SUBTITLE:;
#ARTIST:OA;
#TITLETRANSLIT:;
#SUBTITLETRANSLIT:;
#ARTISTTRANSLIT:;
#GENRE:;
#CREDIT:;
#MENUCOLOR:;
#NEWMETERSYSTEM:NO;
#BANNER:This Feeling-bn.png;
#BACKGROUND:This Feeling-bg.png;
#LYRICSPATH:;
#CDTITLE:Z-I-v Summer Contest 2010-cdtitle.png;
#MUSIC:This Feeling.mp3;
#OFFSET:-0.380;
#SAMPLESTART:47.140;
#SAMPLELENGTH:12.000;
#SELECTABLE:YES;
#LISTSORT:;
#BPMS:0.000=164.000;
#STOPS:;
#BGCHANGES:;
#ATTACKS:;

//---------------dance-single - ----------------
#NOTES:
     dance-single:
     :
     Easy:
     4:
     0.302,0.367,0.106,0.220,0.000: // measure 1
0000
0000
0000
0000
,  // measure 2
0000
0000
0000
0000
,  // measure 3
0000
0000
0000
0000
,  // measure 4
0000
0000
0000
0000
,  // measure 5
0000
0000
0000
0000
,  // measure 6
0000
0000
0000
0000
,  // measure 7
0000
0000
0000
0000
,  // measure 8
2002
0000
0000
3003
,  // measure 9
0110
0001
0010
0100
,  // measure 10
1000
0100
1000
0001
,  // measure 11
0100
0010
1000
0100
,  // measure 12
0001
0100
1000
0010
,  // measure 13
0200
0001
0301
0010
,  // measure 14
0200
1000
1300
0010
,  // measure 15
1000
0100
0001
0100
,  // measure 16
1000
0000
0000
0001
,  // measure 17
0100
0010
1000
0001
,  // measure 18
0010
0001
1000
0000
,  // measure 19
1000
0100
0010
0100
,  // measure 20
1000
0001
0010
0000
,  // measure 21
0001
0100
0001
0100
,  // measure 22
1000
0100
1000
0100
,  // measure 23
0020
0000
0001
0000
,  // measure 24
0100
0000
0031
0000
,  // measure 25
1001
0000
0100
0000
,  // measure 26
0100
0000
0000
0010
,  // measure 27
1000
0000
0100
1000
,  // measure 28
2000
0000
3002
0000
,  // measure 29
2003
0000
0010
0000
,  // measure 30
3002
0000
0010
0000
,  // measure 31
0023
0000
0032
0000
,  // measure 32
1003
0000
1010
0101
,  // measure 33
1001
0100
1000
0001
,  // measure 34
0010
0001
0100
0000
,  // measure 35
0010
1000
0100
1000
,  // measure 36
0001
0001
0010
0000
,  // measure 37
0100
1000
0010
1000
,  // measure 38
0001
0000
0010
0000
,  // measure 39
0001
0010
0100
1000
,  // measure 40
0002
0000
0000
1003
,  // measure 41
1100
0000
1000
0010
,  // measure 42
0000
0100
0001
0100
,  // measure 43
0011
0000
1000
0001
,  // measure 44
0000
1000
0100
1000
,  // measure 45
1001
0000
0100
0010
,  // measure 46
0000
0100
1000
0100
,  // measure 47
0110
0000
0010
0001
,  // measure 48
0000
1000
0001
1000
,  // measure 49
0020
0000
2030
0000
,  // measure 50
3002
0000
0203
0000
,  // measure 51
0320
0000
2030
0000
,  // measure 52
3200
0000
0310
0010
,  // measure 53
0002
0000
2003
0000
,  // measure 54
3020
0000
2030
0000
,  // measure 55
3200
0000
0320
0000
,  // measure 56
0031
0000
0010
0010
,  // measure 57
1100
0010
0001
1000
,  // measure 58
0010
1000
0001
0010
,  // measure 59
0100
0010
0001
1000
,  // measure 60
0010
0100
0001
0000
,  // measure 61
0100
1000
0010
0100
,  // measure 62
0001
1000
0100
0001
,  // measure 63
0100
1000
0010
0100
,  // measure 64
0001
1000
1001
0000
,  // measure 65
0010
0001
0010
0001
,  // measure 66
1000
0100
0100
0000
,  // measure 67
1000
0010
1000
0010
,  // measure 68
0100
0001
0001
0000
,  // measure 69
0010
0100
1000
0001
,  // measure 70
0010
0100
1000
0001
,  // measure 71
0200
0010
0010
0010
,  // measure 72
0001
0001
0001
0301
,  // measure 73
1001
0000
0100
0000
,  // measure 74
1000
0000
0010
0000
,  // measure 75
0100
0000
0001
0000
,  // measure 76
1000
0000
0001
0000
,  // measure 77
0010
0000
0010
0000
,  // measure 78
0100
0000
0100
0000
,  // measure 79
1000
0000
1000
0000
,  // measure 80
0001
0000
0001
0000
,  // measure 81
0020
0000
0000
0000
,  // measure 82
0000
0000
0000
0000
,  // measure 83
0030
0000
0000
0000
;

//---------------dance-single - Copied from----------------
#NOTES:
     dance-single:
     Copied from:
     Beginner:
     1:
     0.114,0.200,0.065,0.073,0.000:
0000
0000
0000
0000
,
0000
0000
0000
0000
,
0000
0000
0000
0000
,
0000
0000
0000
0000
,
0000
0000
0000
0000
,
0000
0000
0000
0000
,
0000
0000
0000
0000
,
0001
0000
0000
0000
,
1000
0000
0100
0000
,
1000
0000
0000
0000
,
0010
0000
0100
0000
,
0010
0000
0000
0000
,
0001
0000
0000
0000
,
0100
0000
0000
0000
,
1000
0000
0000
0000
,
0100
0000
0100
0000
,
0010
0000
0000
0000
,
0001
0000
0000
0000
,
1000
0000
0000
0000
,
0100
0000
0000
0000
,
1000
0000
0000
0000
,
1000
0000
0000
0000
,
0020
0000
0030
0000
,
0200
0000
0300
0000
,
0001
0000
0000
0000
,
0000
0000
0000
0000
,
1000
0000
0000
0000
,
0010
0000
0010
0000
,
0010
0000
0000
0000
,
0001
0000
0000
0000
,
1000
0000
0000
0000
,
0110
0000
0000
0000
,
1001
0000
0000
0000
,
0100
0000
0000
0000
,
1000
0000
0000
0000
,
0010
0000
1000
0000
,
0001
0000
0000
0000
,
0010
0000
0000
0000
,
0100
0000
0000
0000
,
1000
0000
0000
0000
,
0011
0000
0000
0000
,
1000
0000
0000
0000
,
0011
0000
0000
0000
,
2000
0000
3000
0000
,
0011
0000
0000
0000
,
1000
0000
0000
0000
,
0011
0000
0000
0000
,
2000
0000
3000
0000
,
0001
0000
0000
0000
,
0100
0000
0000
0000
,
1000
0000
0000
0000
,
0100
0000
0000
0000
,
0001
0000
0000
0000
,
0010
0000
0000
0000
,
0100
0000
0000
0000
,
1000
0000
0000
0000
,
1001
0000
0000
0000
,
0010
0000
0000
0000
,
0001
0000
0000
0000
,
1000
0000
0000
0000
,
0100
0000
0000
0000
,
1000
0000
0000
0000
,
0010
0000
0000
0000
,
0100
0000
0000
0000
,
0001
0000
0000
0000
,
1000
0000
0000
0000
,
0100
0000
0000
0000
,
1000
0000
0000
0000
,
0010
0000
0000
0000
,
0100
0000
0000
0000
,
0001
0000
0000
0000
,
1000
0000
0001
0000
,
0110
0000
0010
0000
,
0010
0000
0000
0000
,
1000
0000
1000
0000
,
1000
0000
0000
0000
,
0002
0000
0003
0000
,
0020
0000
0030
0000
,
0200
0000
0300
0000
,
2000
0000
3000
0000
,
0020
0000
0000
0000
,
0000
0000
0000
0000
,
0030
0000
0000
0000
;

//---------------dance-single - Copied from----------------
#NOTES:
     dance-single:
     Copied from:
     Medium:
     5:
     0.396,0.434,0.090,0.293,0.000: // measure 1
0000
0000
0000
0000
,  // measure 2
0000
0000
0000
0000
,  // measure 3
0000
0000
0000
0000
,  // measure 4
0000
0000
0000
0000
,  // measure 5
0000
0000
0000
0000
,  // measure 6
0000
0000
0000
0000
,  // measure 7
0000
0000
0000
0000
,  // measure 8
0220
0000
0000
0300
,  // measure 9
1030
0100
0001
0100
,  // measure 10
1000
0000
0010
0000
0100
0000
0001
1000
,  // measure 11
0001
0010
0100
1000
,  // measure 12
0001
0000
0100
0000
0010
0000
1000
0100
,  // measure 13
0001
0100
1000
0010
,  // measure 14
0100
0000
0001
0000
0010
0000
0100
1000
,  // measure 15
0010
0100
0001
1000
,  // measure 16
1001
0000
0000
0001
0000
0000
1000
0000
,  // measure 17
0200
0000
0000
2300
0000
0000
3020
0000
,  // measure 18
0100
0130
0001
1000
,  // measure 19
0020
0000
0000
0230
0000
0000
0302
0000
,  // measure 20
0023
0000
0130
0000
1000
0000
0001
0100
,  // measure 21
0001
0000
0001
1000
0000
0000
0100
0000
,  // measure 22
1000
0000
1000
0010
0000
0000
0100
0000
,  // measure 23
0001
0010
0100
1000
,  // measure 24
0010
0100
0010
1000
,  // measure 25
0001
0000
0100
0001
,  // measure 26
1000
0000
0100
1000
,  // measure 27
0010
0000
1000
0100
,  // measure 28
0101
0000
1100
0000
,  // measure 29
1001
0000
0010
0100
,  // measure 30
0010
0000
1000
0100
,  // measure 31
1000
0000
0001
1000
,  // measure 32
1001
0000
0001
0000
0010
0001
0010
0001
,  // measure 33
0100
0000
0010
1000
0001
0000
0100
0000
,  // measure 34
0001
1000
0100
0010
,  // measure 35
0100
0000
1000
0000
1000
0001
0010
0000
,  // measure 36
0100
0000
1000
0000
0100
1000
0001
0000
,  // measure 37
0100
0001
0010
0100
,  // measure 38
1000
0000
0001
0000
0100
0000
0010
0100
,  // measure 39
0010
0000
1000
0100
1000
0000
0001
0000
,  // measure 40
0202
0000
0300
1003
,  // measure 41
1001
0000
0010
0010
1000
0000
0001
0000
,  // measure 42
0100
2000
3010
0002
,  // measure 43
1003
0000
0100
0100
0010
0000
0100
0000
,  // measure 44
1000
0002
0103
0020
,  // measure 45
0130
0000
0001
0001
1000
0000
0100
0000
,  // measure 46
1000
0200
0310
0020
,  // measure 47
0031
0000
1000
1000
0100
0000
1000
0000
,  // measure 48
0010
1000
0001
0100
0001
0000
1000
0000
,  // measure 49
0020
0100
0230
0001
,  // measure 50
0302
1000
2003
0100
,  // measure 51
3100
0010
0010
0000
0001
0000
1000
0000
,  // measure 52
0001
0000
1000
0000
0010
1000
0100
0000
,  // measure 53
1000
0001
0100
0001
,  // measure 54
1000
0100
1000
0010
,  // measure 55
1000
0001
0101
0010
,  // measure 56
2200
0300
0001
3001
,  // measure 57
0010
0100
0010
0000
1000
0100
1000
0000
,  // measure 58
0001
0000
0100
0000
0010
0100
0010
0000
,  // measure 59
1000
0100
1000
0000
0001
0100
0001
0000
,  // measure 60
0010
0000
0001
0000
0100
0010
0100
0000
,  // measure 61
0002
0103
0020
1030
,  // measure 62
0100
0000
1000
0100
0000
0010
0001
0000
,  // measure 63
2000
0000
0000
3002
0000
0000
0203
0000
,  // measure 64
0010
0000
0310
0000
1000
0100
0001
0000
,  // measure 65
1100
0000
0010
0001
0000
0001
0100
0000
,  // measure 66
0010
1000
0001
0000
0100
0001
1000
0000
,  // measure 67
0010
0000
1000
0010
0000
0100
0001
0000
,  // measure 68
1000
0010
0100
0001
,  // measure 69
0020
0000
0130
0010
0000
0100
1000
0000
,  // measure 70
0001
0000
0100
0001
0000
0100
1000
0000
,  // measure 71
0100
0010
1000
0010
,  // measure 72
0001
0100
0001
0000
1000
0100
1000
0000
,  // measure 73
0002
0000
0010
0000
,  // measure 74
0100
0000
1000
0000
,  // measure 75
2003
0000
0010
0000
,  // measure 76
0001
0000
0100
0000
,  // measure 77
3020
0000
0100
0000
,  // measure 78
2030
0000
0010
0000
,  // measure 79
3002
0000
0010
0000
,  // measure 80
2003
0000
0100
0000
,  // measure 81
3020
0000
0000
0000
,  // measure 82
0000
0000
0000
0000
,  // measure 83
0030
0000
0000
0000
;

//---------------dance-single - Copied from----------------
#NOTES:
     dance-single:
     Copied from:
     Hard:
     8:
     0.489,0.567,0.146,0.203,0.028: // measure 1
0000
0000
0000
0000
,  // measure 2
0000
0000
0000
0000
,  // measure 3
0000
0000
0000
0000
,  // measure 4
0000
0000
0000
0000
,  // measure 5
0000
0000
0000
0000
,  // measure 6
0000
0000
0000
0000
,  // measure 7
0000
0000
0000
0000
,  // measure 8
2001
0000
0010
3010
,  // measure 9
0001
0100
1000
0100
0001
0010
0100
0000
,  // measure 10
1000
0000
0010
1000
0000
1000
0100
0000
,  // measure 11
0010
0100
1000
0001
0100
0001
1000
0000
,  // measure 12
0010
0000
0100
0001
0000
0010
0001
0000
,  // measure 13
1000
0100
0010
0001
0010
0100
1000
0000
,  // measure 14
0001
0000
0100
0010
0000
1000
0100
0000
,  // measure 15
0002
0000
0000
2003
0000
0000
3020
0000
,  // measure 16
0100
0100
1030
1001
,  // measure 17
0100
0000
1000
0010
0000
0100
0001
0000
,  // measure 18
1000
0100
0001
0100
1000
0010
0100
0000
,  // measure 19
0001
0000
0010
0001
0000
0100
0001
0000
,  // measure 20
1000
0010
0100
0001
1000
0001
0100
0000
,  // measure 21
0001
0000
0010
0100
1000
0010
0100
0000
,  // measure 22
1000
0000
0001
0100
1000
0001
0100
0000
,  // measure 23
0020
1000
0100
0001
,  // measure 24
0100
1000
0100
1030
,  // measure 25
0100
0000
0000
1000
0100
0000
0010
0000
,  // measure 26
0100
0000
0000
0010
0001
0000
0100
0000
,  // measure 27
0001
1000
0010
1000
,  // measure 28
2001
0000
3020
0000
,  // measure 29
0230
0001
0301
0010
,  // measure 30
0002
0100
1000
0103
,  // measure 31
2000
0000
0000
0000
0100
0000
0000
0000
3010
0000
0000
1000
0000
0000
0001
0000
,  // measure 32
0100
0000
0001
0100
1000
0100
0001
0010
,  // measure 33
0100
0000
1000
0100
0000
0010
0001
1000
,  // measure 34
0010
0000
0100
0000
0001
1000
0001
0000
,  // measure 35
0100
0000
0010
1000
0000
0001
1000
0100
,  // measure 36
0010
0000
0001
0000
1000
0100
0001
0100
,  // measure 37
1000
0000
0010
0100
0000
0001
0100
1000
,  // measure 38
0100
0000
0010
1000
0100
0010
0001
0000
,  // measure 39
2000
0100
0010
3001
,  // measure 40
0110
0000
0000
0000
0000
0000
0000
0000
1000
0100
1000
0000
0001
0010
0001
0000
,  // measure 41
1000
0000
1000
0100
0000
1000
0010
0000
,  // measure 42
0100
0011
0100
0011
,  // measure 43
1001
0000
0100
1000
0000
1000
0010
0000
,  // measure 44
0100
0001
0010
0100
1000
0001
0010
0100
,  // measure 45
1000
0000
0100
1000
0000
1000
0010
0000
,  // measure 46
0100
1001
0010
1001
,  // measure 47
0100
0000
1000
0100
0000
0010
0001
0000
,  // measure 48
0100
0001
0010
0100
1000
0001
0010
0100
,  // measure 49
1000
0010
0101
0010
,  // measure 50
0001
0000
1000
0000
0100
0000
1000
0010
,  // measure 51
0100
0000
0001
0000
0010
0000
0100
1000
,  // measure 52
0010
1000
0101
1001
,  // measure 53
1100
0000
0100
0000
0010
0001
0100
0000
,  // measure 54
1001
1000
0100
0100
,  // measure 55
0010
0000
0000
0000
0001
0000
0000
0000
0100
0000
0000
0000
0001
0000
1000
0100
,  // measure 56
0020
0000
0000
0030
,  // measure 57
0001
0100
0010
1000
0100
0010
0001
1000
,  // measure 58
0010
0100
0001
0010
1000
0010
0001
0000
,  // measure 59
1000
0100
0010
0100
1000
0010
0100
0001
,  // measure 60
1000
0010
0100
0001
0010
0100
1000
0000
,  // measure 61
0010
0100
1000
0100
0010
1000
0001
0100
,  // measure 62
0001
1000
0010
1000
0100
0010
0100
0000
,  // measure 63
0100
0010
0001
0100
0010
1000
0001
0010
,  // measure 64
0100
0000
0000
0010
0001
0000
0000
1000
0001
0000
0000
0100
0010
0000
0000
0000
,  // measure 65
0001
0100
0010
1000
0010
0100
0010
0000
,  // measure 66
1000
1100
1000
1100
,  // measure 67
0100
0010
0100
0001
0010
0100
1000
0010
,  // measure 68
0100
0101
0100
0101
,  // measure 69
0010
0100
0010
1000
0100
0001
0100
1000
,  // measure 70
0010
0100
0001
0010
1000
0010
0001
0100
,  // measure 71
0010
0000
1000
0100
0000
0100
1000
0000
,  // measure 72
0010
0000
0001
0100
0000
0100
0001
0000
,  // measure 73
2000
0000
3002
0000
,  // measure 74
0203
0000
0302
0000
,  // measure 75
0023
0000
0230
0000
,  // measure 76
2300
0000
3020
0000
,  // measure 77
0230
0000
1000
0001
,  // measure 78
0302
0000
0010
0100
,  // measure 79
2003
0000
0100
0001
,  // measure 80
3200
0000
0010
1000
,  // measure 81
0320
0000
0000
0000
,  // measure 82
0000
0000
0000
0000
,  // measure 83
0030
0000
0000
0000
;
