#TITLE:Moon Over The Castle;
#SUBTITLE:(Orienta-Rhythm "Banquet" Mix);
#ARTIST:ORIENTA-RYTHEM;
#TITLETRANSLIT:;
#SUBTITLETRANSLIT:;
#ARTISTTRANSLIT:;
#CREDIT:;
#BANNER:bn.png;
#BACKGROUND:bg.png;
#LYRICSPATH:;
#CDTITLE:Dance Mania Speed 6.png;
#MUSIC:15_moon_over_the_castle_(orienta-rhythm''banquet''mix).mp3;
#OFFSET:-0.047;
#SAMPLESTART:84.880;
#SAMPLELENGTH:12.000;
#SELECTABLE:YES;
#BPMS:0.000=135.000;
#STOPS:;
#BGCHANGES:;

//---------------dance-single - Pandemonium X----------------
#NOTES:
     dance-single:
     Pandemonium X:
     Hard:
     6:
     0.325,0.379,0.078,0.141,0.000: // measure 1
0000
0000
0000
0000
,  // measure 2
0000
0000
0000
0000
,  // measure 3
0000
0000
0000
0000
,  // measure 4
0000
0000
0000
0000
,  // measure 5
0000
0000
0000
0000
,  // measure 6
0000
0000
0000
0000
,  // measure 7
0000
0000
0000
0000
,  // measure 8
0000
0000
0000
0000
,  // measure 9
1000
0001
0010
0001
0000
0000
0000
0000
,  // measure 10
0001
1000
0100
1000
0000
0000
0000
0000
,  // measure 11
0010
1000
0100
0010
0000
0000
0000
0000
,  // measure 12
0001
1000
0001
0010
0000
0000
0000
0000
,  // measure 13
1000
0001
0010
0100
0000
1100
0000
0000
,  // measure 14
1000
0001
0010
0001
0000
1100
0000
0000
,  // measure 15
1000
0001
0100
0001
0000
0011
0000
0000
,  // measure 16
1000
0001
1000
0001
0000
0000
0000
0000
,  // measure 17
1000
0001
0000
1000
0000
0100
0000
1000
,  // measure 18
0000
0001
0000
0100
0000
0001
0010
0001
,  // measure 19
1000
0100
0000
1000
0000
0001
0000
1000
,  // measure 20
0000
0001
0000
0100
0001
0010
1000
0100
,  // measure 21
0010
0000
0001
0000
0010
0000
0001
0100
,  // measure 22
0010
0000
1000
0000
0001
0000
1000
0001
,  // measure 23
0100
0000
0010
0000
0100
0000
0010
1000
,  // measure 24
0100
0000
1000
0000
0001
0000
1000
0100
,  // measure 25
1000
0000
0100
0000
1000
0000
1000
0100
,  // measure 26
0000
0001
0010
0000
0001
0000
0100
0000
,  // measure 27
0010
0000
1000
0000
0001
0000
1000
0100
,  // measure 28
0000
1000
0001
0000
0010
0000
0011
0000
,  // measure 29
0001
0000
0100
0000
0010
0000
0010
1000
,  // measure 30
0000
1000
0001
0000
0010
0000
0001
0000
,  // measure 31
1000
0000
0001
0000
0100
0000
0010
1000
,  // measure 32
0000
1000
0100
0000
1000
0000
0001
0000
,  // measure 33
1001
0000
0001
1000
0001
0000
1000
0000
,  // measure 34
0001
0000
0100
0001
0100
0000
0100
0000
,  // measure 35
0010
0000
0100
0010
0100
0000
0010
0000
,  // measure 36
1000
0000
0100
1000
0100
0000
1000
0000
,  // measure 37
0001
0000
1000
0001
0100
0000
0100
0000
,  // measure 38
0001
0000
0100
0001
0100
0000
0010
0000
,  // measure 39
0010
0000
0010
1000
0001
0000
1000
0000
,  // measure 40
0001
0000
1000
0001
0100
0000
0001
1000
,  // measure 41
0110
0000
0000
0000
0000
0000
0001
1000
,  // measure 42
0200
0000
0000
0300
0000
0000
0001
1000
,  // measure 43
0110
0000
0000
0000
0000
0000
0001
1000
,  // measure 44
0020
0000
0000
0030
0000
0000
0001
1000
,  // measure 45
0110
0000
0001
1000
0010
0000
0001
1000
,  // measure 46
0110
0000
0001
1000
0100
0000
0010
0100
,  // measure 47
0000
0010
0000
0010
0000
0010
0000
0010
,  // measure 48
0000
0100
0010
0100
0010
0100
0010
0001
,  // measure 49
0200
0000
0300
0000
0000
1000
0001
0100
,  // measure 50
0002
0000
0003
0000
0000
1000
0001
0010
,  // measure 51
0002
0000
0000
0010
0000
0000
0103
0000
,  // measure 52
0200
0000
0000
0010
0000
0000
0300
0000
,  // measure 53
0020
0000
0000
0130
0000
0000
0020
0000
,  // measure 54
2000
0000
3030
0000
,  // measure 55
2000
0000
0000
0100
0000
0000
0001
0000
,  // measure 56
0002
0000
0000
0000
3003
0000
1000
0001
,  // measure 57
0100
0000
0100
0000
0100
0010
1000
0001
,  // measure 58
0010
0000
0001
0000
0010
0001
1000
0001
,  // measure 59
0100
0000
0010
0100
0000
1000
0100
0000
,  // measure 60
0002
0000
0000
0020
0000
0000
0033
0000
,  // measure 61
1000
0000
0001
0010
0000
0100
1000
0000
,  // measure 62
1000
0000
0001
0010
0000
0001
0200
0000
,  // measure 63
0020
0000
0330
0000
,  // measure 64
1000
0000
0000
0001
0000
0000
1000
0000
,  // measure 65
0200
1000
0000
1000
0000
1000
0000
1000
,  // measure 66
0000
0010
0000
0010
0000
0010
0000
0010
,  // measure 67
0000
1000
0000
1000
0000
1000
0000
1000
,  // measure 68
0000
0010
0000
0010
0000
0010
0000
0310
,  // measure 69
2002
0000
0000
0000
,  // measure 70
3003
0000
0000
0000
;

//---------------dance-single - Pandemonium X----------------
#NOTES:
     dance-single:
     Pandemonium X:
     Medium:
     4:
     0.271,0.379,0.141,0.329,0.000: // measure 1
0000
0000
0000
0000
,  // measure 2
0000
0000
0000
0000
,  // measure 3
0000
0000
0000
0000
,  // measure 4
0000
0000
0000
0000
,  // measure 5
0000
0000
0000
0000
,  // measure 6
0000
0000
0000
0000
,  // measure 7
0000
0000
0000
0000
,  // measure 8
0000
0000
0000
0000
,  // measure 9
0010
0000
1000
0001
0000
0000
0000
0000
,  // measure 10
0100
0000
1000
0001
0000
0000
0000
0000
,  // measure 11
0010
0000
0001
0100
0000
0000
0000
0000
,  // measure 12
1000
0000
0001
0010
0000
0000
0000
0000
,  // measure 13
1000
0000
0001
0100
0000
0001
0000
0000
,  // measure 14
0001
0000
1000
0001
0000
1000
0000
0000
,  // measure 15
0100
0000
1000
0100
0000
1000
0000
0000
,  // measure 16
1001
0000
0000
0000
,  // measure 17
0001
0100
1000
0100
,  // measure 18
0001
0100
1000
0000
,  // measure 19
1000
0010
0001
0010
,  // measure 20
1000
0010
0001
0000
,  // measure 21
1000
0010
0100
0010
,  // measure 22
1000
0010
0100
0000
,  // measure 23
0001
0010
0001
0100
,  // measure 24
0001
0010
0100
0000
,  // measure 25
1002
1000
1000
1003
,  // measure 26
2001
0001
0001
3001
,  // measure 27
2010
0010
0010
3010
,  // measure 28
0102
0100
0100
0103
,  // measure 29
0012
0010
0010
0013
,  // measure 30
2100
0100
0100
3100
,  // measure 31
1020
1000
1000
1030
,  // measure 32
2001
0001
0001
3001
,  // measure 33
2002
0000
0000
3003
,  // measure 34
2200
0000
0000
3300
,  // measure 35
0022
0000
0000
0033
,  // measure 36
0202
0000
0000
0303
,  // measure 37
0220
0000
0000
0330
,  // measure 38
2020
0000
0000
3030
,  // measure 39
2200
0000
0000
3300
,  // measure 40
0022
0000
0000
0000
0033
0000
1000
0001
,  // measure 41
1000
0000
0000
0000
0000
0000
0001
1000
,  // measure 42
0002
0000
0003
0000
0000
0000
1000
0001
,  // measure 43
1000
0000
0000
0000
0000
0000
0001
1000
,  // measure 44
0002
0000
0003
0000
0000
0000
1000
0001
,  // measure 45
1000
0000
0001
1000
0001
0000
1000
0001
,  // measure 46
1000
0000
0001
1000
0001
0000
1000
0001
,  // measure 47
0000
1000
0000
1000
0000
1000
0000
1000
,  // measure 48
0000
0002
0000
0000
0000
0000
1003
0001
,  // measure 49
0100
0000
0000
0000
0000
0001
1000
0100
,  // measure 50
2000
0000
3000
0000
0000
1000
0100
1000
,  // measure 51
0100
0000
0000
1000
0000
0000
0100
0000
,  // measure 52
1000
0000
0000
0010
0000
0000
0000
0000
,  // measure 53
0100
0000
0000
0010
0000
0000
1000
0000
,  // measure 54
0001
0000
0000
0000
,  // measure 55
1000
0000
0000
0001
0000
0000
0020
0000
,  // measure 56
0002
0000
0000
0000
0033
0000
0001
1000
,  // measure 57
0200
0000
0300
0000
0000
1000
0001
1000
,  // measure 58
0002
0000
0000
0003
0000
0001
0100
0010
,  // measure 59
0200
0000
0000
0301
0000
0000
0001
0000
,  // measure 60
2000
0000
0000
3100
0000
0000
0000
0000
,  // measure 61
0020
0000
0000
1030
0000
0000
0200
0000
,  // measure 62
1000
0000
0000
2300
0000
0000
0010
0000
,  // measure 63
0200
0000
0000
3300
,  // measure 64
2000
0000
0000
0001
0000
0000
0010
0000
,  // measure 65
0200
0000
0000
0000
,  // measure 66
0000
0000
0000
3300
,  // measure 67
0000
1000
0000
0001
0000
0100
0000
0010
,  // measure 68
0000
1000
0000
0100
0000
0010
0000
0001
,  // measure 69
2200
0000
0000
0000
,  // measure 70
3300
0000
0000
0000
;

//---------------dance-single - Pandemonium X----------------
#NOTES:
     dance-single:
     Pandemonium X:
     Easy:
     2:
     0.144,0.216,0.071,0.204,0.000: // measure 1
0000
0000
0000
0000
,  // measure 2
0000
0000
0000
0000
,  // measure 3
0000
0000
0000
0000
,  // measure 4
0000
0000
0000
0000
,  // measure 5
0000
0000
0000
0000
,  // measure 6
0000
0000
0000
0000
,  // measure 7
0000
0000
0000
0000
,  // measure 8
0000
0000
0000
0000
,  // measure 9
0010
0000
0000
0000
,  // measure 10
1000
0000
0000
0000
,  // measure 11
0001
0000
0000
0000
,  // measure 12
1000
0000
0000
0000
,  // measure 13
0020
0000
0000
0000
0000
0030
0000
0000
,  // measure 14
0200
0000
0000
0000
0000
0300
0000
0000
,  // measure 15
2000
0000
0000
0000
0000
3000
0000
0000
,  // measure 16
0002
0000
0000
0003
0000
0000
0000
0000
,  // measure 17
1000
0000
1000
0000
,  // measure 18
0001
1000
0001
0000
,  // measure 19
0001
0000
0100
0000
,  // measure 20
0010
1000
0100
0000
,  // measure 21
1000
0000
1000
0000
,  // measure 22
1000
0001
0010
0000
,  // measure 23
0001
0000
1000
0000
,  // measure 24
0100
1000
0010
0000
,  // measure 25
0200
0000
0000
0300
,  // measure 26
0200
0000
0000
0300
,  // measure 27
0002
0000
0000
0003
,  // measure 28
0002
0000
0000
0003
,  // measure 29
2000
0000
0000
3000
,  // measure 30
2000
0000
0000
3000
,  // measure 31
0020
0000
0000
0030
,  // measure 32
0200
0000
0000
0300
,  // measure 33
0020
0000
0000
0000
,  // measure 34
2000
0000
0000
3030
,  // measure 35
0002
0000
0000
0000
,  // measure 36
0200
0000
0000
0303
,  // measure 37
0002
0000
0000
0000
,  // measure 38
0020
0000
0000
0033
,  // measure 39
2000
0000
0000
0000
,  // measure 40
0200
0000
0000
3300
,  // measure 41
1001
0000
0000
0000
,  // measure 42
0010
0000
0000
0000
,  // measure 43
1001
0000
0000
0000
,  // measure 44
0100
0000
0000
0000
,  // measure 45
0110
0000
0010
0000
,  // measure 46
1001
0000
0100
0000
,  // measure 47
1001
0000
1001
0000
,  // measure 48
1001
0000
0000
0000
,  // measure 49
1000
0000
0000
0001
,  // measure 50
1000
0000
0000
0100
,  // measure 51
1000
0000
0000
0010
0000
0000
0100
0000
,  // measure 52
0001
0000
0000
1000
0000
0000
0000
0000
,  // measure 53
1000
0000
0000
0001
0000
0000
1000
0000
,  // measure 54
0002
0000
0003
0000
,  // measure 55
0001
0000
0000
0100
0000
0000
0010
0000
,  // measure 56
2000
0000
0000
3000
0000
0000
1000
0000
,  // measure 57
0001
0000
0000
0001
,  // measure 58
1000
0000
0000
0100
,  // measure 59
1000
0000
0000
0010
0000
0000
0100
0000
,  // measure 60
0001
0000
0000
0010
0000
0000
0000
0000
,  // measure 61
0001
0000
0000
1000
0000
0000
0001
0000
,  // measure 62
0100
0000
0000
0010
0000
0000
1000
0000
,  // measure 63
1100
0000
0000
0000
,  // measure 64
1000
0000
0000
0001
0000
0000
0200
0000
,  // measure 65
0002
0000
0000
0000
,  // measure 66
0000
0000
0000
0000
,  // measure 67
0000
0000
0000
0000
,  // measure 68
0000
0000
0000
0303
,  // measure 69
2020
0000
0000
0000
,  // measure 70
3030
0000
0000
0000
;

//---------------dance-single - Pandemonium X----------------
#NOTES:
     dance-single:
     Pandemonium X:
     Beginner:
     1:
     0.072,0.160,0.055,0.000,0.000: // measure 1
0000
0000
0000
0000
,  // measure 2
0000
0000
0000
0000
,  // measure 3
0000
0000
0000
0000
,  // measure 4
0000
0000
0000
0000
,  // measure 5
0000
0000
0000
0000
,  // measure 6
0000
0000
0000
0000
,  // measure 7
0000
0000
0000
0000
,  // measure 8
0000
0000
0000
0000
,  // measure 9
0010
0000
0000
0000
,  // measure 10
1000
0000
0000
0000
,  // measure 11
1000
0000
0000
0000
,  // measure 12
0010
0000
0000
0000
,  // measure 13
0100
0000
0000
0000
,  // measure 14
0100
0000
0000
0000
,  // measure 15
0100
0000
0000
0000
,  // measure 16
0001
0000
0000
0000
,  // measure 17
1000
0000
0000
0000
,  // measure 18
1000
0000
0000
0000
,  // measure 19
1000
0000
0000
0000
,  // measure 20
1000
0000
0000
0000
,  // measure 21
0001
0000
0000
0000
,  // measure 22
0001
0000
0000
0000
,  // measure 23
0001
0000
0000
0000
,  // measure 24
0001
0000
0000
0000
,  // measure 25
0010
0000
0000
0000
,  // measure 26
0010
0000
0000
0000
,  // measure 27
0010
0000
0000
0000
,  // measure 28
0010
0000
0000
0000
,  // measure 29
0100
0000
0000
0000
,  // measure 30
0100
0000
0000
0000
,  // measure 31
0100
0000
0000
0000
,  // measure 32
0100
0000
0000
0000
,  // measure 33
0010
0000
0000
0000
,  // measure 34
1000
0000
0000
0000
,  // measure 35
0001
0000
0000
0000
,  // measure 36
0100
0000
0000
0000
,  // measure 37
0010
0000
0000
0000
,  // measure 38
1000
0000
0000
0000
,  // measure 39
0001
0000
0000
0000
,  // measure 40
1000
0000
0000
0000
,  // measure 41
1001
0000
0000
0000
,  // measure 42
0000
0000
0000
0000
,  // measure 43
1001
0000
0000
0000
,  // measure 44
0000
0000
0000
0000
,  // measure 45
1001
0000
0000
0000
,  // measure 46
1001
0000
0000
0000
,  // measure 47
1001
0000
0110
0000
,  // measure 48
0000
0000
0000
0000
,  // measure 49
1000
0000
0000
0000
,  // measure 50
0001
0000
0000
0000
,  // measure 51
0010
0000
0000
0000
,  // measure 52
0010
0000
0000
0000
,  // measure 53
0100
0000
0000
0000
,  // measure 54
1000
0000
0000
0000
,  // measure 55
1000
0000
0000
0000
,  // measure 56
0001
0000
0000
0000
,  // measure 57
0010
0000
0000
0000
,  // measure 58
0100
0000
0000
0000
,  // measure 59
1000
0000
0000
0000
,  // measure 60
1000
0000
0000
0000
,  // measure 61
0001
0000
0000
0000
,  // measure 62
0001
0000
0000
0000
,  // measure 63
0010
0000
0000
0000
,  // measure 64
0100
0000
1000
0000
,  // measure 65
0010
0000
0000
0000
,  // measure 66
0000
0000
0000
0000
,  // measure 67
0000
0000
0000
0000
,  // measure 68
0000
0000
0000
0000
,  // measure 69
1001
0000
0000
0000
;
