#TITLE:Lamento;
#SUBTITLE:-Japanese Version-;
#ARTIST:Kanako Itou;
#TITLETRANSLIT:;
#SUBTITLETRANSLIT:;
#ARTISTTRANSLIT:;
#CREDIT:;
#BANNER:Lamento-JapaneseVersion-banner.png;
#BACKGROUND:Lamento-BG.png;
#LYRICSPATH:;
#CDTITLE:./CDTITLES/DanceDanceRevolution X.png;
#MUSIC:Lamento -Japanese ver-1.mp3;
#OFFSET:-0.052;
#SAMPLESTART:54.945;
#SAMPLELENGTH:15.000;
#SELECTABLE:YES;
#DISPLAYBPM:140.000;
#BPMS:0.000=142.000;
#STOPS:;
#BGCHANGES:0.000=Video Game Remix - Lamento -Japanese Version-.avi=1.000=1=1=0,
208.000=Lamento-BG.png=1.000=0=0=1,
99999=-nosongbg-=1.000=0=0=0 // don't automatically add -songbackground-
;

//---------------dance-single - ----------------
#NOTES:
     dance-single:
     :
     Medium:
     5:
     0.276,0.331,0.109,0.174,0.038:
0000
0000
0000
0000
,
0020
0000
2030
0000
,
3002
0000
0203
0000
,
0320
0000
0000
0000
,
0030
0000
0000
0000
,
2000
0000
3200
0000
,
0320
0000
0032
0000
,
0203
0000
0000
0000
,
0310
0010
0000
0010
0010
0000
1001
0000
,
1000
1000
0100
1000
,
0001
0001
0100
0010
,
1000
0000
0000
1000
0000
0000
0000
0000
0010
0000
0000
0000
0100
0000
0000
0000
,
0001
0000
0000
0010
0000
0000
0100
0000
0000
0000
0000
0000
0100
0000
0000
0000
,
1001
0000
0000
0000
,
0000
0000
0000
0000
,
1001
0000
0000
0000
,
0000
0000
0000
0000
,
1001
0000
0000
0000
,
0000
0000
0000
0000
,
1001
0000
0000
0000
,
0000
0000
0000
0000
,
1000
0100
1000
0100
,
0010
0001
0010
0001
,
1000
0001
0100
1000
,
0100
0000
0001
0000
0001
0010
0100
1000
,
1001
0010
0100
0010
,
0100
0001
1000
0001
,
0001
0000
0000
0001
0000
0000
0002
0000
0000
0000
0000
0000
1003
0000
0000
0000
,
1000
0000
0000
1000
0000
0000
2000
0000
0000
0000
0000
0000
0000
0000
0000
0000
,
3001
0100
1000
0100
,
0001
0000
0010
0000
0001
0100
0010
1000
,
1001
0000
0000
0000
,
0010
0010
0020
0000
,
1030
1000
0100
0100
,
0010
0001
0010
0001
0010
0000
1001
0000
,
0001
0001
0010
0010
,
1000
0100
1000
0100
1000
0000
0110
0000
,
0010
0010
0100
0100
,
0001
1000
0001
1000
0001
0000
0011
0000
,
0001
0010
1000
0010
,
0001
0000
0000
0000
0100
0000
0000
0000
0010
0000
0000
1000
0000
0000
0001
0000
,
0200
0010
0000
0010
,
0000
0010
0000
0310
,
1000
0000
0100
0000
1000
0001
0100
0001
,
1000
0000
0000
0000
0100
0000
0000
0000
1000
0000
0000
0100
0000
0000
1000
0000
,
0020
0100
0000
0100
,
0000
0100
0000
0130
,
0001
1000
0001
1000
,
0001
0000
0000
0000
1000
0000
0000
0000
0100
0000
0000
0010
0000
0000
0001
0000
,
2000
0000
0000
0000
,
0000
0000
0000
3000
;

//---------------dance-single - ----------------
#NOTES:
     dance-single:
     :
     Easy:
     2:
     0.186,0.276,0.054,0.152,0.000:
0000
0000
0000
0000
,
1000
0000
0000
0000
,
0001
0000
0000
0000
,
0010
0000
0000
0000
,
0100
0000
0000
0000
,
1000
0000
0000
0000
,
0001
0000
0000
0000
,
0010
0000
0000
0000
,
0200
0000
0000
0000
,
0310
0010
0000
0010
,
0001
0001
0000
0001
,
1000
1000
0000
1000
,
0001
1000
0001
1000
,
0100
0000
0000
0000
,
0000
0000
0000
0000
,
0100
0000
0000
0000
,
0000
0000
0000
0000
,
0100
0000
0000
0000
,
0000
0000
0000
0000
,
0100
0000
0000
0000
,
0000
0000
0000
0000
,
0010
1000
0010
0000
,
0100
0001
0100
0000
,
0001
1000
0100
1000
,
0001
0100
0010
1000
,
2002
0000
3003
0000
,
2002
0000
3003
0000
,
0100
0100
0100
0000
,
0010
0010
0010
0000
,
0220
0000
0330
0000
,
0220
0000
0330
0000
,
0002
0000
0000
0000
,
0003
0000
0000
0000
,
1000
1000
0010
0010
,
0100
0100
0001
0001
,
1000
1000
0100
0100
,
0001
0001
0100
0100
,
1000
1000
0010
0010
,
0100
0100
0001
0001
,
0001
0010
0100
1000
,
0100
1000
0001
0100
,
0020
0000
0000
0000
,
0000
0000
0000
0030
,
0100
1000
0100
0010
,
0001
0010
0001
1000
,
0002
0000
0000
0000
,
0000
0000
0000
0003
,
0010
0001
1000
0001
,
0010
1000
0010
0001
,
2002
0000
0000
0000
,
0000
0000
0000
3003
;

//---------------dance-single - Copied from Copied f----------------
#NOTES:
     dance-single:
     Copied from Copied f:
     Hard:
     8:
     0.439,0.468,0.217,0.130,0.272:
0000
0000
0000
0000
,
1000
0000
0000
1000
0000
0000
0001
0000
0000
0000
0001
1000
0001
0000
0010
0000
,
0100
0000
0000
0100
0000
0000
1000
0000
0000
0000
0100
1000
0100
0000
0010
0000
,
0001
0000
0000
0010
0000
0000
0010
0000
0000
0000
0010
0001
0010
0000
0001
0000
,
1000
0000
0000
1000
0000
0000
0010
0000
0000
0000
0100
0010
0100
0000
0100
0000
,
0010
0000
0000
1000
0000
0000
0001
0000
0000
0000
0100
0001
1000
0000
0100
0000
,
0010
0000
0000
0001
0000
0000
1000
0000
0000
0000
1000
0100
0010
0000
0100
0000
,
0010
0000
0000
0001
0000
0000
0001
0000
0000
0000
0001
0010
0100
0000
1000
0000
,
0001
1001
0000
0100
1001
1001
0020
0000
,
1030
0000
0000
0100
0000
0000
1000
0000
0000
0000
0100
0000
0001
0000
0100
0000
,
0001
0000
0000
0001
0000
0000
0100
0000
0020
0000
0000
0000
0100
0000
0130
0000
,
1000
0000
0000
0100
0000
0000
0010
0000
0001
0000
0100
0000
0010
0000
0100
0000
,
0010
0000
0000
0010
0000
0000
0100
0000
1000
0000
0100
0000
0001
0000
0100
0000
,
0020
0000
0000
0000
,
0000
0030
0000
0000
,
2000
0000
0000
0000
,
0000
3000
0000
0000
,
0002
0000
0000
0000
,
0000
0003
0000
0000
,
0200
0000
0000
0000
,
0000
0000
0000
0300
,
0001
0000
0000
0001
0000
0000
0001
0000
0000
0000
0001
0000
0100
0000
1000
0000
,
0100
0000
0000
0010
0000
0000
0010
0000
0000
0000
1000
0000
0001
0000
1000
0000
,
1000
0000
0000
0010
0100
0000
0000
0000
0001
0000
1000
0000
0010
0000
0000
0000
,
1000
0000
0000
1000
0001
0000
0000
0000
0010
0000
0100
0000
0010
0000
0010
0000
,
0100
0000
0000
0100
0000
0000
0100
0000
0000
0000
1000
0000
0010
0000
0001
0000
,
0010
0000
0000
0100
0000
0000
0100
0000
0000
0000
0100
0000
0010
0000
0100
0000
,
1000
0000
0000
0100
0000
0000
0210
0000
0000
0000
0301
0000
0010
0000
0100
0000
,
1000
0000
0000
0010
0000
0000
2001
0000
0000
0000
0001
0000
3001
0000
0000
0000
,
0001
0000
0000
0001
0000
0000
0011
0000
0000
0000
0001
0000
1000
0000
0100
0000
,
1000
0000
0000
0100
0000
0000
1100
0000
0000
0000
0010
0000
0100
0000
0010
0000
,
1001
0000
0000
0000
,
1000
0000
0001
0000
2002
0000
0000
3003
,
1000
0000
0000
0100
0000
0000
0001
0000
0100
0000
0000
1000
0000
0000
0010
0000
,
0100
0000
0000
0001
0000
0000
0100
0000
0010
0000
0000
0000
1010
0000
0000
0000
,
0001
0000
0000
0100
0000
0000
1000
0000
0100
0000
0000
0001
0000
0000
0010
0000
,
1000
0000
0000
0010
0000
0000
0100
0000
0010
0000
0000
0000
0110
0000
0000
0000
,
0010
0000
0000
0110
0000
0000
0010
0000
0100
0000
0000
0101
0000
0000
0001
0000
,
1000
0000
0000
1010
0000
0000
0010
0000
1000
0000
0000
0000
1001
0000
0000
0000
,
1000
0000
0000
1100
0000
0000
0100
0000
0010
0000
0000
0110
0000
0000
0001
0000
,
0010
0000
0000
0011
0000
0000
0001
0000
1000
0000
0000
0100
0000
0000
1000
0000
,
0010
0000
0000
0010
0100
0000
0000
0000
0100
0000
0010
0000
0100
0000
0010
0000
,
0100
0000
0000
0001
0100
0000
0000
0000
0001
0000
1000
0000
0010
0000
0100
0000
,
0010
0000
0000
0010
1000
0000
0000
0000
1000
0000
0100
0000
0001
0000
0100
0000
,
0010
0000
0000
0001
0010
0000
0000
0000
0001
0000
1000
0000
0001
0000
0100
0000
,
0001
0000
0000
0010
0100
0000
0000
0000
1000
0000
0001
0000
0100
0000
1000
0000
,
0100
0000
0000
0010
1000
0000
0000
0000
0100
0000
1000
0000
0010
0000
0100
0000
,
0001
0000
0000
0001
0100
0000
0000
0000
0100
0000
0010
0000
0100
0000
0010
0000
,
0100
0000
0000
0100
0001
0000
1000
0000
0100
0000
0000
1001
0000
0000
0001
0000
,
0202
0000
0000
0000
,
0000
0000
0000
0303
;

//---------------dance-double - Copied from----------------
#NOTES:
     dance-double:
     Copied from:
     Hard:
     8:
     0.436,0.468,0.217,0.087,0.266:
00000000
00000000
00000000
00000000
,
10000000
00000000
00000000
10000000
00000000
00000000
10000000
00000000
00000000
00000000
00010000
00000000
00100000
00000000
00000000
00000000
,
00001000
00000000
00000000
00001000
00000000
00000000
00001000
00000000
00000000
00000000
00010000
00000000
00000100
00000000
00000000
00000000
,
00000010
00000000
00000000
00000010
00000000
00000000
00000010
00000000
00000000
00000000
00000001
00000000
00001000
00000000
00000000
00000000
,
00000001
00000000
00000000
00000001
00000000
00000000
00000001
00000000
00000000
00000000
00001000
00000000
00000100
00000000
00000000
00000000
,
00010000
00000000
00000000
00010000
00000000
00000000
00010000
00000000
00000000
00000000
00001000
00000000
00100000
00000000
00000000
00000000
,
01000000
00000000
00000000
01000000
00000000
00000000
01000000
00000000
00000000
00000000
10000000
00000000
00100000
00000000
00000000
00000000
,
00100000
00000000
00000000
00100000
00000000
00000000
00100000
00000000
00000000
00000000
00100000
00000000
10000000
00000000
00000000
00000000
,
00100000
00000000
01100000
00000000
00000000
00000000
10000000
00000000
10010000
00000000
00000000
00000000
10000000
01000000
00100000
00010000
,
10000000
00000000
00000000
01000000
00000000
00000000
00010000
00000000
00000000
00000000
00001000
00000000
00010000
00000000
00001000
00000000
,
00000100
00000000
00000000
00000010
00000000
00000000
00001000
00000000
00000001
00000000
00000000
00000000
00000100
00000000
00001000
00000000
,
00010000
00000000
00000000
01000000
00000000
00000000
01000000
00000000
00100000
00000000
00010000
00000000
01000000
00000000
00100000
00000000
,
10000000
00000000
00000000
00100000
00000000
00000000
10000000
00000000
01000000
00000000
00010000
00000000
00001000
00000000
00010000
00000000
,
00002000
00000000
00000000
00000000
,
00000000
00003000
00000000
00000000
,
00020000
00000000
00000000
00000000
,
00000000
00030000
00000000
00000000
,
02000000
00000000
00000000
00000000
,
00000000
03000000
00000000
00000000
,
00200000
00000000
00000000
00000000
,
00000000
00000000
00000000
00000000
00300000
00000000
00000000
00000000
00100000
00000000
00001000
00010000
00001000
00010000
00001000
00010000
,
00001000
00000000
00000000
00010000
00000000
00000000
00000100
00000000
00000000
00000000
00000010
00000000
00000001
00000000
00001000
00000000
,
00000100
00000000
00000000
00010000
00000000
00000000
00010000
00000000
00000000
00000000
01000000
00000000
10000000
00000000
00010000
00000000
,
01000000
00000000
00000000
00100000
00000000
00000000
10010000
00000000
00000000
00000000
00000000
00000000
10000000
00000000
00000000
00000000
,
01000000
00000000
00000000
00000000
00010000
00000000
00000000
00000000
00010000
00000000
00000000
00000000
00001000
00010000
00001000
00010000
,
00001000
00000000
00000000
00000100
00000000
00000000
00000001
00000000
00000000
00000000
00001000
00000000
00000001
00000000
00001000
00000000
,
00000001
00000000
00000000
00000100
00000000
00000000
00001000
00000000
00000000
00000000
00010000
00000000
01000000
00000000
00100000
00000000
,
01000000
00000000
00000000
10100000
00000000
00000000
00100000
00000000
00000000
00000000
01000000
00000000
00010000
00000000
00000000
00000000
,
10000000
00000000
00000000
10010000
00000000
00000000
10000000
00000000
00000000
00000000
01000000
00000000
00010000
00000000
00001000
00010000
,
00001000
00000000
00000000
00001000
00000000
00000000
00001000
00000000
00000000
00000000
00010000
00000000
00001000
00000000
00000100
00000000
,
00000010
00000000
00000000
00000010
00000000
00000000
00000010
00000000
00000000
00000000
00001000
00000000
00000001
00000000
00001000
00000000
,
00001001
00000000
00000000
00000000
,
00011000
00000000
00011000
00000000
02200000
00000000
00000000
03300000
,
10000000
00000000
00000000
01000000
00000000
00000000
00010000
00000000
00001000
00000000
00000000
00000100
00000000
00000000
00000010
00000000
,
00000100
00000000
00000000
00000001
00000000
00000000
00001000
00000000
00000001
00000000
00000000
00000000
00001001
00000000
00000000
00000000
,
00000001
00000000
00000000
00000100
00000000
00000000
00001000
00000000
00010000
00000000
00000000
01000000
00000000
00000000
10000000
00000000
,
00010000
00000000
00000000
10000000
00000000
00000000
01000000
00000000
00100000
00000000
00000000
00000000
00110000
00000000
00000000
00000000
,
01000000
00000000
00000000
01001000
00000000
00000000
00001000
00000000
00010000
00000000
00000000
00010100
00000000
00000000
00000010
00000000
,
00000100
00000000
00000000
00001100
00000000
00000000
00001000
00000000
00000001
00000000
00000000
00000000
00001001
00000000
00000000
00000000
,
00000100
00000000
00000000
00010100
00000000
00000000
00000100
00000000
00010000
00000000
00000000
00110000
00000000
00000000
00010000
00000000
,
10000000
00000000
00000000
10010000
00000000
00000000
10000000
00000000
00100000
00000000
00000000
01010000
00000000
00000000
00010000
00000000
,
01000000
00000000
00000000
00001000
00010000
00000000
01000000
00000000
10000000
00000000
01000000
00000000
00010000
00000000
00001000
00000000
,
00000100
00000000
00000000
00000010
00000100
00000000
00000001
00000000
00000010
00000000
00000100
00000000
00000010
00000000
00000001
00000000
,
00001000
00000000
00000000
00000100
00010000
00000000
01000000
00000000
00100000
00000000
00010000
00000000
10000000
00000000
00010000
00000000
,
01000000
00000000
00000000
01000000
00100000
00000000
10000000
00000000
01000000
00000000
00100000
00000000
00010000
00000000
10000000
00000000
,
00010000
00000000
00000000
00100000
00001000
00000000
00010000
00000000
00001000
00000000
00010000
00000000
00000010
00000000
00010000
00000000
,
00010000
00000000
00000000
01000000
10000000
00000000
01000000
00000000
00010000
00000000
00001000
00000000
00000100
00000000
00000010
00000000
,
00000100
00000000
00000000
00000001
00001000
00000000
00000001
00000000
00000010
00000000
00000100
00000000
00001000
00000000
00000100
00000000
,
00000010
00000000
00000000
00000100
00000010
00000000
00000001
00000000
00000100
00000000
00001000
00000000
00010000
00000000
00001000
00000000
,
00022000
00000000
00000000
00000000
,
00000000
00000000
00000000
00033000
;

//---------------dance-couple - Copied from----------------
#NOTES:
     dance-couple:
     Copied from:
     Hard:
     2:
     0.186,0.276,0.054,0.152,0.000:
00000000
00000000
00000000
00000000
,
10000000
00000000
00000000
00000000
,
00010000
00000000
00000000
00000000
,
00100000
00000000
00000000
00000000
,
01000000
00000000
00000000
00000000
,
10000000
00000000
00000000
00000000
,
00010000
00000000
00000000
00000000
,
00100000
00000000
00000000
00000000
,
02000000
00000000
00000000
00000000
,
03100000
00100000
00000000
00100000
,
00010000
00010000
00000000
00010000
,
10000000
10000000
00000000
10000000
,
00010000
10000000
00010000
10000000
,
01000000
00000000
00000000
00000000
,
00000000
00000000
00000000
00000000
,
01000000
00000000
00000000
00000000
,
00000000
00000000
00000000
00000000
,
01000000
00000000
00000000
00000000
,
00000000
00000000
00000000
00000000
,
01000000
00000000
00000000
00000000
,
00000000
00000000
00000000
00000000
,
00100000
10000000
00100000
00000000
,
01000000
00010000
01000000
00000000
,
00010000
10000000
01000000
10000000
,
00010000
01000000
00100000
10000000
,
20020000
00000000
30030000
00000000
,
20020000
00000000
30030000
00000000
,
01000000
01000000
01000000
00000000
,
00100000
00100000
00100000
00000000
,
02200000
00000000
03300000
00000000
,
02200000
00000000
03300000
00000000
,
00020000
00000000
00000000
00000000
,
00030000
00000000
00000000
00000000
,
10000000
10000000
00100000
00100000
,
01000000
01000000
00010000
00010000
,
10000000
10000000
01000000
01000000
,
00010000
00010000
01000000
01000000
,
10000000
10000000
00100000
00100000
,
01000000
01000000
00010000
00010000
,
00010000
00100000
01000000
10000000
,
01000000
10000000
00010000
01000000
,
00200000
00000000
00000000
00000000
,
00000000
00000000
00000000
00300000
,
01000000
10000000
01000000
00100000
,
00010000
00100000
00010000
10000000
,
00020000
00000000
00000000
00000000
,
00000000
00000000
00000000
00030000
,
00100000
00010000
10000000
00010000
,
00100000
10000000
00100000
00010000
,
20020000
00000000
00000000
00000000
,
00000000
00000000
00000000
30030000
;

//---------------dance-double - Copied from----------------
#NOTES:
     dance-double:
     Copied from:
     Medium:
     5:
     0.273,0.346,0.109,0.109,0.054:
00000000
00000000
00000000
00000000
,
00200000
00000000
00320000
00000000
,
00030020
00000000
00000032
00000000
,
00002003
00000000
00003000
00000000
,
00000000
00000000
00000000
00000000
,
00000200
00000000
00002300
00000000
,
02003000
00000000
23000000
00000000
,
30200000
00000000
00000000
00000000
,
01300000
00010000
00000000
00010000
01000000
01000000
00100000
10000000
,
00100000
10000000
01000000
00010000
,
00001000
00000010
00000001
00001000
,
00000100
00000010
00000001
00000010
,
00001000
00000000
00010000
00000000
00001000
00010000
00001000
00010000
,
00001000
00000000
00000000
00000000
,
00000000
00000000
00000000
00000000
,
00010000
00000000
00000000
00000000
,
00000000
00000000
00000000
00000000
,
01000000
00000000
00000000
00000000
,
00000000
00000000
00000000
00000000
,
00100000
00000000
00000000
00000000
,
00000000
00000000
00000000
00000000
,
00010000
01000000
10000000
01000000
,
00010000
00100000
00010000
10000000
,
01000000
00010000
00001000
00000100
,
00000010
00000000
00001000
00000000
00000100
00000000
00000001
00000100
,
00001000
00000001
00001000
00000001
,
00000100
00001000
00010000
00010000
,
00001000
00000000
00000000
00010000
00000000
00000000
00001000
00000000
00000000
00000000
00000000
00000000
00001000
00000000
00000000
00000000
,
00001000
00000000
00000000
01000000
00000000
00000000
00100000
00000000
00000000
00000000
00000000
00000000
01000000
00000000
00000000
00000000
,
10010000
10000000
01000000
00010000
,
00001000
00000100
00000001
00000010
,
00000110
00000000
00000000
00000000
,
00000000
00000000
00000000
00000000
,
00000001
00000100
00001000
00000000
00010000
01000000
10000000
00000000
,
00100000
10000000
01100000
10010000
,
10000000
01000000
00010000
00000000
00001000
00000100
00000001
00000000
,
00000001
00000100
00001100
00000011
,
00001000
00000000
00000000
00001000
00000000
00000000
00000000
00000000
01000000
00000000
00000000
01000000
00000000
00000000
00000000
00000000
,
00100000
00000000
00000000
00100000
00000000
00000000
00000000
00000000
10010000
00000000
00000000
00000000
10010000
00000000
00000000
00000000
,
01000000
00000000
00000000
01000000
00000000
00000000
00000000
00000000
00100000
00000000
00000000
00100000
00000000
00000000
00000000
00000000
,
00001000
00000000
00000000
00001000
00000000
00000000
00000000
00000000
00000100
00000000
00000000
00000010
00000000
00000000
00001000
00000000
,
00000001
00001001
00001000
01000000
,
10000000
00000000
00100000
00000000
10000000
00100000
00010000
00000000
,
00001000
00000010
00000001
00001000
,
00000001
00000000
00001000
00000000
00000001
00000100
00001000
00000000
,
00010000
01000000
10000000
00100000
,
10000000
00000000
00100000
00000000
10000000
00100000
00010000
00000000
,
00001000
00000010
00000001
00001000
,
00000001
00000000
00000000
00000000
00000001
00000000
00000010
00000000
00001000
00000000
00000000
00010000
00000000
00000000
00001000
00000000
,
00011000
00000000
00000000
00000000
;

//---------------dance-double - Copied from----------------
#NOTES:
     dance-double:
     Copied from:
     Easy:
     3:
     0.206,0.266,0.109,0.109,0.000: // measure 1
00000000
00000000
00000000
00000000
,  // measure 2
00010000
00000000
00001000
00000000
,  // measure 3
00010000
00000000
00001000
00000000
,  // measure 4
00010000
00001000
00010000
01000000
,  // measure 5
10000000
00000000
01000000
00000000
,  // measure 6
00010000
00000000
00001000
00000000
,  // measure 7
00010000
00000000
00001000
00000000
,  // measure 8
00000000
00000100
00000001
00000010
,  // measure 9
00000100
00001000
00010000
00001000
,  // measure 10
00022000
00000000
00033000
00010000
,  // measure 11
01000000
00100000
00010000
10000000
,  // measure 12
01000000
10000000
00100000
00010000
,  // measure 13
00001000
00000000
00000010
00000000
,  // measure 14
00001001
00000000
00000000
00000000
,  // measure 15
00000000
00000000
00000000
00000000
,  // measure 16
00000000
00000000
00000000
00000000
,  // measure 17
00000000
00000000
00000000
00000000
,  // measure 18
00000000
00000000
00000000
00000000
,  // measure 19
00000000
00000000
00000000
00000000
,  // measure 20
00000000
00000000
00000000
00000000
,  // measure 21
00000000
00000000
00000000
00000000
,  // measure 22
00000002
00000000
00000013
00000100
,  // measure 23
00002000
00000000
00003001
00000100
,  // measure 24
00001000
00000000
00010000
00000000
,  // measure 25
01000000
00000000
00100000
00000000
,  // measure 26
02000000
00000000
03100000
00010000
,  // measure 27
20000000
00000000
31000000
10000000
,  // measure 28
01000000
00010000
00001000
00000000
,  // measure 29
00001000
00010000
00001000
00010000
,  // measure 30
00011000
00000000
01000000
00000000
,  // measure 31
00100000
00000000
01000000
00000000
,  // measure 32
10010000
00000000
00000000
00000000
,  // measure 33
00000000
00000000
00000000
00000000
,  // measure 34
10000000
01000000
00010000
00001000
,  // measure 35
00000100
00000010
00001000
00001001
,  // measure 36
00000001
00000100
00001000
00010000
,  // measure 37
01000000
10000000
00100000
01100000
,  // measure 38
10000000
10000000
01000000
01000000
,  // measure 39
00100000
00100000
00010000
00011000
,  // measure 40
00001000
00001000
00000100
00000100
,  // measure 41
00000010
00000010
00001000
00001000
,  // measure 42
00002002
00000000
00000000
00000000
,  // measure 43
00000000
00000000
00000000
00003003
,  // measure 44
00000001
00000010
00001000
00010000
,  // measure 45
00010000
01000000
01000000
00100000
,  // measure 46
02200000
00000000
00000000
00000000
,  // measure 47
00000000
00000000
00000000
03300000
,  // measure 48
10000000
01000000
00100000
00010000
,  // measure 49
10000000
01000000
00100000
00010000
,  // measure 50
00011000
00000000
00000000
00000000
;
