#TITLE:In the tornado;
#SUBTITLE:-Desperate attack!-;
#ARTIST:鯛の小骨;
#TITLETRANSLIT:;
#SUBTITLETRANSLIT:;
#ARTISTTRANSLIT:;
#GENRE:;
#CREDIT:Meseki;
#MENUCOLOR:;
#BANNER:In the tornado -Desperate attack!-bn.png;
#BACKGROUND:In the tornado -Desperate attack!-bg.png;
#LYRICSPATH:;
#CDTITLE:;
#MUSIC:In the tornado -Desperate attack!-.ogg;
#OFFSET:-1.073;
#SAMPLESTART:70.092;
#SAMPLELENGTH:18.823;
#SELECTABLE:YES;
#LISTSORT:;
#BPMS:0.000=76.500,16.000=153.000,80.000=76.500,88.000=153.000;
#STOPS:;
#TICKCOUNT:0.000=2;
#BGCHANGES:;
#KEYSOUNDS:;
#ATTACKS:;

//---------------dance-single - ----------------
#NOTES:
     dance-single:
     :
     Medium:
     7:
     0.363,0.611,0.163,0.057,0.072:
0000
0000
0000
0000
,
0000
0000
0000
0000
,
0000
0000
0000
0000
,
0000
0000
0000
0000
,
1000
0100
0010
0001
,
0100
0010
1000
0001
,
0010
0100
1000
0001
,
2000
0000
0000
0000
,
3001
0100
0010
0100
,
0001
0010
0100
1000
,
0001
0100
1000
0100
,
0101
0000
0100
0000
0001
0000
1000
0010
,
0100
0000
0001
0000
1000
0100
0010
0000
,
0100
0010
0001
0000
0010
0000
1000
0000
,
0010
0000
0011
0000
1000
0001
0010
0001
,
1000
1001
1010
1010
,
1000
0000
0001
0000
0100
0010
1000
0010
,
0100
0000
0001
0000
1000
0100
1000
0100
,
1000
0000
0001
0000
0010
0001
0010
1000
,
0010
0000
1000
0000
0010
0001
0010
0001
,
0010
0010
0000
1000
0000
0100
1000
0000
0001
0010
0000
0001
0000
0100
0001
0000
,
0100
0010
0000
0001
0000
0010
1000
0000
2010
0000
0000
0000
0000
0010
0010
0010
,
3020
0000
0130
1000
,
0100
0010
1000
0100
,
0010
0001
0100
0010
,
2000
0000
0000
0000
0000
0000
0000
0000
3001
0000
0000
0000
0100
0000
0000
0010
,
0000
1000
0010
0000
0100
0000
0001
0000
,
0010
0100
1000
0100
,
0001
0010
1000
0100
,
0010
0001
0100
0010
,
1000
0000
0000
1000
0000
0000
0010
0000
,
0100
0000
0000
0100
0000
0000
0010
0000
,
0100
0000
0000
0100
0000
0000
0001
0000
,
0100
0000
0000
0010
0000
0000
1000
0000
0000
0010
0000
0000
0100
0000
0000
0000
,
0001
0000
0000
0001
0000
0000
0010
0000
,
0100
0000
0000
0100
0000
0000
0010
0000
,
0001
0000
0000
0001
0000
0000
0010
0000
,
0110
0011
1001
1100
,
0100
0000
0010
0000
0010
0000
0001
0010
,
0100
0000
0001
0000
0001
0000
0001
0100
,
1000
0000
0010
0000
0010
0000
0010
0100
,
0001
0000
0010
0000
0010
0000
0010
0100
,
1000
0000
0010
0000
0010
0000
0001
0010
,
0100
0000
0001
0000
0001
0000
0001
0010
,
0100
0000
0010
0000
0010
0000
0001
1000
,
0100
0000
1000
0000
1000
0000
1000
0010
,
0100
0010
1000
0000
0100
0010
0001
0010
,
0100
0000
0101
0000
0100
1000
0010
1000
,
0100
0000
1001
0000
1000
0100
0001
0100
,
1000
0000
0010
0000
0000
0010
0000
0000
0010
0000
1000
0000
0010
0000
1000
0000
,
0100
0000
1001
0000
0100
0001
0100
1000
,
0100
0000
0110
0000
0010
1000
0010
0001
,
0010
0000
0110
0000
0001
0010
1000
0010
,
0001
0000
1100
0000
0010
0010
0100
0100
,
2002
0000
0000
0000
,
0000
0000
0000
0000
,
0000
0000
0000
0000
,
0000
0000
0000
0000
,
3003
0000
0000
0000
;

//---------------dance-single - ----------------
#NOTES:
     dance-single:
     :
     Hard:
     8:
     0.486,0.614,0.345,0.057,0.124:
0000
0000
0000
0000
,
0000
0000
0000
0000
,
0000
0000
0000
0000
,
0000
0000
0000
0000
,
1000
0010
0000
1000
0010
0000
1000
0001
,
0100
0001
0000
0100
0001
0000
0010
0100
,
1000
0001
0000
1000
0001
0000
1000
0010
,
0002
0010
0010
0010
,
0013
1000
0000
0010
1000
0000
0100
0010
,
0001
1000
0000
0001
1000
0000
0001
0100
,
0010
1000
0000
0010
1000
0000
1000
0010
,
1000
0000
0001
1000
0000
0000
0000
0000
1000
0010
1000
0000
0100
0000
0100
0000
,
1000
0100
0010
0000
0100
0010
0001
1000
,
0001
0100
0010
0000
1000
0010
0100
0010
,
1000
0100
0001
0000
0100
1000
0010
1000
,
0001
0000
0100
0000
0010
0000
0000
0000
1000
0010
1000
0000
0010
1000
0010
0000
,
0100
0010
1000
0000
0100
0001
0100
1000
,
1100
0000
0011
0000
1000
0010
0001
0010
,
1010
0000
0101
0000
0100
1000
0010
0001
,
0100
0000
0001
0000
0010
0000
0001
0000
1000
0001
1000
0000
0100
0010
0100
0000
,
1000
1000
0000
0010
0000
0010
0010
0000
0100
0100
0000
0001
0000
0001
0001
0000
,
1000
1000
0000
0010
0000
0010
0010
0000
2010
0000
0000
0000
0000
0001
0001
0001
,
3002
0000
0000
0000
0013
0100
1000
0001
,
0100
0000
0010
0000
1000
0100
0010
0001
,
0010
0000
1000
0000
0010
0001
0100
0010
,
2000
0000
0000
0000
0000
0000
0000
0000
3001
0000
0000
0000
0100
0001
0000
0010
,
0000
0100
1000
0010
0100
0001
0010
0100
,
1000
0010
0100
0001
0010
0100
1000
0001
,
0100
0000
0010
0000
1000
0100
0010
0001
,
0100
0010
0001
0010
1000
0000
0100
0000
,
0001
0100
0000
0001
0100
0000
0001
0100
,
0000
0001
0100
0000
0001
0100
0000
0001
,
0100
0000
0001
0100
0000
0001
0100
0000
,
0110
0000
0000
0010
0000
0000
0011
0000
0000
0100
0000
0000
1001
0000
0000
0000
,
1000
0000
0000
1000
0100
0010
0001
0000
,
1000
0000
0000
1000
0100
0010
0001
0000
,
0100
0000
0000
1000
0100
0010
1000
0000
,
0100
0000
0000
0010
0001
0000
0000
0001
0010
0000
0000
0010
0100
0000
0000
0000
,
1000
0000
0011
0000
0011
0000
0001
1000
,
0100
0000
1001
0000
1001
0000
0001
0100
,
1000
0000
0101
0000
0101
0000
0001
0010
,
0100
0000
1001
0000
0011
0000
0010
0100
,
1000
0000
0101
0000
0101
0000
0010
0100
,
0001
0000
1010
0000
1010
0000
0001
0010
,
0100
0000
0011
0000
0011
0000
0010
0100
,
1000
0000
0110
0000
0110
0000
0010
0100
,
1000
0010
0001
0000
0010
1000
0001
0010
,
1000
0010
0011
0000
1000
0010
1000
0010
,
0100
0000
0101
0000
1000
0001
0010
0001
,
1000
0000
1010
0000
0000
0110
0000
0000
0101
0000
0100
0000
0001
0100
0001
0000
,
1001
0000
0011
0000
0100
1000
0010
0001
,
1000
0000
1001
0000
0100
1000
0010
0001
,
0100
0000
1100
0000
1000
1001
0001
1001
,
1000
0010
0100
0010
0001
0100
1000
0010
,
2002
0000
0000
0000
,
0000
0000
0000
0000
,
0000
0000
0000
0000
,
0000
0000
0000
0000
,
3000
0003
0000
0000
;

//---------------dance-single - ----------------
#NOTES:
     dance-single:
     :
     Easy:
     4:
     0.222,0.333,0.038,0.057,0.014:
0000
0000
0000
0000
,
0000
0000
0000
0000
,
0000
0000
0000
0000
,
0000
0000
0000
0000
,
1000
0000
0010
0000
,
1000
0000
0001
0000
,
0100
0000
0001
0000
,
0020
0000
0000
0000
,
0130
0000
1000
0000
,
0010
0000
1000
0000
,
0100
0000
0010
0000
,
1001
0000
0010
0000
,
1000
0000
0010
0010
,
0100
0000
0001
0010
,
0100
0000
1000
0010
,
0100
0000
0001
1000
,
0001
0010
0100
0010
,
0001
1000
0100
0010
,
0100
1000
0010
0010
,
0100
0001
1000
1000
,
1000
0000
0000
0001
0000
0000
0001
0000
0100
0000
0000
0001
0000
0000
0001
0000
,
0010
0000
0000
0001
0000
0000
0001
0000
2000
0000
0000
0000
0000
0000
0000
0000
,
3002
0000
0013
0000
,
0100
0100
1000
0000
,
0001
0001
0010
1000
,
0020
0000
0031
0000
,
0000
1000
0010
0100
,
0001
0010
0100
1000
,
0000
1000
0100
0010
,
0000
0100
0001
0100
,
1000
0000
0000
0001
,
1000
0000
0000
0001
,
1000
0000
0000
0001
,
1000
0000
0000
0001
0000
0000
0010
0000
,
0100
0000
0000
0010
,
0100
0000
0000
0010
,
0100
0000
0000
0010
,
0100
0001
0010
1000
,
0001
0010
0010
0000
,
1000
0010
0010
0000
,
0100
1000
1000
0000
,
0100
0001
0001
0000
,
0100
1000
0001
0000
,
0100
0001
0010
0000
,
1000
0010
0001
0000
,
1000
0010
0001
0000
,
0100
1000
0010
1000
,
0001
0010
0010
0001
,
0100
0001
0010
0100
,
1100
0000
1001
0001
,
1000
0010
0010
0001
,
0010
1000
1000
0001
,
0100
1000
1000
0010
,
0100
0001
0010
1000
,
2002
0000
0000
0000
,
0000
0000
0000
0000
,
0000
0000
0000
0000
,
0000
0000
0000
0000
,
3003
0000
0000
0000
;

//---------------dance-single - ----------------
#NOTES:
     dance-single:
     :
     Beginner:
     2:
     0.149,0.278,0.019,0.048,0.000: // measure 1
0000
0000
0000
0000
,  // measure 2
0000
0000
0000
0000
,  // measure 3
0000
0000
0000
0000
,  // measure 4
0000
0000
0000
0000
,  // measure 5
1000
0000
0000
0000
,  // measure 6
0010
0000
0000
0000
,  // measure 7
1000
0000
0000
0000
,  // measure 8
0002
0000
0000
0000
,  // measure 9
0003
0000
0000
0000
,  // measure 10
0010
0000
0000
0000
,  // measure 11
0100
0000
0000
0000
,  // measure 12
1001
0000
0000
0000
,  // measure 13
0010
0000
0001
0000
,  // measure 14
0010
0000
0100
0000
,  // measure 15
1000
0000
0001
0000
,  // measure 16
1000
0000
0010
0010
,  // measure 17
0100
0000
0001
0001
,  // measure 18
1000
0000
0001
0001
,  // measure 19
0100
0000
0001
0001
,  // measure 20
0010
0000
0100
0100
,  // measure 21
1000
0000
0100
0000
,  // measure 22
0010
0000
0002
0000
,  // measure 23
1003
0000
0001
0000
,  // measure 24
0100
0000
1000
0000
,  // measure 25
0100
0000
0001
0000
,  // measure 26
0020
0000
0030
0000
,  // measure 27
0000
0001
0000
0010
,  // measure 28
0000
0100
0000
1000
,  // measure 29
1000
0000
0100
0000
,  // measure 30
0010
0000
0001
0000
,  // measure 31
1000
0000
0000
0000
,  // measure 32
0100
0000
0000
0000
,  // measure 33
0010
0000
0000
0000
,  // measure 34
0100
0000
0000
1000
,  // measure 35
0001
0000
0000
0000
,  // measure 36
0100
0000
0000
0000
,  // measure 37
0010
0000
0000
0000
,  // measure 38
1000
1000
0001
0001
,  // measure 39
1000
0000
0001
0000
,  // measure 40
1000
0000
0010
0000
,  // measure 41
0100
0000
0001
0000
,  // measure 42
0100
0000
0010
0000
,  // measure 43
1000
0000
0001
0000
,  // measure 44
1000
0000
0010
0000
,  // measure 45
0100
0000
0010
0000
,  // measure 46
0100
0000
0001
0000
,  // measure 47
1000
0010
0000
0000
,  // measure 48
1000
0001
0000
0000
,  // measure 49
0100
0010
0000
0000
,  // measure 50
0100
0001
0100
0001
,  // measure 51
1000
0010
0010
0010
,  // measure 52
0100
0010
0010
0010
,  // measure 53
0100
0001
0001
0001
,  // measure 54
1000
0001
0001
0001
,  // measure 55
2002
0000
0000
0000
,  // measure 56
0000
0000
0000
0000
,  // measure 57
0000
0000
0000
0000
,  // measure 58
0000
0000
0000
0000
,  // measure 59
3003
0000
0000
0000
;
