#TITLE:Gym Leader Battle;
#SUBTITLE:;
#ARTIST:PokeRemixStudio;
#TITLETRANSLIT:;
#SUBTITLETRANSLIT:;
#ARTISTTRANSLIT:;
#CREDIT:Braeden47;
#BANNER:;
#BACKGROUND:;
#LYRICSPATH:;
#CDTITLE:;
#MUSIC:Pokemon Gym Leader Battle.ogg;
#OFFSET:-0.094;
#SAMPLESTART:66.364;
#SAMPLELENGTH:15.000;
#SELECTABLE:YES;
#DISPLAYBPM:188.000;
#BPMS:0.000=188.020,137.000=188.010;
#STOPS:;
#BGCHANGES:;

//---------------dance-single - ----------------
#NOTES:
     dance-single:
     :
     Challenge:
     13:
     1.000,1.000,0.243,0.494,0.924:
0000
0000
0000
0000
,
0000
0000
0000
0000
,
1000
0100
0010
0001
1000
0100
0010
0001
,
1000
0100
0010
0001
0100
0101
0000
0000
,
0010
0000
1000
0100
0010
0000
0001
0000
0100
0000
0010
1000
0010
0000
0100
0000
,
0001
0000
0010
0100
1000
0000
0010
0000
1000
0000
1010
0000
0000
0000
0000
0000
,
0100
0000
0001
0010
0001
0000
1000
0000
0010
0000
1000
0100
1000
0000
0001
0000
,
0100
0000
0001
1000
0010
0000
0100
0000
0001
0000
0010
0000
0000
0000
0000
0000
,
0110
0000
0011
0000
0101
0000
0002
0100
,
0000
2003
0000
3010
0100
0001
0100
0010
,
1000
0000
0001
0100
0001
0000
0001
0000
0010
0000
0100
0010
0200
0000
0000
0000
,
1300
0000
0001
0100
0001
0000
0010
0000
0100
0000
1000
0000
0001
0000
0100
0000
,
0101
0000
0110
0000
0110
0000
0020
1000
,
0000
0130
0000
0001
1000
0010
0100
0001
,
1000
0000
1000
0100
1000
0000
0100
0000
0010
0000
0001
0010
0001
0000
0010
0000
,
0100
0000
1000
0010
1000
0000
0100
0000
0010
0000
0001
0000
1000
0000
0100
0000
,
0010
0000
0100
0000
1000
0010
1000
0010
1000
0000
0000
0000
0001
0010
0001
1000
,
0001
0000
0000
0000
1000
0100
0010
0001
0100
0000
0100
0000
0001
0000
0010
0000
,
0100
1000
0001
0100
0010
0000
0000
0000
0010
1000
0010
1000
0100
0000
0000
0000
,
0010
1000
0100
0010
0100
0000
0010
0000
0001
0000
0100
0000
0010
0000
1000
0000
,
0200
0000
0010
0000
1000
0000
1000
1000
,
2300
0000
3010
0100
0001
1000
0010
1000
,
0001
0100
0001
1000
0001
0100
0001
1000
0010
1000
0001
1000
0010
0100
0001
0010
,
0001
0010
0100
1000
0001
0010
0100
1000
0001
0010
0100
1000
0001
0010
0100
1000
,
0001
0010
0100
1000
0001
1000
0010
1000
0001
0100
0010
0100
0001
0100
0010
0100
,
0001
0100
0010
1000
0010
0100
0010
1000
0010
0100
0010
0100
0001
0010
0001
0010
,
0100
1000
0001
0100
0010
1000
0010
0100
0001
1000
0010
0100
0001
1000
0010
0100
,
0001
0100
0001
1000
0100
0010
0001
0100
0001
1000
0010
1000
0010
0100
0001
0100
,
0010
1000
2200
0000
0000
0000
3300
0000
,
0010
0001
0022
0000
0000
0000
0033
0000
,
0002
0000
0023
0000
0230
0000
1300
0010
,
0000
0100
0001
0100
0010
1000
0100
0010
,
0001
0100
0002
0000
0000
0000
0000
0000
,
1003
0010
1000
0001
0100
0001
1000
0010
0100
0001
0100
0010
1000
0001
0100
0010
,
2000
0000
0001
0000
0010
0010
0000
0000
,
0001
0000
0100
3100
0000
0110
0000
0000
,
0200
0000
0010
0000
0010
0320
0000
0000
,
1000
0000
0000
0000
1000
0000
1030
0000
0000
0000
0100
0000
0010
0001
0100
0010
,
1000
0000
0000
0000
0100
0000
0000
0001
0100
0001
1000
0000
1000
0010
1000
0001
,
1000
0000
0000
0000
0100
0000
0000
0001
0010
0100
1000
0000
1000
0100
0010
0001
,
1000
0000
0000
0000
0010
0000
0000
0100
0001
1000
0100
0000
0010
0001
0100
0010
,
1000
0000
0010
0100
0001
0100
0010
0000
1000
0100
0010
0100
0010
0000
0000
0000
,
0002
0000
0203
0000
0320
0000
1030
0002
,
0000
2003
0000
3010
0100
0001
0100
0010
,
2000
0000
3200
0000
,
0320
0000
0032
0000
,
0103
0000
0110
0000
1010
0000
1100
1000
,
0000
0100
0000
0010
0001
0100
0010
1000
,
0200
0000
0320
0000
,
0032
0000
0203
0000
,
0310
0000
1000
0000
0010
0100
0001
0010
0100
0000
1000
0000
0010
0100
0001
0100
,
0010
0000
0010
0000
1000
0010
1000
0100
1000
0000
0100
0010
0001
0000
0100
0000
,
0010
1000
0010
0100
0001
0000
0010
0000
0100
1000
0001
1000
0010
0000
0100
0000
,
0001
0100
0010
1000
0010
0000
1000
0000
0010
0000
0100
0000
0001
0000
0010
0000
,
0200
0000
2300
0000
3020
0000
1030
0010
,
0020
0230
0320
2030
,
3100
0010
0001
0010
0100
1000
0010
1000
0010
1000
0001
0100
0001
0100
0001
1000
,
0001
0100
0010
1000
0001
0100
0010
1000
0001
0100
0010
1000
0001
0100
0001
1000
,
0001
0100
0001
1000
0001
0010
0100
1000
0100
0010
0001
0100
0001
1000
0010
1000
,
0001
0100
0001
1000
0010
1000
0001
0100
0001
0010
0100
1000
0100
0010
0001
0010
,
0100
1000
0100
1000
0001
1000
0010
1000
0010
0100
0001
0100
0001
1000
0010
1000
,
0010
0100
0001
1000
0010
0100
0001
0100
0001
1000
0010
0100
0001
0100
0010
1000
,
0010
0100
0120
0000
0000
0000
0000
0000
,
1030
0100
2100
0000
0000
0000
0000
0000
,
3020
0000
0230
0000
0302
0000
0013
0200
,
0000
1300
0010
0100
0001
0100
0010
1000
,
0100
0010
0200
0000
0000
0000
0000
0000
,
0310
0001
0100
0001
0010
0100
0010
0100
1000
0100
0010
0001
0100
0010
1000
0100
,
0020
0000
0032
0000
0013
0200
0000
0000
,
2300
0000
3001
0100
0000
0011
0000
0000
,
0110
0000
1100
0000
1000
0002
0000
0000
,
0203
0000
0000
0000
0310
0000
2000
0000
0000
0000
3010
0000
0100
0001
0100
0010
,
1000
0000
0000
0000
0001
0000
0000
0001
0010
0001
0010
0000
0100
1000
0100
1000
,
0001
0000
0000
0000
0010
0000
0000
0100
1000
0001
0100
0000
0010
1000
0010
0100
,
0001
0000
0000
0000
0001
0000
0000
0001
0010
0100
1000
0000
0001
0100
0010
1000
,
0100
0000
1000
0010
0100
0001
0100
0000
0010
1000
0001
0100
0001
0000
0000
0000
,
0110
0010
1000
0010
1010
1000
0100
1000
,
1001
0001
0010
0100
0110
0100
0000
0000
,
1000
0100
0010
0001
0101
0010
1000
0010
,
1010
1000
0100
1000
0001
1000
0000
0000
,
0010
0100
0001
0010
0100
1000
0010
0100
,
0001
0100
0010
1000
0010
1000
0000
0000
,
0010
0100
0001
0100
0001
0010
0100
1000
0100
0010
0001
0100
0010
1000
0010
0100
,
0001
0010
0100
1000
0100
0010
0100
0010
0001
1000
2002
0000
0000
0000
0000
0000
,
3003
0000
0000
0000
;

//---------------dance-single - ----------------
#NOTES:
     dance-single:
     :
     Hard:
     9:
     0.726,0.666,0.121,0.718,0.000:
0000
0000
0000
0000
,
0000
0000
0000
0000
,
1000
0100
0010
0001
1000
0100
0010
0001
,
1000
0100
0010
0001
1000
1000
0000
0000
,
0010
1000
0010
0100
0001
0100
0010
1000
,
0100
0010
0001
0010
0001
0001
0000
0000
,
0001
0100
0010
1000
0010
1000
0010
0100
,
0001
0100
0010
1000
0010
0010
0000
0000
,
0110
0000
0011
0000
0101
0000
0002
0100
,
0000
2003
0000
3010
0100
0001
0100
0010
,
2000
0000
3200
0000
,
0320
0000
0032
0003
,
0101
0000
0110
0000
0110
0000
0020
1000
,
0000
0130
0000
0001
1000
0010
0100
0001
,
2000
0000
3020
0000
,
0230
0000
0302
0000
,
0013
0100
1000
0010
1000
0000
0001
1000
,
0100
0000
1000
0010
0100
0100
0001
0010
,
0100
1000
0010
0000
0100
0001
0100
0000
,
0001
0010
0100
1000
0001
0100
0010
1000
,
0200
0010
1000
1000
,
2300
3020
0230
0320
,
2030
0000
3001
0010
0100
1000
0010
0100
,
0001
0010
0100
1000
0001
0100
0001
1000
,
0020
0000
0230
0000
0302
0000
1003
0001
,
0200
0320
2030
3002
,
0103
0010
0100
0001
0100
0010
1000
0010
,
0100
0001
1000
0010
0100
0001
0100
0010
,
1000
0100
2000
0000
0000
0000
3000
0000
,
0001
0010
0002
0000
0000
0000
0003
0000
,
0002
0000
0023
0000
0230
0000
1300
0010
,
0000
0100
0001
0100
0010
1000
0100
0010
,
0001
0100
0002
0000
0000
0000
0000
0000
,
1003
0001
0100
0001
0010
0100
1000
0100
,
2000
0000
0001
0000
3001
0020
0000
0000
,
0130
0000
1000
0010
0000
1010
0000
0000
,
0200
0000
0001
0000
0001
0302
0000
0000
,
1000
0000
0100
0103
0000
0010
1000
0100
,
1000
0000
0010
0000
0100
0001
0100
0010
,
0100
0000
0001
0000
0010
0100
1000
0010
,
0100
0000
0001
0000
0010
0100
1000
0010
,
1000
0010
0100
0001
0100
0010
0100
0000
,
0002
0000
0203
0000
0320
0000
1030
0002
,
0000
2003
0000
3010
0100
0001
0100
0010
,
2000
0000
3200
0000
,
0320
0000
0032
0000
,
0103
0000
0110
0000
1010
0000
0010
1000
,
0000
0100
0000
0010
0001
0100
0010
1000
,
0200
0000
0320
0000
,
0032
0000
0203
0000
,
0310
0000
1000
0100
1000
0000
0001
0010
,
0001
0000
1000
0010
0100
0001
1000
0010
,
0100
0001
0010
0000
0100
1000
0010
0000
,
0100
0001
0100
0010
1000
0100
0010
0001
,
0020
0000
0230
0000
2300
0000
3100
0010
,
0002
2003
3020
2030
,
3100
0010
0001
0010
0100
1000
0010
0100
,
0001
0100
0001
1000
0100
0010
0001
0100
,
0020
0000
2030
0000
3200
0000
0310
0001
,
0200
0320
2030
3020
,
1030
0100
0001
0100
0010
0100
1000
0010
,
0100
0001
0010
1000
0010
0001
0100
0010
,
0100
0001
0020
0000
0000
0000
0000
0000
,
0130
1000
0020
0000
0000
0000
0000
0000
,
0230
0000
0302
0000
0023
0000
0130
2000
,
0000
3010
0100
0001
1000
0010
0100
0001
,
0100
0010
0200
0000
0000
0000
0000
0000
,
0301
0100
0010
1000
0100
0010
0100
0010
,
0002
0000
0023
0000
0130
0200
0000
0000
,
2300
0000
3001
0100
0000
0011
0000
0000
,
0110
0000
1100
0000
1000
0002
0000
0000
,
0203
0000
0310
2000
0000
3010
0100
0001
,
0010
0000
0100
0000
1000
0010
0100
0010
,
1000
0000
0010
0000
1000
0100
0010
0100
,
0010
0000
0001
0000
0001
0010
0001
0010
,
0100
1000
0010
0100
0001
0100
0001
0000
,
0010
1000
0010
0001
0100
1000
0100
0001
,
0100
0010
0100
1000
0100
0001
0000
0000
,
1000
0100
0010
1000
0010
0001
0100
1000
,
0100
0010
1000
0100
0001
0100
0000
0000
,
1000
0100
0001
0100
0010
0100
1000
0010
,
0001
0010
0100
0001
0010
1000
0000
0000
,
0010
0001
0100
0010
1000
0100
0001
0100
,
0010
0100
1000
0001
1000
2002
0000
0000
,
3003
0000
0000
0000
;

//---------------dance-single - ----------------
#NOTES:
     dance-single:
     :
     Medium:
     6:
     0.536,0.627,0.112,0.420,0.000:
0000
0000
0000
0000
,
0000
0000
0000
0000
,
1000
0010
1000
0001
,
1000
0000
0100
0000
0010
0010
0000
0000
,
0001
0010
0001
0100
,
0001
0000
1000
0000
0010
0010
0000
0000
,
0100
0010
0001
0010
,
0100
0000
1000
0000
0010
0010
0000
0000
,
1010
0000
0110
0000
0101
0000
0001
0100
,
0000
0010
0000
1000
0010
0000
0010
0000
,
2000
0000
3200
0000
,
0320
0000
0032
0003
,
0101
0000
0110
0000
0110
0000
0010
1000
,
0000
0100
0000
0010
0001
0000
1000
0000
,
0020
0000
0230
0000
,
0302
0000
0023
0000
,
0130
0000
1000
0010
1000
0000
0001
0010
,
0100
1000
0010
0100
,
0001
0010
0100
0000
1000
0100
0010
0000
,
0001
0100
0001
0010
,
0100
1000
0010
0100
,
0001
0100
0010
1000
,
0010
0100
0001
0100
,
0001
0010
0001
0010
0001
0010
0001
0010
,
0001
0000
0100
0000
0001
0000
1000
0010
,
1000
0100
0010
0001
,
0100
0010
1000
0000
1000
0001
0010
0000
,
0100
1000
0100
0000
0010
0001
0010
0000
,
0001
0010
0200
0000
0000
0000
0000
0000
,
1300
0100
2000
0000
0000
0000
0000
0000
,
3002
0000
0023
0000
0230
0000
1300
0010
,
0000
0100
0001
0000
0010
0000
0100
0000
,
1000
0100
0020
0000
0000
0000
0000
0000
,
0031
0010
0001
0010
0001
0010
0001
0010
,
0002
0000
1000
0000
1003
0010
0000
0000
,
0100
0000
0001
0010
0000
0100
0000
0000
,
2000
0000
3010
0000
0100
0002
0000
0000
,
0013
0000
0100
1000
0000
0100
0010
0100
,
0010
0000
0001
0000
0100
0010
0000
0000
,
1000
0000
0100
0020
0000
0032
0000
0000
,
0103
0000
0010
0000
1000
0100
0000
0000
,
0010
0000
0001
0020
0000
0032
0000
0003
,
0001
0000
0100
0000
0010
0000
1000
0002
,
0000
2003
0000
3010
0100
0000
0010
0000
,
2000
0000
3200
0000
,
0320
0000
0032
0000
,
0103
0000
0110
0000
1010
0000
0010
1000
,
0000
0100
0000
0010
0001
0000
0010
0000
,
0200
0000
0320
0000
,
0032
0000
0203
0000
,
0310
0000
1000
0100
1000
0000
0001
0010
,
0001
1000
0010
0100
,
0001
0000
0100
0000
0010
1000
0100
0000
,
0010
0001
0010
0000
0100
0000
1000
0000
,
0010
0000
0100
0000
0010
0000
1000
0100
,
0010
0001
0010
0100
,
1000
0010
0100
0001
,
0100
0001
0100
0001
0100
0001
0100
0001
,
1000
0000
0010
0000
0100
0000
0010
1000
,
0001
0010
0100
1000
,
0001
1000
0100
0010
,
0001
0100
0010
1000
,
0100
0020
0000
0000
,
0031
1000
0200
0000
0000
0000
0000
0000
,
0320
0000
0032
0000
0023
0000
0130
2000
,
0000
3010
0100
0000
0001
0000
0100
0000
,
0001
0002
0000
0000
,
1003
0100
1000
0100
1000
0100
1000
0100
,
2000
0000
3200
0000
0310
0001
0000
0000
,
0010
0000
0100
1000
0000
1100
0000
0000
,
0110
0000
0110
0000
0010
0002
0000
0000
,
0203
0000
0310
2000
0000
3010
0100
0001
,
0010
0000
0100
0000
1000
0010
0000
0000
,
0100
0000
0001
0010
0000
0100
0000
0000
,
1000
0000
0010
0000
0100
0001
0000
0000
,
0001
0000
0100
0010
0000
0100
0000
0000
,
0001
0010
0100
1000
,
0100
0000
0010
0000
0100
0010
0000
0000
,
0001
0100
0010
0100
,
0001
0000
0010
0000
0100
1000
0000
0000
,
0010
0100
0001
0100
,
0010
0000
1000
0000
0010
0100
0000
0000
,
0001
0010
0100
0010
,
0001
0000
1000
0000
0001
2002
0000
0000
,
3003
0000
0000
0000
;

//---------------dance-single - ----------------
#NOTES:
     dance-single:
     :
     Easy:
     4:
     0.328,0.392,0.131,0.121,0.000:
0000
0000
0000
0000
,
0000
0000
0000
0000
,
1000
0100
0010
0001
,
0010
0100
1000
0000
,
0010
0100
0001
0100
,
0010
1000
0100
0000
,
0010
0001
0100
0010
,
1000
0010
0100
0000
,
0010
0000
0010
0000
0010
0000
0000
0001
,
0000
0001
0000
0000
0010
0000
1000
0000
,
1010
0000
1010
0000
,
1001
0000
0011
0000
,
0001
0000
0010
0000
0001
0000
0000
0010
,
0000
0100
0000
0000
1000
0000
0100
0000
,
1100
0000
0110
0000
,
0011
0000
1001
0000
,
1000
0000
0100
0000
,
0010
0000
0001
0000
,
0010
0000
0100
0000
,
1000
0000
0010
0100
,
0001
1000
0010
0100
,
0001
1000
0100
0010
,
0200
0000
0000
0000
,
1300
0010
0100
0001
,
0100
0001
0100
0010
,
1000
0100
0010
0001
,
0200
0000
0000
0000
,
0302
0000
0000
0000
,
1003
0200
0000
0000
,
0310
0002
0000
0000
,
0013
0000
0100
0000
0010
0000
0000
0100
,
0000
1000
0010
0100
,
0001
2000
0000
0000
,
3100
0010
0001
0010
,
0100
1000
0010
0000
,
1000
0000
0000
0001
0000
0000
0000
0000
,
0100
0010
1000
0000
,
0010
0000
0000
0100
0000
0000
0000
0000
,
0001
0100
0010
0000
,
1000
0000
0000
0100
0000
0000
0000
0000
,
0010
0001
0100
0000
,
0010
0000
0000
1000
0000
0000
0000
0000
,
0010
0000
1000
0000
0010
0000
0000
0100
,
0000
0001
0000
0000
0001
0000
0010
0000
,
0011
0000
0110
0000
,
1100
0000
1001
0000
,
1000
0000
0100
0000
0010
0000
0000
0001
,
0000
0010
0000
0000
0100
0000
1000
0000
,
0020
0000
0230
0000
,
0302
0000
0203
0000
,
0301
0000
0010
0000
,
0100
0000
1000
0000
,
0010
0000
0100
0000
,
1000
0000
0100
0010
,
0001
0000
0000
0000
,
1100
0000
0000
0000
,
1000
0000
0000
0000
,
1000
0001
0100
0001
,
0010
0000
0000
0000
,
0100
0000
0000
0000
,
1000
0000
0000
0000
,
0001
0000
0000
0000
,
0010
0100
0000
0000
,
1000
0100
0000
0000
,
0100
0000
0010
0000
0001
0000
0000
0100
,
0000
0010
1000
0010
,
1000
0200
0000
0000
,
1300
0100
0010
0001
,
0010
0100
1000
0000
,
0100
0000
0000
0010
0000
0000
0000
0000
,
0001
0010
0100
0000
,
1000
0000
0000
0010
0000
0000
0000
0000
,
0100
0001
0100
0000
,
0010
0000
0000
1000
0000
0000
0000
0000
,
0100
0010
0001
0000
,
0010
0000
0000
0100
0000
0000
0000
0000
,
1000
0010
1000
0001
,
1000
0010
1000
0000
,
0001
0100
0001
1000
,
0001
0100
0010
0000
,
1000
0100
0010
0001
,
1000
0010
0100
0000
,
0001
0010
0100
1000
,
0001
1000
2002
0000
,
3003
0000
0000
0000
;
