#TITLE:Satan's Theme;
#SUBTITLE:Mean Bean Mix;
#ARTIST:Compile/Sega;
#TITLETRANSLIT:;
#SUBTITLETRANSLIT:;
#ARTISTTRANSLIT:;
#CREDIT:;
#BANNER:MeanBean-logo.png;
#BACKGROUND:MeanBean.png;
#LYRICSPATH:;
#CDTITLE:;
#MUSIC:MeanBean.ogg;
#OFFSET:-0.339;
#SAMPLESTART:74.160;
#SAMPLELENGTH:11.860;
#SELECTABLE:YES;
#BPMS:0.000=338.220;
#STOPS:;
#BGCHANGES:;

//---------------dance-single - Blank----------------
#NOTES:
     dance-single:
     Blank:
     Medium:
     8:
     0.621,0.888,0.393,0.043,0.034:
0000
0000
0000
0000
,
0000
0000
0000
0000
,
0000
0000
0000
0000
,
0000
0000
0000
0000
,
0000
0000
0000
0000
,
0000
0000
0000
0000
,
0000
0000
0000
0000
,
0000
0000
0000
0000
,
1000
0100
0010
0000
,
0001
0100
0010
0000
,
1000
0100
0001
0100
,
1000
0010
0100
0100
,
0001
0100
0010
0000
,
1000
0001
0100
0000
,
0001
0100
1000
0100
,
0001
0010
0100
0100
,
1000
0100
1100
0000
,
0001
0100
0101
0000
,
0100
0010
0110
0000
,
0001
0100
1000
0000
,
0000
0110
0000
0000
,
0011
0000
0000
1100
,
0000
0000
1001
0000
,
0000
0110
0000
0000
,
0001
0010
0011
0000
,
0001
1000
1100
0000
,
1000
0010
0110
0000
,
0010
0100
0001
0000
,
0000
1001
0000
0000
,
0101
0000
0000
0110
,
0000
0000
1001
0000
,
0000
1100
0000
0000
,
1000
0100
0000
0100
,
0010
0000
0010
0001
,
0000
0001
0100
0000
,
0100
0010
0100
1000
,
0100
0001
0000
0001
,
1000
0000
1000
0010
,
0000
0010
0100
0000
,
0100
0001
0010
0100
,
1000
0100
0000
0100
,
0001
0000
0001
0100
,
0000
0100
1000
0000
,
0010
0001
0100
0001
,
0010
1000
0000
1000
,
0001
0000
0001
0010
,
0000
0010
0100
0000
,
0100
1000
0001
0010
,
0100
1000
0001
0010
,
0100
1000
0001
0100
,
0001
0010
0001
0100
,
0001
1000
0010
0100
,
0002
0000
0000
1003
,
0100
2000
0000
0000
,
3020
0000
0000
0130
,
0001
0010
0100
1000
,
0010
0000
0110
0000
,
0001
0000
1100
0000
,
0100
0000
1100
0000
,
0010
0000
1001
0000
,
1000
0000
0100
0000
,
0010
0000
0001
0000
,
0020
0000
0000
0000
,
0000
0000
0000
0030
,
1000
0100
0010
0100
,
1000
0001
0100
0000
,
0010
1000
0001
0100
,
0001
0010
0001
0000
,
0010
0100
1000
0010
,
0100
0010
1000
0001
,
0100
0001
0010
0001
,
1000
0100
0010
0000
,
0001
0000
0101
0000
,
0010
0100
0000
1000
,
0100
0000
0110
0000
,
0100
0010
0000
0001
,
1000
0100
0010
0001
,
1000
0100
0010
0001
,
0100
0010
0100
0010
,
1000
0100
0001
0100
,
0000
0000
1000
0000
0000
0010
0000
0000
,
0100
0000
0000
0001
0000
0000
0010
0000
,
0000
0000
0100
0000
0000
1000
0000
0000
,
0001
0000
0000
0010
0000
0000
0001
0000
,
0000
0000
1000
0000
0000
0100
0000
0000
,
1000
0000
0000
0010
0000
0000
1000
0000
,
0000
0000
0001
0000
0000
0100
0000
0000
,
1000
0000
0000
0100
0000
0000
0001
0000
,
1000
0100
0010
0001
,
1000
0100
0010
0100
,
1000
0001
0100
0010
,
0100
0001
0010
0000
,
0100
1000
0001
0100
,
1000
0100
0001
0010
,
0100
0010
0100
1000
,
0001
1000
0010
0000
,
0100
0001
1000
0010
,
0001
0010
1000
0100
,
1000
0001
0010
0100
,
0010
0001
1000
0000
,
0001
1000
0100
1000
,
0100
1000
0010
0100
,
0001
0010
0100
1000
,
0001
0010
0001
0000
,
1000
0100
0000
0001
,
0010
0000
1000
0100
,
0000
0001
0100
0000
,
1100
0000
0101
0000
,
0001
0100
0000
1000
,
0010
0000
0001
0100
,
0000
1000
0100
0000
,
0101
0000
1100
0000
,
1000
0010
0000
0100
,
0001
0000
0010
0100
,
0000
1000
0001
0000
,
0110
0000
1001
0000
,
0001
0100
0000
0010
,
0100
0000
0001
1000
,
0000
0100
0010
0000
,
0110
0000
1001
0000
,
0010
0100
1000
0100
,
0010
0001
0100
0010
,
1000
0010
0100
0001
,
1000
0100
0001
0100
,
1000
0000
0100
0000
,
0010
0001
0000
0100
,
0010
0000
0100
0000
,
0010
1000
0000
0100
,
0001
0000
0101
0001
,
0010
0000
0110
0010
,
1000
0000
1100
0100
,
0010
0000
0110
0010
,
0001
0000
0010
0000
0100
0000
1000
0000
0001
0000
0010
0000
,
0100
0000
1000
0000
0001
0000
0010
0000
0100
0000
1000
0000
,
0002
0000
0000
0000
,
0000
0000
0103
0000
,
0001
0010
1000
0010
,
0100
0001
0100
0010
,
0100
0001
0100
0010
,
1000
0010
0100
0001
,
0001
0100
1000
0100
,
0010
0100
0010
0001
,
0010
0100
0010
0100
,
1000
0100
0001
0000
,
1000
0010
0100
0000
,
0010
0100
0000
0001
,
1000
0100
1000
0010
,
1000
0001
0100
0001
,
0010
0100
0010
0100
,
1000
0001
0100
0010
,
1000
0100
0001
0010
,
0001
0100
1000
0010
,
0000
0000
0100
0000
0000
0001
0000
0000
,
0101
0000
0000
0011
0000
0000
1001
0000
,
0000
0000
0100
0000
0000
1000
0000
0000
,
1100
0000
0000
1001
0000
0000
1010
0000
,
0000
0000
0100
0000
0000
0001
0000
0000
,
1100
0000
0000
0101
0000
0000
0110
0000
,
0000
0000
1000
0000
0000
0001
0000
0000
,
0110
0000
0000
1001
0000
0000
0110
0000
;

//---------------dance-single - Blank----------------
#NOTES:
     dance-single:
     Blank:
     Easy:
     5:
     0.382,0.615,0.077,0.881,0.000:
0000
0000
0000
0000
,
0000
0000
0000
0000
,
0000
0000
0000
0000
,
0000
0000
0000
0000
,
0000
0000
0000
0000
,
0000
0000
0000
0000
,
0000
0000
0000
0000
,
0000
0000
0000
0000
,
0000
0000
0200
0000
,
0000
0320
0000
0000
,
0032
0000
0000
0203
,
0000
0000
0310
1000
,
0000
0000
0002
0000
,
0000
0203
0000
0000
,
0320
0000
0000
2030
,
0000
0000
3100
0010
,
0000
0000
0002
0000
,
0000
0023
0000
0000
,
0032
0000
0000
0203
,
0000
0000
0300
0000
,
0000
0020
0000
0000
,
2030
0000
0000
3200
,
0000
0000
2300
0000
,
0000
3000
0000
0000
,
0000
0000
0020
0000
,
0000
0230
0000
0000
,
0302
0000
0000
0203
,
0000
0000
0300
0000
,
0000
2000
0000
0000
,
3200
0000
0000
0320
,
0000
0000
0230
0000
,
0000
0300
0000
0000
,
2000
0100
3000
0200
,
0010
0300
0020
0001
,
0030
0002
0100
0003
,
0010
0000
0100
0000
,
0002
0010
0003
0020
,
0100
0030
2000
0100
,
3000
0200
0010
0300
,
0001
0000
1000
0000
,
0200
0010
0300
0020
,
0100
0030
2000
0001
,
3000
0002
1000
0003
,
1000
0000
0010
0000
,
0200
0001
0300
0200
,
0010
0300
0200
1000
,
0300
0200
0001
0300
,
0100
0000
0001
0000
,
2002
0000
0000
0000
,
0000
0000
0000
0000
,
0000
0000
0000
0000
,
0000
0000
0000
3003
,
0002
0000
0000
0000
,
0100
0000
0013
0000
,
2000
0000
0000
0000
,
0100
0000
3010
0000
,
0002
0000
0203
0000
,
2300
0000
3200
0000
,
0302
0000
0023
0000
,
2030
0000
3200
0000
,
0302
0000
0000
0000
,
0000
0000
0000
0000
,
0020
0000
0000
0000
,
0000
0000
0000
0033
,
2000
0000
0000
0000
,
0000
0000
0000
3000
,
0020
0000
0000
0000
,
0000
0000
0000
0030
,
0200
0000
0000
0000
,
0000
0000
0000
0300
,
2000
0000
0000
0000
,
0000
0000
0000
3000
,
0010
0000
0100
0000
,
0001
0000
0000
0000
,
0020
0000
0000
0000
,
0000
0000
0000
0030
,
0200
0000
0000
0000
,
0000
0000
0000
0300
,
0002
0000
0000
0000
,
0000
0000
0000
0003
,
0000
2000
0000
0000
,
0000
0000
0000
0000
,
3000
0020
0000
0000
,
0000
0000
0000
0000
,
0030
0200
0000
0000
,
0000
0000
0000
0000
,
0300
0002
0000
0000
,
0000
0000
0000
0003
,
1000
0000
0010
0000
,
0100
0000
1000
0000
,
0010
0000
0100
0000
,
2000
0000
3001
0000
,
0000
0002
0000
0000
,
0203
0000
0000
0320
,
0000
0000
0032
0000
,
0000
0000
0003
0000
,
0001
0000
0100
0000
,
0010
0000
0001
0000
,
0100
0000
0010
0000
,
0002
0000
0103
0000
,
0000
0020
0000
0000
,
2030
0000
0000
3200
,
0000
0000
0320
0000
,
0000
0030
0000
0000
,
0002
0100
0000
0000
,
0010
0000
0000
1000
,
0000
0000
0100
0000
,
0010
0000
0013
0000
,
2000
0100
0000
0000
,
0010
0000
0000
0001
,
0000
0000
0100
0000
,
0010
0000
3010
0000
,
0200
0010
0000
0000
,
0001
0000
0000
0001
,
0000
0000
0010
0000
,
1000
0000
1300
0000
,
0020
0100
0000
0000
,
1000
0000
0000
0100
,
0000
0000
1000
0000
,
0001
0000
0031
0000
,
0200
0000
0000
0000
,
0010
0000
0301
0000
,
0002
0000
0000
0000
,
0100
0000
1003
0000
,
2000
0000
0000
0000
,
0100
0000
3010
0000
,
0200
0000
0000
0000
,
0010
0000
1300
0000
,
0020
0000
0100
0000
,
1000
0000
1000
0000
,
0100
0000
1000
0000
,
0001
0000
0031
0000
,
0002
0000
0023
0000
,
2030
0000
3002
0000
,
0203
0000
0000
0000
,
0000
0000
0310
0000
,
0201
0000
0000
0000
,
0010
0000
0310
0000
,
1020
0000
0000
0000
,
0100
0000
0130
0000
,
2001
0000
0000
0000
,
0100
0000
3100
0000
,
0021
0000
0000
0000
,
0100
0000
0130
0000
,
0000
0000
2000
0000
,
0000
3002
0000
0000
,
0000
0000
0100
0000
,
0000
0100
0000
0000
,
0000
0000
0010
0000
,
0000
0010
0000
0000
,
0000
0000
1000
0000
,
0000
1003
0000
0000
,
0000
2002
0000
0000
,
0000
0000
0000
3003
,
0000
0202
0000
0000
,
0000
0000
0303
0000
,
0000
2020
0000
0000
,
0000
0000
3030
0000
,
0000
2200
0000
0000
,
0000
0000
0000
3300
;

//---------------dance-single - ----------------
#NOTES:
     dance-single:
     :
     Challenge:
     10:
     0.876,1.000,0.351,0.248,0.068: // measure 1
0000
0000
0000
0000
,  // measure 2
0000
0000
0000
0000
,  // measure 3
0000
0000
0000
0000
,  // measure 4
0000
0000
0000
0000
,  // measure 5
0000
0000
0000
0000
,  // measure 6
0000
0000
0000
0000
,  // measure 7
0000
0000
0000
0000
,  // measure 8
0000
0000
0000
0000
,  // measure 9
0000
0100
0100
1000
,  // measure 10
0001
0001
0010
0100
,  // measure 11
0100
0010
0001
0001
,  // measure 12
1000
0100
0010
1001
,  // measure 13
0000
0100
0100
0001
,  // measure 14
0010
0010
0100
1000
,  // measure 15
1000
0010
0100
0100
,  // measure 16
0001
1000
0110
0000
,  // measure 17
0100
1000
0100
0000
0010
0000
0100
0010
,  // measure 18
0100
0000
0010
0000
0001
0100
0001
0000
,  // measure 19
0100
0000
0001
0100
0001
0000
1000
0000
,  // measure 20
0100
1000
0100
0010
0100
0000
0000
0000
,  // measure 21
1000
0100
1000
0000
0100
0000
0010
0100
,  // measure 22
0010
0000
0001
0000
0100
0001
0100
0000
,  // measure 23
0001
0000
0010
0100
0010
0000
0100
0000
,  // measure 24
0001
0100
0010
0100
0001
0000
0000
0000
,  // measure 25
0100
0010
0100
0000
0010
0000
1000
0100
,  // measure 26
1000
0000
0100
0000
0010
0001
0010
0000
,  // measure 27
0001
0000
0100
0010
0100
0000
0010
0000
,  // measure 28
1000
0010
0100
0010
1000
0000
0000
0000
,  // measure 29
0100
0010
0100
0000
0010
0000
0001
1000
,  // measure 30
0001
0000
1000
0000
0010
0100
0010
0000
,  // measure 31
0100
0000
0001
0010
0001
0000
0100
0000
,  // measure 32
0001
0010
0100
0010
0001
0000
0000
0000
,  // measure 33
1000
0200
0000
0310
,  // measure 34
0002
0000
0103
0020
,  // measure 35
0000
1030
0200
0000
,  // measure 36
0301
0100
1000
0010
,  // measure 37
0100
0002
0003
1000
,  // measure 38
0020
0000
1030
0200
,  // measure 39
0000
0310
0002
0000
,  // measure 40
0013
1000
0010
0001
,  // measure 41
0100
0020
0000
1030
,  // measure 42
0200
0000
1300
0002
,  // measure 43
0000
0103
0020
0000
,  // measure 44
0130
0001
0100
1000
,  // measure 45
0010
0200
0000
0310
,  // measure 46
0002
0000
0013
2000
,  // measure 47
0000
3100
0020
0000
,  // measure 48
1030
0010
0001
0100
,  // measure 49
1000
0010
1000
0010
1000
0010
1000
0010
,  // measure 50
0100
0010
0100
0010
0100
0010
0100
0010
,  // measure 51
0100
0001
0100
0001
0100
0001
0100
0001
,  // measure 52
1000
0001
1000
0001
1000
0001
1000
0001
,  // measure 53
2000
0000
0000
0000
0000
0000
3100
1000
,  // measure 54
0001
0200
0000
0300
,  // measure 55
0002
0000
0000
0000
0000
0000
1003
0001
,  // measure 56
1000
0000
0100
0000
0010
0001
0010
0001
,  // measure 57
0020
0000
0000
0000
0030
0000
0100
1000
,  // measure 58
0002
0000
0000
0000
0000
0000
0103
0010
,  // measure 59
2000
0000
0000
0000
0000
0000
3001
1000
,  // measure 60
0020
0000
0000
0030
,  // measure 61
0100
0000
0001
0000
1000
0000
0010
0000
0100
0000
0001
0000
,  // measure 62
0010
0000
0100
0000
1000
0000
0001
0000
0100
0000
0010
0000
,  // measure 63
2000
0000
0000
0000
,  // measure 64
0000
0000
0000
3000
,  // measure 65
0001
0100
0010
0100
0001
0100
0010
0100
,  // measure 66
0001
0100
0010
0100
0001
0000
0000
0000
,  // measure 67
1000
0001
1000
0100
1000
0001
1000
0100
,  // measure 68
1000
0001
1000
0100
1000
0000
0000
0000
,  // measure 69
0100
0010
0100
0001
0100
0010
0100
0001
,  // measure 70
0100
0010
0100
0001
0100
0000
0000
0000
,  // measure 71
1000
0010
0100
0001
1000
0010
0100
0001
,  // measure 72
1000
0010
0100
0001
0010
0000
0000
0000
,  // measure 73
0100
1000
0001
1000
0200
0000
1300
0001
,  // measure 74
0100
0001
1000
0000
0001
0000
0100
0000
,  // measure 75
0010
1000
0010
0100
0010
1000
0010
0100
,  // measure 76
0010
1000
0010
0100
0010
1000
0010
0100
,  // measure 77
0001
0010
0100
0010
0001
0010
0100
0010
,  // measure 78
0001
0010
0100
0010
0001
0010
0100
1000
,  // measure 79
0100
1000
0100
1000
0100
1000
0100
1000
,  // measure 80
0100
1000
0200
0000
0000
0000
0300
0000
,  // measure 81
0000
0000
0001
0000
0000
1001
0000
0000
,  // measure 82
1010
0000
0000
1100
0000
0000
1001
0000
,  // measure 83
0000
0000
1000
0000
0000
1001
0000
0000
,  // measure 84
1100
0000
0000
1010
0000
0000
1001
0000
,  // measure 85
0000
0000
0001
0000
0000
0100
0000
0000
,  // measure 86
0110
0000
0000
1010
0000
0000
0011
0000
,  // measure 87
0000
0000
1000
0000
0000
0101
0000
0000
,  // measure 88
1010
0000
0000
0011
0000
0000
1000
0000
,  // measure 89
0001
0001
0100
0000
,  // measure 90
0010
1000
0000
0100
,  // measure 91
0001
0000
0010
0100
,  // measure 92
0000
1000
0001
1000
,  // measure 93
0000
0010
0000
0000
,  // measure 94
0100
0000
0000
0001
,  // measure 95
0000
0000
0010
0000
,  // measure 96
0000
0000
0000
0000
,  // measure 97
0000
0100
1000
0000
,  // measure 98
0010
0100
0000
0001
,  // measure 99
0010
0000
0100
1000
,  // measure 100
0000
0001
0010
0001
,  // measure 101
0000
1000
0000
0000
,  // measure 102
0100
0000
0000
0010
,  // measure 103
0000
0000
0100
0000
,  // measure 104
0000
0000
0000
0000
,  // measure 105
0001
0011
0000
0100
,  // measure 106
0110
0000
0010
1010
,  // measure 107
0000
1000
1001
0000
,  // measure 108
1000
0100
0001
0100
,  // measure 109
1000
1100
0000
0100
,  // measure 110
0110
0000
0010
0011
,  // measure 111
0000
0001
1001
0000
,  // measure 112
0001
0100
1000
0100
,  // measure 113
0001
0101
0000
0100
,  // measure 114
1010
0000
1000
0101
,  // measure 115
0000
0100
1001
0000
,  // measure 116
1000
0100
0010
0001
,  // measure 117
0010
1100
0000
0010
,  // measure 118
0101
0000
0100
1001
,  // measure 119
0000
0001
0110
0000
,  // measure 120
1000
0010
0100
0001
,  // measure 121
1000
0100
1000
0100
1000
0100
1000
0100
,  // measure 122
1000
0001
1000
0001
1000
0001
1000
0001
,  // measure 123
0010
0001
0010
0001
0010
0001
0010
0001
,  // measure 124
0100
0010
0100
0010
0100
0010
0100
0010
,  // measure 125
0200
0000
0000
0000
,  // measure 126
0010
0000
0310
0000
,  // measure 127
0002
0000
0000
0000
,  // measure 128
0100
0000
0103
0000
,  // measure 129
0101
0000
0000
0000
,  // measure 130
1100
0000
0000
0000
,  // measure 131
0110
0000
0000
0000
,  // measure 132
0011
0000
0000
0000
,  // measure 133
1000
0000
0100
0000
0010
0000
0100
0000
1000
0000
0001
0000
,  // measure 134
0100
0000
0010
0000
0100
0000
0001
0000
1000
0000
0010
0000
,  // measure 135
0200
0000
0000
0000
,  // measure 136
0000
0000
0310
0000
,  // measure 137
0001
0010
0100
1000
0001
0010
0100
1000
,  // measure 138
0001
0010
0100
1000
0001
0010
0100
1000
,  // measure 139
0001
1000
0001
1000
0001
0100
0001
0100
,  // measure 140
0001
1000
0001
1000
0001
0100
0001
0100
,  // measure 141
0010
1000
0010
0100
0001
0100
0010
1000
,  // measure 142
0010
0100
0001
0100
0010
1000
0010
0100
,  // measure 143
0001
0010
0001
0010
0001
1000
0001
1000
,  // measure 144
0001
0010
0001
0010
0001
1000
0001
1000
,  // measure 145
0100
0010
0100
1000
0100
0000
0010
0001
,  // measure 146
0010
0001
0010
0000
0100
1000
0100
0010
,  // measure 147
0001
0010
0100
1000
0100
0010
0001
0010
,  // measure 148
0100
1000
0100
0010
0001
0010
0100
1000
,  // measure 149
0100
1000
0100
1000
0001
1000
0001
1000
,  // measure 150
0100
1000
0100
1000
0001
1000
0001
1000
,  // measure 151
0010
0100
0001
1000
0010
0100
0001
1000
,  // measure 152
0010
0100
0001
0000
1000
0000
0010
0000
,  // measure 153
0000
0000
0100
0000
0000
0001
0000
0000
,  // measure 154
0010
0000
0000
1000
0000
0000
0100
0000
,  // measure 155
0000
0000
0011
0000
0000
1010
0000
0000
,  // measure 156
1100
0000
0000
0101
0000
0000
0011
0000
,  // measure 157
0000
0000
0001
0000
0000
0100
0000
0000
,  // measure 158
1000
0000
0000
0010
0000
0000
0001
0000
,  // measure 159
1000
0010
0100
0001
0010
0100
1000
0010
,  // measure 160
0100
0001
0010
0100
1000
0010
0100
0001
,  // measure 161
0010
0000
0000
0000
;

//---------------dance-single - ----------------
#NOTES:
     dance-single:
     :
     Hard:
     9:
     0.748,1.000,0.120,0.265,0.068:
0000
0000
0000
0000
,
0000
0000
0000
0000
,
0000
0000
0000
0000
,
0000
0000
0000
0000
,
0000
0000
0000
0000
,
0000
0000
0000
0000
,
0000
0000
0000
0000
,
0000
0000
0000
0000
,
0100
1000
0001
0000
,
0100
0001
1000
0000
,
0010
1000
0001
0000
,
0010
0001
0100
0100
,
0010
1000
0100
0000
,
0010
0001
0100
0000
,
0010
1000
0100
0000
,
0100
1000
0010
0010
,
0100
0001
0010
0001
,
0100
0010
0100
0001
,
0010
1000
0010
0001
,
0001
0001
1000
0000
,
0010
1000
0100
0010
,
0100
1000
0010
0100
,
0001
0010
0001
0100
,
0001
1000
1000
0000
,
0100
0010
1000
0010
,
0100
1000
0100
0001
,
0010
0100
1000
0010
,
0010
0010
1000
0000
,
0001
0010
0100
0001
,
0100
1000
0100
0010
,
1000
0010
0001
0010
,
0100
1000
1000
0000
,
0100
0010
0000
0001
,
0100
0000
1000
0100
,
0000
0001
1000
0000
,
1010
0000
1100
0000
,
1000
0100
0000
0010
,
0100
0000
1000
0001
,
0000
0010
0100
0000
,
1100
0000
0101
0000
,
0001
0010
0000
0100
,
0010
0000
1000
0010
,
0000
0001
0100
0000
,
0001
0010
0100
1000
,
0010
0100
0000
0001
,
1000
0000
0100
0001
,
0000
0100
1000
0000
,
0010
0100
0001
1000
,
0100
0000
0010
0000
0001
1000
0000
1000
,
0001
0100
0010
0000
,
1000
0000
0010
0000
0100
0001
0000
0001
,
0100
0010
0001
0000
,
0010
0000
1000
0000
0100
0010
0000
0010
,
0001
0100
0001
0000
,
0100
0000
1000
0000
0100
0001
0000
1000
,
0100
0010
0100
0000
,
2000
0000
0000
0000
0000
0000
3100
0010
,
0200
0000
0000
0000
0000
0000
0310
0001
,
0020
0000
0000
0000
0000
0000
0031
1000
,
0002
0000
0000
0003
,
1000
0000
0001
0000
1000
0000
0100
0000
0010
0000
0100
0000
,
0010
0000
0001
0000
0010
0000
0001
0000
1000
0000
0001
0000
,
2000
0000
0000
0000
,
0000
0000
0000
3000
,
0001
0000
1000
0000
0001
0010
0000
0001
,
0010
0000
0001
0000
1000
0001
0000
1000
,
0100
0000
0010
0000
0001
1000
0000
0001
,
0100
0010
1000
0000
,
0100
0000
0010
0000
0100
1000
0000
0100
,
1000
0000
0001
0000
0100
0010
0000
0100
,
0010
0000
1000
0000
0001
1000
0000
0001
,
0100
0010
1000
0000
,
0100
0000
0010
0000
0001
0100
0000
0100
,
0010
2000
0000
3000
,
0100
0000
1000
0000
0001
0100
0000
0001
,
1000
0100
0010
0000
,
0001
0000
0100
0000
0010
0100
0000
1000
,
0100
0000
0010
0000
0001
1000
0000
0100
,
1000
0000
0100
0000
1000
0010
0000
0100
,
0001
0010
0100
1000
,
0000
0000
0010
0000
0000
0100
0000
0000
,
0001
0000
0000
0010
0000
0000
0011
0000
,
0000
0000
0010
0000
0000
0100
0000
0000
,
1000
0000
0000
0010
0000
0000
0110
0000
,
0000
0000
0001
0000
0000
1000
0000
0000
,
0100
0000
0000
0010
0000
0000
0110
0000
,
0000
0000
0100
0000
0000
0010
0000
0000
,
1000
0000
0000
0010
0000
0000
0011
0000
,
0001
0100
0010
0100
,
0001
1000
0100
0010
,
0100
1000
0001
0010
,
0100
0010
0001
0000
0100
0000
0000
0000
,
0010
1000
0100
0010
,
0100
1000
0010
0100
,
0010
1000
0100
0010
,
0001
0100
0010
0000
1000
0000
0000
0000
,
0001
0100
1000
0100
,
0010
0100
1000
0100
,
0001
0010
0100
0010
,
0100
1000
0001
0000
0100
0000
0000
0000
,
0010
1000
0100
0001
,
0100
0010
0100
0001
,
0100
1000
0010
0100
,
0001
0010
0100
0000
1000
0000
0000
0000
,
0001
0002
0000
0013
,
0020
0000
0130
0200
,
0000
0301
0002
0000
,
0103
1000
0010
0100
,
0010
0020
0000
0031
,
0002
0000
0013
0020
,
0000
1030
2000
0000
,
3100
1000
0010
0100
,
0001
0002
0000
0103
,
0200
0000
0310
0020
,
0000
0130
0200
0000
,
0301
0010
1000
0001
,
0100
0200
0000
1300
,
2000
0000
3010
0020
,
0000
0130
0200
0000
,
0301
0010
1000
0010
,
0001
0100
0001
0100
,
0001
0100
0001
0100
,
1000
0010
1000
0010
,
1000
0010
1000
0010
,
0002
0000
0000
0000
0000
0000
0103
0001
,
1000
0200
0000
0000
,
0320
0000
0000
0000
0000
0000
0130
1000
,
0001
0010
0100
0010
,
0200
0000
0000
0000
0000
0000
0310
0001
,
0200
0000
0000
0000
0300
0000
1000
0100
,
0002
0000
0000
0000
0000
0000
0013
0100
,
2000
0000
0000
3000
,
0100
0000
0010
0000
0100
0000
0010
0000
0001
0000
0010
0000
,
0001
0000
1000
0000
0001
0000
1000
0000
0010
0000
1000
0000
,
0020
0000
0000
0000
,
0000
0000
0000
0030
,
0100
0001
0100
0001
0100
0001
0100
0001
,
0100
0001
0100
0001
0100
0000
0000
0000
,
0010
1000
0010
1000
0010
1000
0010
1000
,
0010
1000
0010
1000
0010
0000
0000
0000
,
1000
0100
1000
0100
1000
0100
1000
0100
,
1000
0100
1000
0100
1000
0000
0000
0000
,
0001
0010
0001
0010
0001
0010
0001
0010
,
0001
0010
0001
0010
0001
0000
0000
0000
,
1000
0000
0100
0010
0100
0000
0000
0000
,
0010
0100
0010
0000
0000
0000
0010
0000
,
0001
1000
0001
1000
0001
1000
0001
1000
,
0001
1000
0001
1000
0001
1000
0001
1000
,
0010
1000
0010
1000
0010
1000
0010
1000
,
0010
1000
0010
1000
0010
1000
0010
1000
,
0010
0100
0010
0100
0010
0100
0010
0100
,
0020
0000
0000
0030
,
0000
0000
0100
0000
0000
0001
0000
0000
,
1000
0000
0000
1100
0000
0000
0101
0000
,
0000
0000
0100
0000
0000
1000
0000
0000
,
0001
0000
0000
0011
0000
0000
0101
0000
,
0000
0000
0100
0000
0000
1000
0000
0000
,
0010
0000
0000
1010
0000
0000
1100
0000
,
0000
0000
0001
0010
0001
0010
0001
1000
,
0001
1000
0001
0100
0001
0100
0001
0000
;
