#TITLE:Saneshi Tatakai no Shi;
#SUBTITLE:;
#ARTIST:Kanako Itou;
#TITLETRANSLIT:;
#SUBTITLETRANSLIT:;
#ARTISTTRANSLIT:;
#CREDIT:;
#BANNER:;
#BACKGROUND:ƒAƒTƒg800.png;
#LYRICSPATH:;
#CDTITLE:;
#MUSIC:Saneshi Tatakai no Shi.mp3;
#OFFSET:0.160;
#SAMPLESTART:83.740;
#SAMPLELENGTH:12.000;
#SELECTABLE:YES;
#DISPLAYBPM:150.000;
#BPMS:0.000=120.000;
#STOPS:;
#BGCHANGES:;

//---------------dance-single - ----------------
#NOTES:
     dance-single:
     :
     Hard:
     8:
     0.394,0.550,0.134,0.274,0.187:
0000
0000
0000
0000
,
0000
0000
0000
0000
,
0000
0000
0000
0000
,
0000
0000
0000
0000
,
0000
0000
0000
0000
,
0000
0000
0000
0000
,
0000
0000
0000
0000
,
0000
0000
0000
0000
,
0000
0000
0000
0000
,
0000
0000
0000
0000
,
0000
0000
0000
0000
,
0000
0000
0000
0000
,
0000
0000
2001
0001
,
0000
3001
0201
0001
,
0000
0301
1020
1000
,
0000
1030
0120
0100
,
0000
0130
0001
1000
,
0100
0100
0010
0000
0001
0100
2000
0000
,
0200
3300
0010
0100
,
0010
1000
0100
0000
1000
0010
0002
0000
,
0020
0033
0100
1001
,
1000
0001
0100
0000
0001
0100
0020
0000
,
2000
3030
0001
0011
,
0001
0100
1000
0000
1000
0100
0001
0001
,
0101
0000
0000
0000
0100
0000
0001
1000
0001
0000
1000
0000
0010
0100
0001
0100
,
0000
0001
0010
0001
0010
0000
0100
1000
0100
0000
1000
0000
0001
0000
0100
0010
,
0000
0100
0010
0000
1000
0000
0010
1000
0010
0000
1000
0000
0001
0010
0100
1000
,
0000
1000
0001
1000
0001
0000
0100
0010
0100
0000
0010
0000
1000
0000
0100
0010
,
0000
0010
0001
0000
1000
0000
0000
0000
0002
0000
0000
0000
0203
0000
0000
0000
,
0320
0000
1030
0100
0001
0100
1000
0000
,
0010
1000
0100
0010
0002
0000
0203
0000
,
2300
3200
0302
1003
,
0101
0000
0100
0000
0001
0100
1000
0100
,
0010
0000
1000
0100
0010
0001
2000
0000
,
3020
0032
0203
2300
,
3000
0001
1100
0010
,
1000
0010
0100
0001
0101
0000
0001
1000
,
0100
1000
0002
0000
0023
0000
2030
0000
,
3200
0302
0103
0101
,
1000
0000
1000
0010
0100
0001
0100
0000
,
0010
1000
0001
1000
0200
0000
0320
0000
,
0032
2003
3020
0030
,
0110
0000
0100
0000
0100
0001
1000
0000
,
1000
0000
0100
0000
1000
0000
0010
0100
0000
0100
0001
0000
0100
0000
0000
0000
,
0001
0000
1100
0000
0100
0010
0001
0000
,
0001
0000
0100
0000
1000
0000
0100
0010
0000
0010
1000
0000
0001
0000
0000
0000
,
0001
0000
0110
0000
1000
0010
0100
0000
,
0001
0000
0010
0000
0100
0000
0010
0001
0000
0001
1000
0000
0001
0000
0000
0000
,
1000
0000
0101
0000
0001
0010
0100
0000
,
0001
0000
1000
0000
0010
0000
0001
0010
0000
0010
0100
0000
0001
0000
0000
0000
,
0200
0010
0001
0010
,
0301
0000
0000
0000
0010
0000
0001
1000
0000
0001
1000
0000
0001
0000
0000
0000
,
1000
0000
0000
0000
0100
0000
1000
0010
0000
1000
0010
0000
0100
0000
0000
0000
,
0001
0000
0000
0000
0100
0000
0001
0100
0000
0001
0100
0000
0010
0000
0000
0000
,
1000
0000
0000
0000
0010
0000
0100
0010
0000
0010
0100
0000
0001
0000
0000
0000
,
0010
0000
0000
0000
0100
0000
1000
0010
0000
0010
1000
0000
0100
0000
0000
0000
,
0100
0000
0010
0000
0001
0000
0100
0001
0000
0010
0001
0000
1000
0000
0001
0000
,
0100
0000
0010
0000
1000
0000
0010
1000
0000
0100
1000
0000
0001
1000
0001
1000
,
0100
0000
0110
0000
1000
0100
0001
0000
,
0100
0010
0001
0000
0201
0000
0301
0000
,
0100
0000
0110
0000
0001
0100
1000
0000
,
0100
0010
1000
0001
1000
0000
0100
0000
,
0020
0100
0000
0130
,
2000
0001
0000
3001
,
0200
0010
0000
0310
,
0002
0000
0000
0000
1000
0000
0000
0000
0000
0000
0000
0000
1003
0000
0001
0100
,
0001
0000
0100
0000
0010
1000
0010
1000
0000
0001
0100
0001
0100
0000
0001
1000
,
0001
0000
0100
0000
0001
0000
0001
0100
0000
0001
0100
0000
0010
0000
1000
0001
,
1000
0000
0001
0000
1000
0100
0010
0001
0000
0100
0010
0100
0010
0000
0100
0001
,
0100
0000
0001
0000
0100
0000
0010
1000
0000
1000
0010
0000
0110
0000
0000
0000
,
2002
0000
0000
0000
,
0000
0000
3003
0000
;

//---------------dance-solo - ----------------
#NOTES:
     dance-solo:
     :
     Beginner:
     3:
     0.168,0.208,0.027,0.000,0.000:
000000
000000
000000
000000
,
000000
000000
000000
000000
,
000000
000000
000000
000000
,
000000
000000
000000
000000
,
001000
000000
001000
000000
,
000010
000000
010000
000000
,
001000
000000
001000
000000
,
010000
000000
000010
000000
,
010000
000010
010000
000010
,
010000
000010
010000
000010
,
001000
000010
001000
000010
,
010010
010010
001000
000010
,
010000
000010
010000
000010
,
010000
000010
010000
000010
,
010000
001000
001000
001000
,
010010
010010
001000
000010
,
010000
000000
001000
000000
,
001000
000000
010000
000000
,
000010
010000
000010
010000
,
001000
001000
001000
001000
,
010000
000000
000010
000000
,
001000
001000
001000
001000
,
000010
000000
010000
000000
,
001000
001000
001000
001000
,
001000
000000
001000
000000
,
010000
000010
010000
000010
,
001000
000000
001000
000000
,
000010
010000
000010
010000
,
001000
001000
010000
001000
,
010000
000010
010000
000010
,
001000
001000
000010
010000
,
000010
001000
000010
010000
,
001000
010000
000010
001000
,
001000
000010
001000
000010
,
001000
000010
010000
000010
,
001000
001000
000010
000010
,
010000
000000
001000
000000
,
010000
000000
000010
000000
,
001000
000000
000010
000000
,
010000
000000
000010
000000
,
010000
000010
001000
000010
,
010000
001000
010000
000010
,
010000
000010
010000
000010
,
001000
000010
010000
000010
,
001000
000000
001000
000000
,
000010
001000
000010
000010
,
010000
000000
001000
000000
,
010000
001000
010000
010000
,
000010
000000
010000
000000
,
000010
010000
000010
010000
,
001000
000000
001000
000000
,
010000
000010
010000
000010
,
001000
000010
010000
001000
,
001000
010000
000010
001000
,
001000
001000
000010
010000
,
001000
000000
001000
000000
,
001000
000000
001000
000000
;

//---------------dance-single - ----------------
#NOTES:
     dance-single:
     :
     Medium:
     6:
     0.317,0.426,0.421,0.308,0.000:
0000
0000
0000
0000
,
0000
0000
0000
0000
,
0000
0000
0000
0000
,
0000
0000
0000
0000
,
0000
0000
0000
0000
,
0000
0000
0000
0000
,
0000
0000
0000
0000
,
0000
0000
0000
0000
,
0000
0000
0000
0000
,
0000
0000
0000
0000
,
0000
0000
0000
0000
,
0000
0000
0000
0000
,
0000
0000
2000
0001
,
3000
0001
0101
0000
0210
0000
0010
0000
,
0300
0010
0110
0000
2010
0000
0010
0000
,
3000
0010
1010
0000
0201
0000
0001
0000
,
0300
0001
0101
0000
0001
0000
1000
0000
,
0100
0010
0101
1100
,
2002
3003
0010
1000
,
0001
0100
0011
1001
,
0202
0303
0001
0100
,
1000
0100
1010
1100
,
0022
0033
1000
0010
,
0001
0010
1010
0101
,
0210
0020
0300
2000
,
0000
0000
0000
3030
,
0000
0000
0000
0000
2100
0100
3001
0000
,
0100
0010
0100
0000
0201
0001
0310
0000
,
0100
0100
0110
0000
1000
0000
0001
0000
,
0010
0100
0010
0001
,
1000
0100
2000
3020
,
0230
0302
2003
3001
,
0010
0100
0010
0001
,
0100
0010
1000
0020
,
0230
0302
0023
0230
,
0300
1000
1010
1001
,
0001
0011
1001
1000
,
0001
0002
0203
0320
,
2030
3001
0010
0110
,
0001
0101
1100
1001
,
1000
0010
0200
0302
,
0023
2030
3200
0300
,
2001
0001
3001
0000
0100
0000
0110
0000
,
0021
0001
0031
0000
0100
0000
1100
0000
,
2010
0010
3010
0000
1000
0000
1001
0000
,
0210
0010
0310
0000
0100
0000
1100
0000
,
0001
0000
0010
0000
0001
0010
0001
0000
,
1001
0110
2200
3300
,
1000
0000
0010
0000
0100
0100
0100
0000
,
0011
1100
2001
0001
,
0002
0000
3003
0000
,
1000
0000
1001
0000
0000
0010
1010
0000
,
0100
0000
0110
0000
0000
0100
0101
0000
,
0001
0000
0011
0000
0000
0001
1001
0000
,
1000
0000
1100
0000
0000
0010
0110
0000
,
0100
0000
0101
0000
0000
1000
1001
0000
,
1000
0000
1100
0000
0000
0010
1010
0000
,
0001
1000
0001
0000
0100
0010
1000
0000
,
0001
0011
0001
0100
,
1000
0010
0200
0300
,
0010
1000
0100
0001
,
0010
0100
0010
2001
,
0000
3000
0000
0001
,
0000
0100
0000
0100
,
0000
0010
0000
0010
,
0000
1000
0000
1000
,
1000
0100
1000
0000
0010
0100
0010
0000
,
0011
0000
1100
0000
0001
0001
1001
0000
,
0001
0010
0001
0000
0100
1000
0100
0000
,
1000
0000
0010
0000
0100
0100
0101
0000
,
2002
0000
0000
3003
;

//---------------dance-single - ----------------
#NOTES:
     dance-single:
     :
     Easy:
     4:
     0.236,0.328,0.207,0.154,0.000:
0000
0000
0000
0000
,
0000
0000
0000
0000
,
0000
0000
0000
0000
,
0000
0000
0000
0000
,
0000
0000
0000
0000
,
0000
0000
0000
0000
,
0000
0000
0000
0000
,
0000
0000
0000
0000
,
0000
0000
0000
0000
,
0000
0000
0000
0000
,
0000
0000
0000
0000
,
0000
0000
0000
0000
,
0000
0000
0010
0000
,
0000
0010
1000
0000
,
0000
1000
0000
0001
,
0000
0001
0000
0010
,
0000
0010
0001
0010
,
0100
1000
0001
0200
,
0020
0330
1000
0010
,
0100
0001
0010
0200
,
2000
3300
1000
0010
,
1000
0010
0100
0002
,
0020
0033
0001
0100
,
1000
0100
0001
0010
,
0100
0010
2010
0010
,
0000
0010
0000
3010
,
0010
0110
0102
0100
,
0000
0100
0000
0103
,
0010
1010
0001
0001
,
0010
0001
1000
1001
,
1000
0010
0100
0000
,
0010
0000
1001
0001
,
0010
0100
1000
0010
,
0100
0010
1000
0100
,
0001
0100
1000
1010
,
0000
1000
0001
0001
,
1000
0020
0130
1000
,
0100
0010
0010
0001
,
0101
1010
0010
0100
,
0010
2000
3002
0023
,
0130
1000
0200
2300
,
3020
0000
0230
0000
0002
0000
0000
0303
,
0001
0100
1000
0100
,
0010
0002
2000
3003
,
0010
0100
0010
1000
,
0001
0020
0200
0330
,
1010
0001
1000
0100
,
1000
0020
0200
0330
,
0001
0010
0001
0100
,
0010
1000
0100
1000
,
0010
0011
0000
1100
,
1000
1010
0000
0101
,
0001
0110
0000
1010
,
1000
1100
0000
1001
,
0001
0110
0000
1001
,
1000
1100
0000
0101
,
0001
0011
0000
0101
,
1000
1010
0010
0110
,
1000
0100
1000
0001
,
0010
0001
1001
0000
,
1000
0100
0001
0100
,
1000
0010
0110
0001
,
0000
0100
0000
0100
,
0000
0010
0000
0010
,
0000
1000
0000
1000
,
0000
0001
0000
0001
,
1001
1000
0010
1000
,
0010
0100
0001
0011
,
0001
0100
0010
1000
,
0100
0010
0001
1000
,
1001
0000
0000
0000
;

//---------------dance-double - Copied from----------------
#NOTES:
     dance-double:
     Copied from:
     Hard:
     8:
     0.419,0.550,0.207,0.395,0.161: // measure 1
00000000
00000000
00000000
00000000
,  // measure 2
00000000
00000000
00000000
00000000
,  // measure 3
00000000
00000000
00000000
00000000
,  // measure 4
00000000
00000000
00000000
00000000
,  // measure 5
00000000
00000000
00000000
00000000
,  // measure 6
00000000
00000000
00000000
00000000
,  // measure 7
00000000
00000000
00000000
00000000
,  // measure 8
00000000
00000000
00000000
00000000
,  // measure 9
00000000
00000000
00000000
00000000
,  // measure 10
00000000
00000000
00000000
00000000
,  // measure 11
00000000
00000000
00000000
00000000
,  // measure 12
00000000
00000000
00000000
00000000
,  // measure 13
00000000
00000000
20010000
00100000
,  // measure 14
00000000
30010000
00210000
00010000
,  // measure 15
00000000
00301000
00021000
00001000
,  // measure 16
00000000
00030100
00002100
00000100
,  // measure 17
00000000
00003010
00000110
00000001
,  // measure 18
00001000
00000001
00000100
00000000
00000001
00000010
00001000
00000000
,  // measure 19
00022000
00033000
00010000
00001000
,  // measure 20
00010000
01000000
10000000
00000000
10000000
01000000
00100000
00000000
,  // measure 21
00220000
00330000
01000000
10010000
,  // measure 22
10000000
00010000
01000000
00000000
00100000
10000000
01000000
00000000
,  // measure 23
00220000
00330000
00010000
00110000
,  // measure 24
00010000
01000000
00001000
00000000
00010000
00001000
00000100
00000010
,  // measure 25
00001000
00000000
00000000
00000000
00000001
00000000
00001000
00000010
00001000
00000000
00000010
00000000
00001000
00000001
00001000
00000001
,  // measure 26
00000000
00000010
00000100
00001000
00000001
00000000
00000001
00000010
00000001
00000000
00000100
00000000
00001000
00000000
00010000
00001000
,  // measure 27
00000000
00010000
00001000
00000000
00100000
00000000
00100000
01000000
00100000
00000000
00010000
00000000
00010000
01000000
00100000
10000000
,  // measure 28
00000000
00010000
10000000
00010000
10000000
00000000
00100000
10000000
00100000
00000000
10000000
00000000
01000000
00000000
00010000
00001000
,  // measure 29
00000000
00010000
00001000
00000000
00010000
00000000
00000000
00000000
00000200
00000000
00000000
00000000
00000320
00000000
00000000
00000000
,  // measure 30
00000032
00000000
00001003
00000001
00000100
00001000
00020000
00000000
,  // measure 31
00031000
00010000
01000000
10000000
00200000
00000000
20300000
00000000
,  // measure 32
32000000
03020000
00032000
00023000
,  // measure 33
00032000
00000000
00003020
00000000
00000031
00000010
00000100
00001000
,  // measure 34
00000001
00000000
00000001
00001000
00000010
00000100
00000002
00000000
,  // measure 35
00000023
00002030
00023000
02030000
,  // measure 36
03000000
20000000
30020000
00130000
,  // measure 37
00100000
01000000
10000000
00010000
01010000
00000000
00010000
10000000
,  // measure 38
01000000
10000000
00200000
00000000
20300000
00000000
30200000
00000000
,  // measure 39
00320000
00032000
00023000
02030000
,  // measure 40
03200000
00000000
00310000
00100000
01000000
10000000
00010000
00000000
,  // measure 41
00100000
01000000
10000000
00010000
02000000
00000000
03200000
00000000
,  // measure 42
20300000
32000000
03020000
00030000
,  // measure 43
00011000
00000000
00001100
00000000
00000010
00000100
00000110
00000000
,  // measure 44
00000001
00000010
00000100
00000000
00002002
00000000
00003003
00000000
,  // measure 45
00000011
00000000
00001100
00000000
00010000
00001000
00010000
00000000
,  // measure 46
00010000
01000000
10000000
00000000
20020000
00000000
30030000
00000000
,  // measure 47
11000000
00000000
10010000
00000000
10000000
00100000
01000000
00000000
,  // measure 48
10000000
00010000
01000000
00000000
00022000
00000000
00033000
00000000
,  // measure 49
00011000
00000000
00001100
00000000
00000100
00000010
00000001
00000000
,  // measure 50
00000001
00000100
00000010
00001000
00000200
00000000
00000320
00000000
,  // measure 51
00000031
00000000
00000100
00000000
00001000
00000000
00010000
00001000
00000000
00010000
00001000
00000000
00010000
00000000
01000000
00000000
,  // measure 52
10000000
00000000
00100000
00000000
01000000
00000000
00010000
10000000
00000000
00010000
10000000
00000000
00010000
00000000
01000000
00000000
,  // measure 53
00100000
00000000
10000000
00000000
01000000
00000000
00010000
00001000
00000000
00010000
00001000
00000000
00010000
00000000
00001000
00000000
,  // measure 54
00000100
00000000
00000010
00000000
00001000
00000000
00000010
00000100
00000000
00000010
00000100
00000000
00000010
00000000
00001000
00000000
,  // measure 55
00000001
00000000
00000010
00000000
00001000
00000000
00010000
00001000
00000000
00001000
01000000
00000000
00010000
00000000
10000000
00000000
,  // measure 56
00100000
00000000
01000000
00000000
00010000
00000000
00100000
00010000
00000000
00010000
10000000
00000000
01000000
00000000
00010000
00000000
,  // measure 57
00001000
00000000
00010000
00000000
00000010
00000000
00000100
00000010
00000000
00000100
00000001
00000000
00001000
00000000
00000010
00000000
,  // measure 58
00000100
00000000
00000001
00000000
00001000
00000000
00000100
00001000
00000000
00000100
00000010
00000000
00000002
00000000
00000000
00000000
,  // measure 59
00001003
00000000
00001100
00000000
00001000
01000000
00100000
00000000
,  // measure 60
01000000
00100000
00020000
00000000
02000000
00000000
03030000
00000000
,  // measure 61
01000000
00000000
01100000
00000000
10000000
00100000
01000000
00000000
,  // measure 62
00010000
00100000
01000000
10000000
00010000
00000000
01000000
00000000
,  // measure 63
01200000
01000000
00000000
01300000
,  // measure 64
00210000
00010000
00000000
00301000
,  // measure 65
00021000
00001000
00000000
00030100
,  // measure 66
00001200
00000000
00000000
00000000
00001000
00000000
00000000
00000000
00000000
00000000
00000000
00000000
00001300
00000000
00000001
00000100
,  // measure 67
00000001
00000000
00000100
00000000
00000001
00000010
00000100
00001000
00000000
00000100
00001000
00000100
00001000
00000000
00000001
00000100
,  // measure 68
00001000
00000000
00010000
00000000
00001000
00000000
00010000
01000000
00000000
00010000
01000000
00000000
10000000
00000000
10000000
00010000
,  // measure 69
10000000
00000000
00010000
00000000
10000000
00100000
01000000
00010000
00000000
01000000
00010000
01000000
00010000
00000000
01000000
00010000
,  // measure 70
01000000
00000000
00010000
00000000
01000000
00000000
00100000
10000000
00000000
10000000
00100000
00000000
01100000
00000000
00000000
00000000
,  // measure 71
20020000
00000000
00000000
00000000
,  // measure 72
00000000
00000000
30030000
00000000
;
