#TITLE:Nitro Mantra;
#SUBTITLE:;
#ARTIST:sampling masters AYA;
#TITLETRANSLIT:;
#SUBTITLETRANSLIT:;
#ARTISTTRANSLIT:;
#CREDIT:;
#BANNER:;
#BACKGROUND:;
#LYRICSPATH:;
#CDTITLE:;
#MUSIC:Nitro Mantra.mp3;
#OFFSET:-6.030;
#SAMPLESTART:66.030;
#SAMPLELENGTH:12.000;
#SELECTABLE:YES;
#BPMS:0.000=160.000;
#STOPS:;
#BGCHANGES:;

//---------------dance-single - ----------------
#NOTES:
     dance-single:
     :
     Hard:
     9:
     0.556,0.600,0.214,0.127,0.250: // measure 1
1000
0001
1000
0010
0100
0000
0010
0000
,  // measure 2
1000
0001
0010
0001
0000
0010
0001
0000
,  // measure 3
1000
0010
1000
0001
0100
0000
0001
0000
,  // measure 4
1000
0100
0010
0001
0000
0001
0010
0000
,  // measure 5
0001
0100
0010
0100
0000
0010
1000
0001
,  // measure 6
1000
0100
0010
0001
0000
0001
1000
0000
,  // measure 7
0001
1000
0010
0100
0000
0100
0001
1000
,  // measure 8
0010
1000
0100
0010
0000
0100
0010
0000
,  // measure 9
0100
1000
0100
1000
0001
0100
0010
0100
,  // measure 10
0001
1000
0100
0010
0000
0100
0010
0000
,  // measure 11
0010
0001
0100
0001
1000
0010
0100
0001
,  // measure 12
1000
0100
0010
0100
0000
0010
0001
0001
,  // measure 13
1000
0010
1000
0001
0010
0001
1000
0100
,  // measure 14
0010
0001
0100
0010
1000
0010
0100
0100
,  // measure 15
0010
1000
0100
0010
0001
0100
0001
1000
,  // measure 16
0010
1000
0100
1000
0010
0100
0010
1000
,  // measure 17
1002
0000
0000
0000
,  // measure 18
2003
0000
0000
0000
,  // measure 19
3200
0000
0000
0000
,  // measure 20
0320
0000
0000
0000
,  // measure 21
0032
0000
0100
0000
0100
0000
1000
0100
,  // measure 22
2003
0000
0010
0000
0001
0000
0010
0001
,  // measure 23
3020
0000
0100
0000
1000
0000
0100
1000
,  // measure 24
0230
0000
0010
0000
0001
0000
0010
0001
,  // measure 25
0310
0000
0000
1000
0010
0000
1000
0000
0001
0000
1000
0000
0100
0000
0010
0000
,  // measure 26
0001
0000
0000
0100
0001
0000
0100
0000
0010
0000
0100
0000
0010
0000
1000
0000
,  // measure 27
0001
0000
0000
1000
0001
0000
1000
0000
0001
0000
0100
0000
0010
0000
1000
0000
,  // measure 28
0100
0000
0000
0010
0001
0000
1000
0000
0001
0000
0100
0000
0010
0000
1000
0000
,  // measure 29
0001
0000
0000
1000
0001
0000
1000
0000
0100
0010
0000
0010
0100
0000
0010
0000
,  // measure 30
0001
0000
0000
0001
1000
0000
0010
0000
0100
0001
0000
0001
0100
0000
0001
0000
,  // measure 31
1000
0000
0000
0100
1000
0000
0001
0000
0010
0001
0000
0001
1000
0000
0001
0000
,  // measure 32
0101
1010
2002
3003
,  // measure 33
1000
0000
0100
1000
0000
1000
0100
0000
0010
0000
0001
0000
1000
0000
0001
0100
,  // measure 34
0001
0000
1000
0000
0010
1000
0010
0000
0100
0000
0001
0000
1001
0000
0000
0000
,  // measure 35
0001
0000
1000
0001
0000
0001
1000
0000
0001
0000
1000
0000
0100
0000
0010
0001
,  // measure 36
0010
0000
0001
0000
0100
0001
0100
0000
0010
0000
1000
0000
1001
0000
0000
0000
,  // measure 37
0001
0000
0100
0001
0000
0001
0100
0000
0010
1000
0010
0000
0100
0001
0100
0000
,  // measure 38
0001
0000
1000
0001
1000
0000
0001
0000
1000
0000
0100
0000
0010
0000
0100
0000
,  // measure 39
1000
0000
0100
1000
0000
1000
0100
0000
0010
0000
0001
0000
1000
0100
1000
0000
,  // measure 40
0001
0000
0100
0001
0100
0001
0100
0000
0001
0000
1000
0000
1001
0000
0000
0000
,  // measure 41
1000
0100
1000
0100
1000
0000
0001
0000
0010
0000
0001
0000
0011
0000
0000
0000
,  // measure 42
0001
0100
0001
0100
0001
0000
1000
0000
0010
0000
0100
0000
0110
0000
0000
0000
,  // measure 43
0001
1000
0001
0000
0100
0010
0100
0000
0010
0000
1000
0000
0100
0000
0010
0000
,  // measure 44
0001
0010
0100
1000
0001
1000
1001
0000
,  // measure 45
0001
1000
0001
1000
0001
1000
0001
0000
0100
0000
0010
0000
0100
0000
0000
0000
,  // measure 46
0010
0100
0010
0100
0010
0100
0010
0000
1000
0000
0001
0000
1000
0000
0000
0000
,  // measure 47
0001
0010
0001
0000
1000
0001
1000
0000
0001
0000
0100
0000
0001
0000
1000
0000
,  // measure 48
1010
0101
1001
0110
,  // measure 49
2002
0000
0000
0000
,  // measure 50
0000
0000
0000
0000
,  // measure 51
0000
0000
0000
0000
,  // measure 52
0000
0000
3003
0000
,  // measure 53
1001
1001
1001
0000
0110
0000
0000
0010
,  // measure 54
0000
1000
0001
1000
0001
0000
0000
0000
,  // measure 55
0001
0001
0001
0000
1001
0000
0000
0110
,  // measure 56
0000
0010
0100
0001
0000
1000
0001
0000
,  // measure 57
2001
0000
0000
0000
,  // measure 58
3020
0000
0000
0000
,  // measure 59
0230
0000
0000
0000
,  // measure 60
0302
0000
0000
0000
,  // measure 61
1003
0000
0000
0100
0000
0000
1000
0000
0000
0001
0000
0000
0010
0000
0001
0000
,  // measure 62
1000
0000
0000
0010
0000
0000
1000
0000
0000
0001
0000
0000
0100
0000
0001
0000
,  // measure 63
1000
0000
0000
0001
0000
0000
1000
0000
0000
0001
0000
0000
0100
0000
0010
0000
,  // measure 64
0110
1010
0101
1001
,  // measure 65
1000
0000
0000
0100
0000
0000
0010
0000
0000
0001
0000
0010
0001
0000
0100
0000
,  // measure 66
0010
0000
0000
1000
0000
0000
0001
0000
0000
0100
0000
0001
0100
0000
0001
0000
,  // measure 67
1000
0000
0000
0010
0000
0000
0100
0000
0000
0010
0000
1000
0001
0000
1000
0000
,  // measure 68
0100
0000
0000
0010
0000
0000
0001
0000
0000
0010
0000
0100
0010
0000
0001
0000
,  // measure 69
1000
0010
0100
0001
1000
0100
0010
0001
,  // measure 70
1000
0100
1000
0100
0010
0001
0010
0001
,  // measure 71
1000
0010
0001
0010
1000
0100
0001
0100
,  // measure 72
1000
0010
0100
0001
1000
0100
0010
0001
,  // measure 73
1001
0000
0000
0000
;

//---------------dance-single - ----------------
#NOTES:
     dance-single:
     :
     Medium:
     6:
     0.382,0.428,0.167,0.087,0.075: // measure 1
1000
0000
0000
0001
0000
0000
1000
0000
,  // measure 2
0010
0000
0100
0001
0000
0001
0100
0000
,  // measure 3
0010
0000
0000
1000
0000
0000
0100
0000
,  // measure 4
0010
0000
0001
0010
0000
0010
0001
1000
,  // measure 5
0001
0000
0000
1000
0000
0000
0010
0000
,  // measure 6
0100
0000
0001
1000
0000
1000
0001
0000
,  // measure 7
1000
0000
0000
0100
0000
0000
0010
0000
,  // measure 8
0100
0000
0010
0001
0000
0001
1000
0000
,  // measure 9
0001
1000
0000
0000
1001
0000
0001
0000
,  // measure 10
0100
0000
0001
1000
0000
1000
0001
0000
,  // measure 11
0100
0010
0000
0000
0110
0000
0010
0000
,  // measure 12
1000
0000
0100
0010
0000
0100
0010
0100
,  // measure 13
1000
0001
0000
0000
1001
0000
1000
0000
,  // measure 14
0001
0000
0100
0001
0000
0001
1000
0000
,  // measure 15
0001
0010
0000
0000
1100
0000
0010
0000
,  // measure 16
0001
0000
1000
0001
0000
0001
1000
0001
,  // measure 17
0200
0000
0000
0000
,  // measure 18
0320
0000
0000
0000
,  // measure 19
2030
0000
0000
0000
,  // measure 20
3002
0000
0000
0000
,  // measure 21
1003
0100
0010
0001
,  // measure 22
1000
0000
0010
0100
0010
0000
1000
0000
,  // measure 23
0100
0010
0001
1000
,  // measure 24
0011
1100
1010
0101
,  // measure 25
1001
0000
0000
0000
0001
0000
0000
0000
1000
0000
0000
0001
0000
0000
1000
0000
,  // measure 26
0100
0000
0000
0000
0010
0000
0000
0000
0001
0000
0000
0010
0000
0000
0001
0000
,  // measure 27
1000
0000
0000
0000
0001
0000
0000
0000
1000
0000
0000
0010
0000
0000
1000
0000
,  // measure 28
0001
0000
0000
0000
1000
0000
0000
0000
0010
0000
0000
0100
0000
0000
0010
0000
,  // measure 29
0100
0000
0000
0000
0001
0000
0000
0000
1000
0000
0000
0001
0000
0000
1000
0000
,  // measure 30
0100
0000
0000
0000
0010
0000
0000
0000
0001
0000
0000
1000
0000
0000
0001
0000
,  // measure 31
0100
0000
0000
0000
0010
0000
0000
0000
0100
0000
0000
0001
0000
0000
1000
0000
,  // measure 32
0200
0001
1000
0310
,  // measure 33
0010
0000
0000
0100
0000
0000
1000
0000
0001
0000
1000
0000
0001
0000
0000
0000
,  // measure 34
0100
0001
0100
0000
0010
1000
0010
0000
,  // measure 35
1000
0000
0000
0001
0000
0000
1000
0000
0010
0000
0100
0000
0001
0000
0000
0000
,  // measure 36
1000
0100
0010
0000
0010
0100
1000
0000
,  // measure 37
0001
0000
0000
0100
0000
0000
0010
0000
0100
0000
0001
0000
1000
0000
0000
0000
,  // measure 38
0001
1000
0001
0000
0100
0001
0100
0000
,  // measure 39
0001
0000
0000
1000
0000
0000
0100
0000
0010
0000
0100
0000
1000
0000
0000
0000
,  // measure 40
0010
0100
0001
0000
0010
0100
1000
0000
,  // measure 41
1001
0000
0110
0000
0010
1000
0001
0000
,  // measure 42
1000
0100
1000
0001
0100
0000
0001
0000
,  // measure 43
1000
0010
1000
0000
0001
0010
0001
0000
,  // measure 44
1010
0000
0101
0000
0001
1000
0001
0000
,  // measure 45
0011
0000
1001
0000
1000
0001
0100
0000
,  // measure 46
0001
0000
0100
0000
0010
1000
0010
0000
,  // measure 47
1000
0100
1000
0000
0001
0010
0001
0000
,  // measure 48
1000
0010
0100
0001
1000
0000
0110
0000
,  // measure 49
2002
0000
0000
0000
,  // measure 50
0000
0000
0000
0000
,  // measure 51
0000
0000
0000
0000
,  // measure 52
0000
0000
3003
0000
,  // measure 53
0001
1000
0001
0000
1000
0000
0000
0010
,  // measure 54
0000
0010
0010
0000
0000
0000
0000
0000
,  // measure 55
0100
0001
0100
0000
0001
0000
0000
1001
,  // measure 56
0000
1000
0001
0100
0000
0100
0010
0000
,  // measure 57
1002
0000
0000
0000
,  // measure 58
2003
0000
0000
0000
,  // measure 59
3200
0000
0000
0000
,  // measure 60
0320
0000
0000
0030
,  // measure 61
1001
0000
0000
0001
0000
0000
0100
0000
,  // measure 62
0010
0000
0000
0100
0000
0000
0001
0000
,  // measure 63
1000
0000
0000
0100
0000
0000
0010
0000
,  // measure 64
0100
0010
0001
1000
,  // measure 65
0001
0000
0000
1000
0000
0000
0001
0000
0000
1000
0000
0000
0001
0000
0000
0000
,  // measure 66
0100
0000
0000
0010
0000
0000
0100
0000
0000
0010
0000
0000
0100
0000
0000
0000
,  // measure 67
0010
0000
0000
1000
0000
0000
0001
0000
0000
0100
0000
0000
0001
0000
1000
0000
,  // measure 68
0001
0000
0000
1000
0000
0000
0100
0000
0000
0010
0000
0000
0001
0000
0000
0000
,  // measure 69
1000
0010
1000
0000
0001
0010
0001
0000
,  // measure 70
1000
0100
1000
0000
0001
0100
0001
0000
,  // measure 71
1000
0010
0100
0000
0001
1000
0100
0000
,  // measure 72
1000
0001
0100
0000
0001
0100
0001
1000
,  // measure 73
1001
0000
0000
0000
;

//---------------dance-single - ----------------
#NOTES:
     dance-single:
     :
     Beginner:
     1:
     0.125,0.171,0.103,0.000,0.000:
1000
0000
0001
0000
,
1000
0000
0000
0000
,
0001
0000
1000
0000
,
0001
0000
0000
0000
,
0100
0000
0010
0000
,
1000
0000
0000
0000
,
0001
0000
1000
0000
,
0100
0000
0000
0000
,
0110
0000
0000
0000
,
0010
0000
0001
0000
,
1000
0000
0000
0000
,
0001
0000
1000
0000
,
0010
0000
0000
0000
,
0100
0000
0010
0000
,
0100
0000
0000
0000
,
0010
0000
1000
0000
,
1001
0000
0000
0000
,
0000
0000
0000
0000
,
0000
0000
0000
0000
,
0000
0000
0000
0000
,
1000
0000
0000
0000
,
0100
0000
0000
0000
,
0010
0000
0000
0000
,
0001
0000
1000
0000
,
1001
0000
0001
0000
,
0100
0000
0000
0000
,
0001
0000
1000
0000
,
0001
0000
1000
0000
,
0010
0000
0100
0000
,
0010
0000
0000
0000
,
0100
0000
0001
0000
,
0100
0000
0000
0000
,
1000
0000
1000
0000
,
0001
0000
0100
0000
,
0001
0000
0001
0000
,
1000
0000
0100
0000
,
0010
0000
0001
0000
,
0100
0000
0010
0000
,
1000
0000
0001
0000
,
0100
0000
0010
0000
,
0110
0000
0000
0000
,
1001
0000
0000
0000
,
1000
0000
0010
0000
,
0100
0000
0001
0000
,
1001
0000
0000
0000
,
0110
0000
0000
0000
,
0010
0000
1000
0000
,
0001
0000
1000
0000
,
1001
0000
0000
0000
,
0000
0000
0000
0000
,
0000
0000
0000
0000
,
0000
0000
0000
0000
,
1000
0000
1001
0000
,
0000
0000
0000
0000
,
0010
0000
0110
0000
,
0000
0000
0000
0000
,
1001
0000
0000
0000
,
0000
0000
0000
0000
,
0000
0000
0000
0000
,
0000
0000
0000
0000
,
1000
0000
0000
0000
,
0001
0000
0000
0000
,
0100
0000
0000
0000
,
0010
0000
0000
0000
,
0110
0000
0100
0000
,
0001
0000
1000
0000
,
0100
0000
0010
0000
,
0001
0000
0000
0000
,
1000
0000
0010
0000
,
1000
0000
0001
0000
,
0010
0000
0001
0000
,
0100
0000
0010
0000
,
0110
0000
0000
0000
;

//---------------dance-single - ----------------
#NOTES:
     dance-single:
     :
     Easy:
     4:
     0.250,0.286,0.095,0.063,0.000: // measure 1
1000
0001
0100
0001
,  // measure 2
1000
0100
0010
0000
,  // measure 3
0100
0010
0100
0010
,  // measure 4
0001
1000
0001
0000
,  // measure 5
1000
0010
1000
0000
,  // measure 6
0001
0100
0001
0000
,  // measure 7
1000
0100
1000
0000
,  // measure 8
0001
0010
0001
0000
,  // measure 9
1000
0100
0010
0001
,  // measure 10
1000
0010
0100
0000
,  // measure 11
0001
0100
0010
1000
,  // measure 12
0100
0010
0001
0000
,  // measure 13
1000
0001
1000
0000
,  // measure 14
0001
0100
0001
0000
,  // measure 15
1000
0010
1000
0000
,  // measure 16
0001
0100
0001
0000
,  // measure 17
2002
0000
0000
0000
,  // measure 18
0000
0000
0000
0000
,  // measure 19
0000
0000
0000
0000
,  // measure 20
0000
0000
3003
0000
,  // measure 21
1001
0000
0001
1000
,  // measure 22
0001
0000
1000
0001
,  // measure 23
1000
0000
0001
0100
,  // measure 24
0001
0000
1000
0010
,  // measure 25
1000
0100
0010
0001
,  // measure 26
0100
0001
1000
0000
,  // measure 27
0010
1000
0001
0010
,  // measure 28
0001
0100
0010
0000
,  // measure 29
0010
0100
0001
1000
,  // measure 30
0100
1000
0100
0000
,  // measure 31
0010
0001
0100
0010
,  // measure 32
0100
0001
1000
0001
,  // measure 33
1001
0000
1000
0001
,  // measure 34
1000
0010
0100
0001
,  // measure 35
0100
0000
0001
1000
,  // measure 36
0001
1000
0100
0010
,  // measure 37
0001
0000
0010
0001
,  // measure 38
0100
0010
0100
0010
,  // measure 39
1000
0000
0100
1000
,  // measure 40
0100
0010
0001
0100
,  // measure 41
0110
0000
0010
1000
,  // measure 42
1001
0000
0001
0100
,  // measure 43
0001
0001
1000
1000
,  // measure 44
0010
0100
0001
0010
,  // measure 45
0110
0000
0010
0001
,  // measure 46
1001
0000
1000
0010
,  // measure 47
0100
0100
0001
0001
,  // measure 48
1000
0010
0100
0001
,  // measure 49
2002
0000
0000
0000
,  // measure 50
0000
0000
0000
0000
,  // measure 51
0000
0000
0000
0000
,  // measure 52
0000
0000
3003
0000
,  // measure 53
1000
0001
2002
0000
,  // measure 54
0000
0000
3003
0000
,  // measure 55
0100
0010
0220
0000
,  // measure 56
0000
0000
0330
0000
,  // measure 57
1001
0000
0000
0000
,  // measure 58
0000
0000
0000
0000
,  // measure 59
0000
0000
0000
0000
,  // measure 60
0000
0000
0000
0000
,  // measure 61
1000
0000
0001
0000
,  // measure 62
0100
0000
0001
0000
,  // measure 63
1000
0000
0100
0000
,  // measure 64
0010
0001
1000
0100
,  // measure 65
0010
0010
0100
0100
,  // measure 66
0010
0001
0100
0010
,  // measure 67
1000
1000
0001
0001
,  // measure 68
0100
0001
1000
0010
,  // measure 69
0100
0100
0010
0010
,  // measure 70
1000
1000
0100
0100
,  // measure 71
0010
0001
1000
0100
,  // measure 72
0010
0001
1000
0010
,  // measure 73
0110
0000
0000
0000
;
