#TITLE:Linda's Castle;
#SUBTITLE:;
#ARTIST:Snowboard Kids 2;
#TITLETRANSLIT:;
#SUBTITLETRANSLIT:;
#ARTISTTRANSLIT:;
#CREDIT:;
#BANNER:;
#BACKGROUND:;
#LYRICSPATH:;
#CDTITLE:;
#MUSIC:Linda's Castle.mp3;
#OFFSET:-0.360;
#SAMPLESTART:68.213;
#SAMPLELENGTH:12.000;
#SELECTABLE:YES;
#BPMS:0.000=144.040;
#STOPS:;
#BGCHANGES:;

//---------------dance-single - ----------------
#NOTES:
     dance-single:
     :
     Challenge:
     11:
     0.785,0.992,0.140,0.371,0.887:
0000
0000
0000
0000
,
0000
0000
0000
0000
0000
0000
0000
0000
1000
0000
0000
0100
0000
0000
0010
0000
,
0000
0001
0000
0000
0010
0000
0100
0000
1000
0000
0000
0010
0000
0000
0100
0000
,
0000
0001
0000
0000
0100
0000
0010
0000
1000
0000
0000
0100
0000
0000
0010
0000
,
0000
0001
0000
0000
0010
0000
0100
0000
1000
0000
0000
0010
0000
0000
1000
0000
,
0000
0010
0000
0000
0100
0000
0001
0000
0100
0000
0000
0001
0000
0000
0100
0000
,
0000
0010
0000
0000
1000
0000
0100
0000
0010
0000
0000
0001
0000
0000
0010
0000
,
0000
0000
0100
0000
1000
0000
0001
0000
1000
0100
0010
0000
0001
0010
0100
0000
,
1000
0010
0100
0000
0001
0100
0010
0000
1000
0100
0010
0000
0001
0010
0100
0000
,
1000
0001
1000
0000
0100
0010
0100
0000
0010
0001
0010
0000
0100
0010
0100
0000
,
1000
0010
0100
0000
0001
0100
0010
0000
1000
0000
0100
0000
0010
0000
0001
0010
,
0100
1000
0001
1000
0100
0010
0001
0010
0100
1000
0010
0100
0001
0100
0010
1000
,
0100
0010
0001
0010
0100
1000
0100
1000
0010
1000
0010
1000
0001
1000
0001
1000
,
0010
1000
0010
1000
0100
1000
0100
0010
0001
0010
0001
0100
0001
0100
0001
1000
,
0001
1000
0001
0100
0001
0100
0001
0010
0001
0010
0100
1000
0100
0010
0001
0100
,
0010
1000
0010
0100
0001
0010
0100
1000
0100
0010
0001
0100
0001
0100
0010
1000
,
0010
1000
0010
0100
0001
0100
0001
0010
0100
1000
0100
0010
0001
0100
0010
1000
,
0010
0100
0001
0010
0100
1000
0100
0010
0001
1000
0001
0010
0100
1000
0100
0010
,
0001
0100
0001
1000
0010
0100
0001
0010
0001
1000
0100
1000
0010
0100
0000
0100
,
0001
0100
0010
1000
0100
0010
0001
0010
0100
1000
0010
1000
0001
0100
0001
0010
,
0001
0100
0001
1000
0001
1000
0010
1000
0100
0010
0001
0100
0010
1000
0100
0010
,
0001
0010
0100
1000
0010
0100
0001
0010
0100
1000
0100
0010
0001
0100
0001
1000
,
0010
0100
0001
0100
0010
1000
0100
0010
0001
0010
0100
1000
0010
1000
0010
0100
,
0001
0100
0010
1000
0010
1000
0100
0010
0210
0000
0000
0000
0000
0000
0000
0000
,
2300
0000
0000
0010
0000
0000
0010
0000
3020
0000
0000
0000
0130
0000
0000
0001
,
0000
0100
0000
0010
1000
0000
0100
0010
0002
0000
0000
0000
0000
0000
0000
0000
,
0023
0000
0000
0100
M00M
0000
0100
0000
M23M
0000
0000
0000
M0M0
0000
0000
0000
,
13MM
0000
0000
0000
0000
0000
0100
0010
0002
0000
0000
0000
0100
0000
0000
0103
,
0010
1000
0000
0010
0000
0000
0100
0000
0001
0000
0000
0000
0101
0000
0000
0110
,
0000
1010
0000
0000
1100
0000
0110
0000
0011
0000
0000
1001
0000
0000
1010
0000
,
0101
0000
0000
0000
0100
0000
0001
0000
0010
0000
0000
0100
0000
0000
1000
0000
,
0100
0000
0000
0000
0010
0001
0100
0001
0200
0000
0000
0000
0010
0000
0000
0010
,
0000
0000
0010
0000
0310
0000
1000
0000
0010
0000
0000
0000
0100
0000
0000
0001
,
0000
0100
0002
0023
0230
0000
0000
0000
,
2300
0000
0000
3020
0000
0000
0230
0000
0302
0000
0000
0010
0000
0010
0000
0013
,
0100
1000
0100
0000
0020
0000
0000
0000
,
0032
0000
0000
0103
0000
0000
1000
0000
0200
0000
0000
0000
0000
0000
0000
0000
,
0000
0000
0000
0000
0301
0000
0010
0000
1000
0000
0000
0010
0000
0000
0001
0000
,
0200
0000
0000
0000
0310
0000
1000
0000
0010
0000
0000
0100
0000
0000
0001
0000
,
0010
0000
0000
0000
0100
0010
0100
1000
0100
0000
0000
0000
0010
0000
0000
0001
,
0000
0100
0010
0000
1000
0000
0010
0000
0100
0000
0000
0000
0001
0000
0000
0010
,
0000
0100
1000
0000
0100
0000
0010
0000
0001
0000
0000
0000
1000
0000
0000
0000
,
0001
0000
0000
0000
0010
0000
0000
0000
0100
0010
0100
1000
0100
0010
0001
0100
,
0010
1000
0010
0100
0001
0010
0100
0010
0200
0000
0000
0000
2300
0000
0000
0000
,
3020
0000
0000
0100
0000
1000
0000
0130
,
0001
0000
0000
0000
1010
1000
0010
0000
,
0200
0320
2030
3000
0100
0010
0001
0100
,
0001
0100
0010
0000
1000
0000
0010
0000
1000
0000
0000
0000
0010
0000
0000
0000
,
0100
0000
0000
0001
0000
0000
0010
0000
0100
0000
0000
1000
0000
0000
0100
0000
,
0010
0001
0100
0000
0010
0000
1000
0000
0010
0000
0000
0100
0000
0000
0001
0000
,
0010
0000
0000
0100
0000
0000
1000
0000
0100
0000
0010
0000
0001
1000
0000
0001
,
0000
0010
0000
0100
1000
0100
0010
0100
0020
0000
0000
0000
0032
0000
0000
0000
,
0203
0000
0000
0010
0000
0001
0000
0310
,
2000
0000
0000
3100
0010
0001
0010
0100
,
0000
1000
0010
0100
0000
0001
0100
0010
,
1000
0100
0010
0001
0020
0000
0230
0000
,
1300
0010
0100
0001
0100
0020
0000
1030
,
0200
0000
0320
0032
,
0013
0100
0000
1000
0000
1100
0110
0000
,
0000
0000
0000
0000
0100
0010
0001
1000
2002
0000
0000
0000
0000
0000
0000
0000
,
3003
0000
0000
0000
;

//---------------dance-single - Copied from----------------
#NOTES:
     dance-single:
     Copied from:
     Hard:
     9:
     0.644,0.722,0.130,0.371,0.436:
0000
0000
0000
0000
,
0000
0000
0000
0000
0000
0000
0000
0000
1000
0000
0000
0100
0000
0000
0010
0000
,
0000
0001
0000
0000
0010
0000
0100
0000
1000
0000
0000
0010
0000
0000
0100
0000
,
0000
0001
0000
0000
0100
0000
0010
0000
1000
0000
0000
0100
0000
0000
0010
0000
,
0000
0001
0000
0000
0010
0000
0100
0000
1000
0000
0000
0010
0000
0000
1000
0000
,
0000
0010
0000
0000
0100
0000
0001
0000
0100
0000
0000
0001
0000
0000
0100
0000
,
0000
0010
0000
0000
1000
0000
0100
0000
0010
0000
0000
0001
0000
0000
0010
0000
,
0000
0000
0100
0000
1000
0000
0001
0000
1000
0100
0010
0000
0001
0010
0100
0000
,
1000
0000
0010
0000
0100
0000
0001
0000
0100
0010
1000
0000
0100
0010
0001
0000
,
0010
0100
1000
0010
0001
0010
1000
0100
,
0001
0000
0100
0000
1000
0000
0010
0000
0100
0000
0001
0000
0010
0000
0100
1000
,
0100
1000
0010
1000
0010
1000
0001
1000
0001
1000
0010
0000
1000
0000
0100
0010
,
0001
0000
0100
0000
0010
0000
1000
0000
0010
0100
0001
0000
0010
0000
0100
1000
,
0100
0000
0010
0000
0001
0000
0100
0000
0010
1000
0010
0000
0100
0000
0001
0010
,
0100
0000
1000
0000
0010
0000
0100
0000
0001
0100
0010
0000
1000
0000
0100
0010
,
0001
0000
0100
0000
0010
0000
0100
0000
0001
0010
0100
0000
1000
0000
0010
0100
,
0010
0000
1000
0000
0100
0000
0010
0000
0001
0100
0010
0000
1000
0000
0010
0100
,
0001
0010
0100
1000
0100
0010
0001
0100
,
0010
0000
1000
0000
0010
0000
0100
0000
0001
0000
0010
0000
0100
1000
0000
0100
,
0010
0100
0010
0001
0010
0100
0010
0100
1000
0000
0010
0000
0100
0000
0000
0001
,
0000
0000
0100
0000
0010
0000
1000
0000
0000
0000
0000
0000
1010
0000
0000
0110
,
0000
0000
0100
0000
0001
0000
0010
0100
0000
0100
1000
0000
0010
0000
0100
0000
,
0001
0100
0010
1000
0100
0010
0001
0100
,
0001
1000
0100
0010
0210
0000
0000
0000
,
2300
0000
0000
0010
0000
0000
0010
0000
3020
0000
0000
0000
0130
0000
0000
0001
,
0000
0100
0000
0010
1000
0000
0100
0010
0002
0000
0000
0000
0000
0000
0000
0000
,
0023
0000
0000
0100
0000
0000
0100
0000
0230
0000
0000
0000
0000
0000
0000
0000
,
1300
0000
0000
0000
0000
0000
0100
0010
0002
0000
0000
0000
0100
0000
0000
0103
,
0010
1000
0000
0010
0000
0000
0100
0000
0001
0000
0000
0000
0101
0000
0000
0110
,
0000
1010
0000
0000
0010
0000
1000
0000
0100
0000
0000
0010
0000
0000
0001
0000
,
0011
0000
0000
0000
0110
0000
0010
0000
0100
0000
0000
1000
0000
0000
0100
0000
,
1100
0000
0000
0000
0010
0001
0100
0001
0200
0000
0000
0000
0010
0000
0000
0010
,
0000
0000
0010
0000
0310
0000
1000
0000
0010
0000
0000
0000
0100
0000
0000
0001
,
0000
0100
0002
0023
0230
0000
0000
0000
,
2300
0000
0000
3020
0000
0000
0230
0000
0302
0000
0000
0010
0000
0010
0000
0013
,
0100
1000
0100
0000
0020
0000
0000
0000
,
0032
0000
0000
0103
0000
0000
1000
0000
0200
0000
0000
0000
0000
0000
0000
0000
,
0000
0000
0000
0000
0301
0000
0010
0000
1000
0000
0000
0010
0000
0000
0001
0000
,
0200
0000
0000
0000
0310
0000
1000
0000
0010
0000
0000
0100
0000
0000
0001
0000
,
0010
0000
0000
0000
0100
0010
0100
1000
0100
0000
0000
0000
0010
0000
0000
0001
,
0000
0100
0010
0000
1000
0000
0010
0000
0100
0000
0000
0000
0001
0000
0000
0010
,
0000
0100
1000
0000
0100
0000
0010
0000
0001
0000
0000
0000
1000
0000
0000
0000
,
0001
0000
0000
0000
0010
0000
0000
0000
0100
1000
0100
0000
0010
0001
0100
0000
,
0010
1000
0001
0000
1000
0010
1000
0000
0200
0000
0000
0000
2300
0000
0000
0000
,
3020
0000
0000
0100
0000
1000
0000
0130
,
0001
0000
0000
0000
1010
1000
0010
0000
,
0200
0320
2030
3000
0100
0010
0001
0100
,
0001
0100
0010
0000
1000
0000
0010
0000
1000
0000
0000
0000
0010
0000
0000
0000
,
0100
0000
0000
0001
0000
0000
0010
0000
0100
0000
0000
1000
0000
0000
0100
0000
,
0010
0001
0100
0000
0010
0000
1000
0000
0010
0000
0000
0100
0000
0000
0001
0000
,
0010
0000
0000
0100
0000
0000
1000
0000
0100
0000
0010
0000
0001
1000
0000
0001
,
0000
0010
0000
0100
1000
0000
0100
0000
0020
0000
0000
0000
0032
0000
0000
0000
,
0203
0000
0000
0010
0000
0001
0000
0310
,
2000
0000
0000
3100
0010
0001
0010
0100
,
0000
1000
0010
0100
0000
0001
0100
0010
,
1000
0100
0010
0001
0020
0000
0230
0000
,
1300
0010
0100
0001
0100
0020
0000
1030
,
0200
0000
0320
0032
,
0013
0100
0000
1000
0000
1100
0011
0000
,
0000
0000
0001
1000
2002
0000
0000
0000
,
3003
0000
0000
0000
;

//---------------dance-single - ----------------
#NOTES:
     dance-single:
     :
     Medium:
     7:
     0.485,0.451,0.010,0.401,0.256:
0000
0000
0000
0000
,
0000
0000
0000
0000
0000
0000
0000
0000
1000
0000
0000
0100
0000
0000
1000
0000
,
0000
0100
0000
0000
1000
0000
0000
0000
0001
0000
0000
0010
0000
0000
0001
0000
,
0000
0010
0000
0000
0001
0000
0000
0000
1000
0000
0000
0100
0000
0000
1000
0000
,
0000
0100
0000
0000
1000
0000
0000
0000
0001
0000
0000
0010
0000
0000
0001
0000
,
0000
0100
0000
0000
0010
0000
0000
0000
0100
0000
0000
0001
0000
0000
0100
0000
,
0000
0010
0000
0000
1000
0000
0100
0000
0010
0000
0000
0001
0000
0000
0010
0000
,
0000
0000
0100
0000
1000
0000
0010
0000
0100
0000
0000
0001
0000
0000
0100
0000
,
0000
0010
0000
0000
1000
0000
0010
0000
0100
0000
0000
0100
0000
0000
0010
0000
,
0000
1000
0000
0000
0010
0000
0100
0000
0001
0000
0000
0100
0000
0000
0010
0000
,
0000
0100
0000
0000
0001
0000
1000
0000
0100
0000
1000
0000
0100
0000
0010
0000
,
0001
0000
0010
0000
0100
0000
1000
0000
0001
0000
0000
0100
0000
0000
0001
0000
,
0000
0100
0000
0000
0001
0000
0010
0000
0100
0000
0000
1000
0000
0000
0100
0000
,
0000
1000
0000
0000
0100
0000
0010
0000
0001
0000
0000
0100
0000
0000
0100
0000
,
0000
0010
0000
0000
0010
0000
1000
0000
0100
0000
0000
0100
0000
0000
0010
0000
,
0000
0010
0000
0000
0001
0000
0100
0000
0010
0000
0000
0010
0000
0000
0020
0000
,
0000
0000
0000
0000
0000
0000
0000
0000
1030
0000
0000
1000
0000
0000
2000
0000
,
0000
0000
0000
0000
0000
0000
0000
0000
0001
0000
0000
0010
0000
0000
3020
0000
,
0000
0000
0000
0000
0000
0000
0000
0000
0130
0000
0000
0001
0000
0000
1000
0000
,
0010
0000
0100
0000
0001
0000
0100
0000
0010
0000
1000
0000
0100
0000
0000
0010
,
0000
0000
0001
0000
0010
0000
0000
0000
0010
0000
0000
0100
0000
0000
2000
0000
,
0000
0000
0000
0000
0000
0000
0000
0000
3010
0000
0000
0100
0000
0000
0002
0000
,
0000
0000
0000
0000
1003
0100
0010
0001
,
0100
0001
1000
0010
0200
0000
0000
0000
,
0302
0000
0000
0103
0000
0000
0010
0000
2000
0000
0000
0000
3020
0000
0000
0000
,
0000
0000
0130
0001
0002
0000
0000
0000
,
0023
0000
0000
0100
0000
0000
0100
0000
0230
0000
0000
0000
0000
0000
0000
0000
,
1300
0000
0000
0000
0000
0000
1000
0000
0002
0000
0000
0000
0100
0000
0000
0003
,
0010
0000
0000
0010
0000
0000
0100
0000
1000
0000
0000
0000
0100
0000
0000
0010
,
0000
0010
0000
0000
0001
0000
1000
0000
0100
0000
0000
0010
0000
0000
0001
0000
,
0010
0000
0000
0000
0100
0000
0010
0000
0100
0000
0000
1000
0000
0000
0100
0000
,
1000
0000
0000
0000
0001
0000
1000
0000
0200
0000
0000
0000
0010
0000
0000
0010
,
0000
0000
0010
0000
0310
0000
0001
0000
0010
0000
0000
0000
0100
0000
0000
1000
,
0000
0010
0100
0001
0020
0000
0000
0000
,
0032
0000
0000
2003
0000
0000
3200
0000
0320
0000
0000
0000
0000
0000
0000
0000
,
0031
1000
0100
0000
0020
0000
0000
0000
,
0032
0000
0000
0103
0000
0000
0010
0000
0200
0000
0000
0000
0000
0000
0000
0000
,
0000
0000
0000
0000
0301
0000
0010
0000
0100
0000
0000
0010
0000
0000
0001
0000
,
0200
0000
0000
0000
0310
0000
1000
0000
0010
0000
0000
0100
0000
0000
0001
0000
,
0010
0000
0000
0000
0100
0000
0010
0000
0100
0000
0000
0000
0010
0000
0000
0001
,
0000
0000
0010
0000
0100
0000
1000
0000
0010
0000
0000
0000
0100
0000
0000
0100
,
0000
0001
0010
0100
1000
0000
0010
0000
,
0100
0000
0100
0000
0001
0100
0010
1000
,
0010
0100
0100
0001
0100
0000
0010
0000
,
2000
0000
0000
3100
0000
0010
0000
0001
,
0100
0000
0000
0000
0100
0010
1000
0000
,
0010
0100
0001
0000
0010
0100
1000
0100
,
0010
0001
0010
0100
1000
0000
0010
0000
,
0100
0000
0000
0001
0000
0000
0010
0000
0100
0000
0000
1000
0000
0000
0100
0000
,
0010
0000
0100
0000
0010
0000
0001
0000
0100
0000
0000
0100
0000
0000
0010
0000
,
1000
0000
0000
0010
0000
0000
0100
0000
0001
0000
0100
0000
0002
0000
0000
0000
,
0000
0000
1003
0100
0020
0000
0032
0000
,
0203
0000
0000
0320
0000
2030
0000
3010
,
2000
0000
0000
0000
3100
0010
0002
0000
,
0000
0013
0100
1000
0000
0010
0100
0001
,
0100
0010
2000
0000
3020
0000
0230
0000
,
0301
1000
0000
0010
0000
0100
0000
0001
,
2000
0000
3010
0100
,
0001
0010
0000
0100
0000
2000
0002
0000
,
0000
0000
0000
3003
2002
0000
0000
0000
,
3003
0000
0000
0000
;

//---------------dance-single - ----------------
#NOTES:
     dance-single:
     :
     Easy:
     4:
     0.285,0.328,0.010,0.331,0.030: // measure 1
0000
0000
0000
0000
,  // measure 2
0000
0000
0000
0000
0000
0000
0000
0000
1000
0000
0000
1000
0000
0000
1000
0000
,  // measure 3
0000
0000
0000
0000
0000
0000
0000
0000
0100
0000
0000
0100
0000
0000
0100
0000
,  // measure 4
0000
0000
0000
0000
0000
0000
0000
0000
0010
0000
0000
0010
0000
0000
0010
0000
,  // measure 5
0000
0000
0000
0000
0000
0000
0000
0000
0001
0000
0000
0001
0000
0000
0001
0000
,  // measure 6
0000
0000
0000
0000
0000
0000
0000
0000
0010
0000
0000
0010
0000
0000
0010
0000
,  // measure 7
0000
0000
0000
0000
0000
0000
0000
0000
0100
0000
0000
0100
0000
0000
0100
0000
,  // measure 8
0000
0000
1000
0100
,  // measure 9
0010
0001
0010
0100
,  // measure 10
1000
0010
0100
0001
,  // measure 11
0010
0100
2000
0000
,  // measure 12
0000
0000
3010
0100
,  // measure 13
0001
0010
0100
1000
,  // measure 14
0010
0100
0001
0010
,  // measure 15
0100
1000
0010
0100
,  // measure 16
0001
0010
0100
1000
,  // measure 17
0010
0100
0001
0010
,  // measure 18
0100
1000
0100
0010
,  // measure 19
0001
0001
0100
0010
,  // measure 20
1000
0100
0010
0001
,  // measure 21
0010
0100
1000
0010
,  // measure 22
0100
0001
0010
0100
,  // measure 23
1000
0001
0010
0100
,  // measure 24
1000
0001
0020
0000
,  // measure 25
0032
0000
0203
0000
,  // measure 26
0000
0320
2030
0000
,  // measure 27
3200
0000
0320
0000
,  // measure 28
0032
0000
0203
0000
,  // measure 29
0320
0000
2030
0000
,  // measure 30
0000
0100
3200
0000
,  // measure 31
0320
0000
0032
0000
,  // measure 32
0100
0100
0203
0000
,  // measure 33
0320
0000
2030
0000
,  // measure 34
0000
0100
3200
0000
,  // measure 35
0320
0000
0032
0000
,  // measure 36
2003
0000
3200
0000
,  // measure 37
0320
0000
0032
0000
,  // measure 38
0000
0100
0203
0000
,  // measure 39
0320
0000
2030
0000
,  // measure 40
3200
0000
0000
0300
0010
0000
0000
0000
,  // measure 41
0001
0000
0100
0000
,  // measure 42
0010
0000
1000
0010
,  // measure 43
0100
0001
1000
0010
,  // measure 44
0100
0001
0020
0230
,  // measure 45
2300
0000
3000
0100
0000
0010
0000
0000
,  // measure 46
0010
0000
0100
0000
,  // measure 47
0100
0000
1000
0100
,  // measure 48
0010
0001
0010
0000
,  // measure 49
0100
0000
1000
0000
,  // measure 50
0010
0000
0100
0000
,  // measure 51
0001
0000
0020
0000
,  // measure 52
0130
0000
0100
1000
,  // measure 53
1000
0000
0000
0001
0000
0100
0000
0000
,  // measure 54
0001
0000
0000
0000
0010
0000
0000
0100
,  // measure 55
0000
0000
0000
1000
0000
0000
0000
0000
,  // measure 56
0100
0010
0001
0000
,  // measure 57
0100
0000
0000
0010
0000
0000
0000
0000
,  // measure 58
1000
0000
0010
0100
,  // measure 59
0001
0000
0000
0010
0000
0000
0000
0000
,  // measure 60
0000
0100
1001
0000
;
