#TITLE:Kimosabe;
#SUBTITLE:;
#ARTIST:bt feat. Wildchild;
#TITLETRANSLIT:;
#SUBTITLETRANSLIT:;
#ARTISTTRANSLIT:;
#GENRE:;
#CREDIT:;
#MENUCOLOR:;
#METERTYPE:DDR;
#BANNER:Kimosabe.png;
#BACKGROUND:Kimosabe-BG.png;
#LYRICSPATH:;
#CDTITLE:./CDTitles/SpyHunter29 Originals.png;
#MUSIC:Kimosabe.mp3;
#OFFSET:-3.550;
#SAMPLESTART:49.260;
#SAMPLELENGTH:12.000;
#SELECTABLE:YES;
#LISTSORT:;
#DISPLAYBPM:126.000;
#BPMS:0.000=125.970;
#STOPS:157.500=0.476
;
#BGCHANGES:;
#ATTACKS:;

//---------------dance-single - BEGINNER----------------
#NOTES:
     dance-single:
     BEGINNER:
     Beginner:
     1:
     0.140,0.175,0.000,0.040,0.000: // measure 1
0000
0000
0000
0000
,  // measure 2
0000
0000
0000
0000
,  // measure 3
0000
0000
0000
0000
,  // measure 4
0000
0000
0000
0000
,  // measure 5
0001
0000
0001
0000
,  // measure 6
1000
0000
1000
0000
,  // measure 7
0001
0000
0010
0000
,  // measure 8
1000
0000
0100
0000
,  // measure 9
0001
0000
0100
0000
,  // measure 10
1000
0000
0100
0000
,  // measure 11
0001
0000
0010
0000
,  // measure 12
1000
0000
0100
0000
,  // measure 13
0010
0000
0001
0000
,  // measure 14
1000
0000
0100
0000
,  // measure 15
0001
0000
0100
0000
,  // measure 16
0010
0000
2000
3000
,  // measure 17
1000
1000
1000
0000
,  // measure 18
0001
0001
0001
0000
,  // measure 19
1000
1000
1000
0000
,  // measure 20
0001
0001
0001
0000
,  // measure 21
0010
0010
0000
0000
,  // measure 22
0100
0100
0000
0000
,  // measure 23
0010
0010
0000
0000
,  // measure 24
1000
0000
0001
0000
,  // measure 25
1000
1000
0000
0000
,  // measure 26
0001
0001
0000
0000
,  // measure 27
1000
1000
0000
0000
,  // measure 28
0000
0010
0100
0000
,  // measure 29
0001
0001
0000
0000
,  // measure 30
0010
0010
0000
0000
,  // measure 31
1000
1000
0000
0000
,  // measure 32
0100
0000
0010
0000
,  // measure 33
0001
0000
1000
0000
,  // measure 34
0002
0000
0003
0000
,  // measure 35
1000
0000
0100
0000
,  // measure 36
2000
0000
3000
0000
,  // measure 37
0010
0000
0001
0000
,  // measure 38
0020
0000
0030
0000
,  // measure 39
0100
0000
1000
0000
,  // measure 40
0001
0001
0000
0001
,  // measure 41
0001
0000
0000
1000
,  // measure 42
1000
0000
0000
0010
,  // measure 43
0010
0000
0000
0100
,  // measure 44
0000
0010
0000
0100
,  // measure 45
0100
0000
0000
0001
,  // measure 46
0001
0000
0000
0010
,  // measure 47
0010
0000
0000
1000
,  // measure 48
0000
0001
0000
0010
,  // measure 49
0000
0100
0000
0010
,  // measure 50
0000
0000
0100
0000
;

//---------------dance-single - BASIC----------------
#NOTES:
     dance-single:
     BASIC:
     Easy:
     4:
     0.314,0.300,0.142,0.051,0.000: // measure 1
0000
0000
0000
0000
,  // measure 2
0000
0000
0000
0000
,  // measure 3
0001
0100
0001
1000
,  // measure 4
0000
0010
0100
0000
,  // measure 5
1000
0010
0100
0000
,  // measure 6
0001
0010
0100
0100
,  // measure 7
1000
0100
0001
0010
,  // measure 8
1000
0001
0100
0001
,  // measure 9
0010
1000
0001
0100
,  // measure 10
0001
0000
1000
0000
0001
1000
0001
0000
,  // measure 11
1000
0100
0010
0001
,  // measure 12
0010
0010
0010
0000
1000
0000
0100
0000
,  // measure 13
0010
0000
0001
0000
0100
0001
0010
0000
,  // measure 14
0001
1000
0100
0010
,  // measure 15
0220
0330
0001
1000
,  // measure 16
0001
0000
0100
0000
1000
0000
0100
1000
,  // measure 17
0001
0010
1000
1100
,  // measure 18
1000
0010
0001
0101
,  // measure 19
1000
0100
0001
0011
,  // measure 20
0001
0100
1000
1010
,  // measure 21
0001
0000
0100
0000
0010
1000
0010
0000
,  // measure 22
1000
0001
0010
0100
,  // measure 23
1000
0001
0010
0001
,  // measure 24
1000
0000
0100
0000
1000
0100
0001
0000
,  // measure 25
0101
0000
1100
0000
0001
0100
0001
0000
,  // measure 26
1000
0010
1000
0100
,  // measure 27
0010
0001
1000
0100
,  // measure 28
1000
0000
0001
0000
0010
0100
0010
0000
,  // measure 29
0110
0000
1001
0000
1000
0001
1000
0000
,  // measure 30
0001
0100
1000
0010
,  // measure 31
1000
0100
0010
0001
,  // measure 32
1000
0000
0100
0000
0001
0100
1000
0000
,  // measure 33
0010
1000
0000
0000
0001
0100
0000
0000
,  // measure 34
0100
0001
1000
0010
,  // measure 35
1000
0100
0000
0000
0010
0001
0000
0000
,  // measure 36
1000
0010
1000
0100
,  // measure 37
0010
0001
0000
0000
0100
1000
0000
0000
,  // measure 38
0100
0001
1000
0100
,  // measure 39
1000
0001
0000
0000
0010
0100
0000
0000
,  // measure 40
1000
0001
0110
1001
,  // measure 41
1001
0000
0001
0100
0001
0000
1000
0000
,  // measure 42
0001
1000
0100
0010
,  // measure 43
0001
0100
0010
1000
,  // measure 44
0100
0000
0001
0100
1000
0000
1010
0000
,  // measure 45
0101
0000
0010
1000
0010
0000
1000
0000
,  // measure 46
0001
0100
0010
1000
,  // measure 47
0100
0010
0001
0010
,  // measure 48
0100
0000
1000
0001
1000
0000
0020
0000
,  // measure 49
0030
0200
0300
0001
,  // measure 50
1000
0200
0300
0000
;

//---------------dance-single - DIFFICULT----------------
#NOTES:
     dance-single:
     DIFFICULT:
     Medium:
     7:
     0.418,0.401,0.182,0.111,0.035:
0000
0000
0000
0000
,
0000
0000
0000
0000
,
1000
0000
0000
0100
0000
0000
0001
0000
0010
0000
0000
0000
0110
0000
0000
0000
,
0000
0000
0010
0000
1000
0000
0000
0000
0001
0000
0000
0100
0000
0000
0001
0000
,
1000
0000
0000
0100
0000
0000
1000
0000
0001
0000
0000
0000
0100
0000
0000
0000
,
1000
0100
0001
0000
0001
0100
1000
0000
,
0010
1000
0010
0000
1000
0100
0010
0001
,
1000
0000
0001
0000
1000
0100
1000
0000
,
0010
1000
0001
0100
,
1000
0000
0100
0000
0001
0100
1000
0100
,
0001
0000
1000
0000
0010
1000
0100
0000
,
0010
0010
0010
0000
1000
0100
0010
0000
,
0001
0000
1000
0000
0010
0100
0001
0000
,
1000
0000
0001
0000
0010
0100
1000
0000
,
0110
0000
1000
0000
0001
0100
0010
1000
,
0001
0000
0100
0001
1000
0010
0010
0010
,
1000
0000
1000
0100
0001
0100
1000
0000
,
0010
1000
0010
0000
0100
0001
0100
0000
,
0010
0001
0010
0001
1000
0100
1000
0000
,
0100
1000
0001
0010
0200
0000
1300
0000
,
0110
0000
1001
0000
0001
0100
1000
0000
,
2100
0000
3001
0000
0001
0100
0010
0000
,
2000
0000
3010
0000
0010
1000
0100
0010
,
0001
0000
0100
0000
1000
0100
0001
0000
,
0101
0000
1100
0000
0001
0010
1000
0000
,
0021
0000
1030
0000
0001
0010
1000
0000
,
0200
0000
1300
0000
0001
0010
0100
1000
,
0001
0000
0100
0000
1000
0001
1000
0000
,
1001
0000
0110
0000
0010
0100
0001
0000
,
2001
0000
3100
0000
1000
0010
0100
0000
,
0002
0000
0103
0000
0010
1000
0001
0100
,
0001
0000
1000
0000
0010
1000
0010
0000
,
1000
0100
0010
0000
0001
0100
1000
0000
,
0100
0001
0000
1000
0010
0000
0100
0000
,
0001
0100
0010
0000
1000
0100
0010
0000
,
0001
0010
0000
1000
0100
0000
0010
0000
,
0001
0100
0010
0000
0010
1000
0100
0000
,
1000
0010
0000
0100
0001
0000
1000
0000
,
0001
0100
1000
0000
0001
0010
1000
0000
,
0010
1000
0001
0100
0010
0000
0110
0000
,
1001
0000
0001
0100
1000
0000
2010
0000
,
3100
0000
1000
0100
0001
0000
0200
0000
,
0310
0000
1000
0001
0100
0001
0010
0000
,
1000
0000
0100
1000
0001
0000
0011
0000
,
1100
0000
0010
0100
1000
0000
1020
0000
,
0130
0000
0001
0100
1000
0000
0200
0000
,
0310
0000
0001
0010
0100
1000
0001
0000
,
0100
0000
0001
1000
0001
0000
0010
0010
,
0000
0000
0000
0100
0000
0000
0100
0000
0000
0000
0000
0010
0000
0000
1000
0000
,
0000
0001
0000
1000
0000
0000
0000
0000
1001
0000
0000
0000
0000
0000
0000
0000
;

//---------------dance-single - EXPERT----------------
#NOTES:
     dance-single:
     EXPERT:
     Hard:
     9:
     0.601,0.526,0.243,0.121,0.516:
0000
0000
0000
0000
,
0000
0000
0000
0000
,
0100
0000
0010
1000
0000
0001
0100
0000
0001
0000
0000
0000
1000
0000
0000
0000
,
0000
0000
0100
0100
0001
0100
0000
0000
0010
0000
0010
1000
0000
1000
0010
0000
,
1000
0000
1000
0100
0000
0100
0010
0000
0001
0000
1000
0000
0000
0000
0001
0000
,
0010
0000
0100
0000
1000
0100
1000
0000
0010
0000
1000
0000
0001
0100
0001
0000
,
0100
0000
0010
0000
1000
0000
0000
0000
0001
0100
0010
1000
0010
0000
1000
0100
,
0010
0000
0100
0000
1000
0000
0001
0000
0100
0010
1000
0000
0000
0001
0000
0000
,
0100
0000
0010
0000
1000
0000
0001
0000
0100
0010
0000
0010
1000
0000
1000
0001
,
0000
0001
1000
0000
1000
0100
0000
0100
0010
0000
0100
0000
1000
0000
0000
0000
,
0001
1000
0001
1000
0100
0000
1000
0000
0010
0000
0100
0000
0001
0000
0000
0000
,
0010
1000
0000
0010
0000
1000
0000
0000
0001
0000
0100
0000
0010
0000
1000
0000
,
0001
0000
0000
1000
0001
0000
0010
0000
0001
0010
0001
0000
0100
0000
0000
0000
,
0010
0000
0100
0000
0001
0000
0100
0000
1000
0100
1000
0000
0001
0000
0100
0000
,
0010
0000
0000
0000
1000
0000
0001
0000
0100
0000
0010
1000
0000
1000
0010
0000
,
0001
0100
0000
0000
1000
0000
0010
0000
0100
0000
0001
1000
0001
1000
0001
1000
,
0001
0000
0001
1000
0000
1000
0100
0000
0100
1000
0000
0000
0001
0000
0000
0000
,
1000
0100
0001
0100
1000
0000
0000
0000
0010
0100
0010
0000
0001
0000
0000
0000
,
0001
0100
0001
0000
0010
1000
0010
0000
1000
0000
0100
0000
0010
0000
0001
0000
,
1000
0100
1000
0000
0001
0010
0000
0010
0002
0000
0000
0000
0103
0000
0000
0000
,
1020
0000
0000
0000
0130
0000
0000
0000
1000
0000
0010
0100
0000
0001
0100
0000
,
0201
0000
0000
0000
1300
0000
0000
0000
1000
0100
1000
0000
0001
0100
0001
0000
,
2100
0000
0000
0000
3001
0000
0000
1000
0100
0000
0010
0000
0001
0000
0100
0000
,
0010
0000
1000
0000
0001
0000
0100
0010
1000
0000
1000
0001
0000
0001
0100
0000
,
0110
0000
0000
0000
1001
0000
0000
0000
1000
0000
0010
0100
0000
0001
1000
0000
,
0102
0000
0000
0000
0013
0000
0000
0000
1000
0100
1000
0000
0010
0001
0010
0000
,
0200
0000
0000
0000
1300
0000
0000
0010
0100
0000
0010
1000
0010
0000
0100
0000
,
0001
0000
0100
0000
0010
0000
1000
0000
0100
0000
0001
0100
0000
0010
1000
0000
,
1100
0000
0000
0000
0011
0000
0000
0000
1000
0000
0100
0010
0000
0001
0100
0000
,
1020
0000
0000
0000
0130
0000
0000
0000
0001
0100
0001
0000
1000
0010
1000
0000
,
0200
0000
0000
0000
0310
0000
0000
0001
0100
0000
0010
0000
1000
0000
0001
0000
,
0010
0000
0100
0000
1000
0000
0001
0000
0010
0000
1000
0100
0000
0010
0001
0000
,
0100
0000
0010
0000
1000
0000
0001
0100
0000
0000
0010
0000
1000
0000
0100
0010
,
0000
0000
0001
0000
0000
1000
0000
0100
0000
0000
1000
0000
0010
0000
0000
0000
,
0001
0000
1000
0000
0010
0000
1000
0100
0000
0000
0010
0000
0001
0000
1000
0100
,
0000
0000
1000
0000
0000
0010
0000
0100
0000
0000
0001
0000
1000
0000
0000
0000
,
0001
0000
0100
0000
1000
0000
0010
0100
0000
0000
0010
0000
1000
0000
0100
0010
,
0000
0000
0001
0000
0000
1000
0000
0100
0000
0000
0010
0000
0001
0000
0000
0000
,
0001
0000
0010
0000
0001
0000
1000
0100
0000
0000
1000
0000
0010
0000
0100
0001
,
0000
0000
1000
0000
0010
0000
0100
0000
0001
1000
0000
0000
0110
0000
0000
0000
,
1001
0000
0000
0000
0010
0000
0100
1000
0000
0010
0001
0000
0201
0000
0000
0000
,
0310
0000
0000
0000
1000
0010
0100
0000
0001
0100
0010
0000
2000
0000
0000
0000
,
3100
0000
0000
1000
0001
0000
0010
0000
0100
0000
1000
0000
0001
0000
0100
0000
,
0010
0000
1000
0000
0001
0000
1000
0010
0000
0010
0100
0000
0101
0000
0000
0000
,
1100
0000
0000
0000
0100
0000
0001
0100
0000
0100
0010
0000
2010
0000
0000
0000
,
3001
0000
0000
0000
0010
0001
0010
0000
0100
1000
0100
0000
0020
0000
0000
0000
,
0031
0000
0000
1000
0100
0000
1000
0000
0001
0000
0010
0000
0100
0000
1000
0000
,
0010
0000
0100
0000
0010
0000
1000
0100
0000
0010
0001
0000
1001
0000
1001
0000
,
0000
0000
0000
0110
0000
0000
0110
0000
0000
0000
0000
1001
0000
0000
0101
0000
,
0000
0110
0000
1010
0000
0000
0000
0000
1001
0000
0000
0000
0000
0000
0000
0000
;
