#TITLE:Fortress Europe;
#SUBTITLE:;
#ARTIST:Asian Dub Foundation;
#TITLETRANSLIT:;
#SUBTITLETRANSLIT:;
#ARTISTTRANSLIT:;
#GENRE:;
#CREDIT:;
#MENUCOLOR:;
#METERTYPE:DDR;
#BANNER:Fortress Europe.png;
#BACKGROUND:Fortress Europe-BG.png;
#LYRICSPATH:;
#CDTITLE:./CDTitles/SpyHunter29 Originals.png;
#MUSIC:Fortress Europe.mp3;
#OFFSET:-0.020;
#SAMPLESTART:59.250;
#SAMPLELENGTH:12.000;
#SELECTABLE:YES;
#LISTSORT:;
#DISPLAYBPM:146.000;
#BPMS:0.000=145.850;
#STOPS:;
#BGCHANGES:;
#ATTACKS:;

//---------------dance-single - BEGINNER----------------
#NOTES:
     dance-single:
     BEGINNER:
     Beginner:
     1:
     0.138,0.178,0.000,0.000,0.000:
0000
0000
0000
0000
,
0000
0000
0000
0000
,
0000
0000
0000
0000
,
0000
0000
0000
0000
,
0100
0000
0000
0000
,
0000
0000
0000
0000
,
0010
0000
0000
0000
,
0000
0000
0000
0000
,
0100
0000
0000
0000
,
0000
0000
0000
0000
,
0010
0000
0000
0000
,
0000
0001
0001
0001
,
0001
0000
0000
0000
,
0000
0000
0000
1000
,
0000
1000
0000
0001
,
0001
0000
0000
0000
,
0100
0000
0000
0000
,
0000
0000
0000
0001
,
0000
0001
0001
0000
,
0000
0000
1000
1000
,
1000
0000
0100
0000
,
1000
0000
0100
0000
,
0010
0000
0001
0000
,
0010
0000
0001
0000
,
0100
0000
0001
0000
,
0100
0000
0001
0000
,
1000
0000
0010
0000
,
1000
0000
0010
0000
,
1000
0000
1000
0000
,
0100
0000
0100
0000
,
0001
0000
0001
0000
,
0100
0000
0100
0000
,
1000
0000
0010
0000
,
0001
0000
0010
0000
,
1000
0000
0100
0000
,
0001
0000
1000
1000
,
0000
0001
0000
0100
,
0000
0001
0000
1000
,
0000
0001
0000
1000
,
1000
0000
0000
0000
,
0000
0001
0000
0010
,
0000
0001
0000
0100
,
0000
0001
0000
1000
,
1000
0000
0100
0000
,
0010
0000
0000
0000
,
0100
0000
0000
0000
,
0010
0000
0000
0000
,
0000
0100
0100
0100
,
0100
0000
0001
0000
,
0100
0000
0001
0000
,
1000
0000
0010
0000
,
1000
0000
0001
0001
,
0001
0000
0010
0000
,
0001
0000
0010
0000
,
0100
0000
1000
0000
,
0000
0100
0100
0100
,
0100
0000
0000
0000
;

//---------------dance-single - BASIC----------------
#NOTES:
     dance-single:
     BASIC:
     Easy:
     4:
     0.310,0.358,0.127,0.159,0.000: // measure 1
0000
0000
0000
0000
,  // measure 2
0000
0000
0000
0000
,  // measure 3
0000
0000
0000
0000
,  // measure 4
0000
0000
0000
0000
,  // measure 5
0200
0000
0000
0000
,  // measure 6
0300
0000
0000
1000
,  // measure 7
2000
0000
0000
0000
,  // measure 8
3000
0000
0000
0000
,  // measure 9
0002
0000
0000
0000
,  // measure 10
0003
0000
0000
0100
,  // measure 11
0200
0000
0000
0300
,  // measure 12
0000
0010
0100
0010
,  // measure 13
0100
0001
0100
1000
,  // measure 14
0100
0001
0100
0010
,  // measure 15
1000
0010
0001
0010
,  // measure 16
1000
0100
0010
0001
,  // measure 17
1000
0100
0001
0100
,  // measure 18
1000
0100
0001
0100
,  // measure 19
1000
0010
0100
0000
,  // measure 20
0001
0000
1000
0000
0010
0100
0010
0100
,  // measure 21
0010
0000
1000
1000
,  // measure 22
0001
0100
0001
0001
,  // measure 23
1000
0010
1000
0100
,  // measure 24
0001
0010
0001
0100
,  // measure 25
0010
1000
0001
0110
,  // measure 26
0001
1000
0010
0100
,  // measure 27
1000
0100
0001
0001
,  // measure 28
0010
0001
1000
1000
,  // measure 29
0202
0303
0001
1000
,  // measure 30
0001
0100
0010
0100
,  // measure 31
2020
3030
0010
0100
,  // measure 32
0010
1000
0100
1000
,  // measure 33
2200
3300
0001
1000
,  // measure 34
1100
0000
0001
1000
,  // measure 35
0022
0033
1000
0001
,  // measure 36
0010
0100
1000
0001
,  // measure 37
0000
1000
0100
0001
,  // measure 38
0100
1000
0010
0001
,  // measure 39
0010
1000
0100
0010
,  // measure 40
0001
0100
0010
0110
,  // measure 41
0000
0010
1000
0001
,  // measure 42
0100
1000
0100
0001
,  // measure 43
1000
0100
0010
0001
,  // measure 44
0100
0000
0000
0100
0010
0000
0010
0000
,  // measure 45
1000
0100
0001
0100
,  // measure 46
1000
0001
0100
1000
,  // measure 47
0100
0001
1000
0100
,  // measure 48
0001
0010
1000
0100
,  // measure 49
0110
1000
0100
0010
,  // measure 50
0001
0100
0010
1000
,  // measure 51
1000
0001
0100
0010
,  // measure 52
1000
0000
0100
0000
1000
0001
0100
0000
,  // measure 53
0001
0100
0010
1000
,  // measure 54
0100
0010
0001
1000
,  // measure 55
0001
0010
2000
0000
,  // measure 56
3000
1100
0011
0011
,  // measure 57
2200
0000
0000
3300
0000
0000
0000
0000
;

//---------------dance-single - DIFFICULT----------------
#NOTES:
     dance-single:
     DIFFICULT:
     Medium:
     6:
     0.410,0.451,0.180,0.212,0.000: // measure 1
0000
0000
0000
0000
,  // measure 2
0000
0000
0000
0000
,  // measure 3
0000
0000
0000
0000
,  // measure 4
0000
0000
0000
0000
,  // measure 5
0002
0000
0000
0000
,  // measure 6
0000
0000
0000
0000
0003
0000
0000
1000
,  // measure 7
2000
0000
0000
0000
,  // measure 8
0000
0000
0000
0000
3000
0000
0000
0010
,  // measure 9
0020
0000
0000
0000
,  // measure 10
0000
0000
0000
0000
0030
0000
0000
1000
,  // measure 11
2000
0000
0000
0000
,  // measure 12
3000
0001
1000
0001
,  // measure 13
1000
0100
0000
0010
0001
0000
1000
0000
,  // measure 14
0001
0100
0001
0000
0010
1000
0010
0000
,  // measure 15
0000
0100
0001
0010
0100
0000
0010
0000
,  // measure 16
0001
0100
1000
0110
,  // measure 17
0200
0001
0010
0301
,  // measure 18
0020
1000
0130
1001
,  // measure 19
0000
0100
0001
1000
0100
0000
0010
0000
,  // measure 20
0002
0000
0003
0000
1000
0001
1000
0001
,  // measure 21
2000
0000
3000
0000
0001
0100
0001
0000
,  // measure 22
1000
0000
0010
0000
1000
0100
1000
0000
,  // measure 23
0100
0000
1000
0000
0001
0010
0100
0000
,  // measure 24
1000
0000
0100
0000
1000
0010
0100
0000
,  // measure 25
0010
1000
0001
0100
0010
0000
1000
0000
,  // measure 26
0100
0010
0001
1000
0100
0000
1000
0000
,  // measure 27
0001
0100
0010
1000
0001
0000
0100
0000
,  // measure 28
1000
0100
0010
0001
1000
0000
0100
0000
,  // measure 29
0202
0000
0303
0000
1000
0010
0100
0000
,  // measure 30
0010
0100
0001
0000
1000
0100
0010
0000
,  // measure 31
0022
0000
0033
0000
0010
0001
0100
0000
,  // measure 32
1000
0010
0100
0000
0001
1000
0100
0000
,  // measure 33
2200
0000
3300
0000
0001
0100
1000
0000
,  // measure 34
0001
0100
0010
0000
1000
0100
0010
0000
,  // measure 35
0022
0000
0033
0000
1000
0010
0001
0000
,  // measure 36
0010
1000
0100
1000
0001
1000
0100
0000
,  // measure 37
1000
0000
0100
0000
0010
0001
1000
0000
,  // measure 38
0010
0000
0100
0000
0010
1000
0001
0000
,  // measure 39
0000
0100
0001
1000
0010
0000
1000
0000
,  // measure 40
0100
0010
0001
0110
,  // measure 41
0002
0100
1000
0103
,  // measure 42
0020
0000
1030
0000
1000
0100
0010
0000
,  // measure 43
0001
0010
0100
1000
0001
0000
0100
0000
,  // measure 44
0010
0000
1000
0000
0100
0000
0010
0001
,  // measure 45
1000
0000
1100
0000
1100
0000
1000
0100
,  // measure 46
0010
0000
0011
0000
0011
0000
0001
0010
,  // measure 47
0100
0000
0101
0000
0101
0000
0001
0100
,  // measure 48
0010
1000
0001
0100
,  // measure 49
0010
1000
0100
1000
0010
0000
0001
0000
,  // measure 50
0100
0001
1000
0100
0010
0000
0001
0000
,  // measure 51
0000
0010
0001
0100
0001
0000
1000
0000
,  // measure 52
0010
0000
1000
0000
0010
0001
0100
0000
,  // measure 53
0001
0100
0010
1000
0001
0000
0100
0000
,  // measure 54
1000
0100
0010
0001
1000
0000
0010
0000
,  // measure 55
0000
0100
0001
0100
1000
0000
0100
0000
,  // measure 56
0001
1010
0101
0101
,  // measure 57
2020
0000
0000
3030
;

//---------------dance-single - EXPERT----------------
#NOTES:
     dance-single:
     EXPERT:
     Hard:
     8:
     0.540,0.543,0.180,0.148,0.122: // measure 1
0000
0000
0000
0000
,  // measure 2
0000
0000
0000
0000
,  // measure 3
0000
0000
0000
0000
,  // measure 4
0000
0000
0000
0000
,  // measure 5
0200
0000
0000
0000
,  // measure 6
0000
0000
0000
0000
0000
0000
0000
0000
0300
0000
0001
0000
0000
0100
0000
0000
,  // measure 7
0020
0000
0000
0000
,  // measure 8
0000
0000
0000
0000
0000
0000
0000
0000
0030
0000
1000
0000
0000
0100
0000
0000
,  // measure 9
0020
0000
0000
0000
,  // measure 10
0000
0000
0000
0000
0000
0000
0000
0000
0030
0000
0001
0000
0000
1000
0000
0000
,  // measure 11
0200
0000
0000
0000
,  // measure 12
0300
0110
1001
1001
,  // measure 13
0010
1000
0100
0001
0100
1000
0010
0001
,  // measure 14
0010
0100
0001
0100
0010
1000
0100
0010
,  // measure 15
0000
0000
0001
0000
1000
0100
1000
0100
1000
0000
0001
0000
0010
0000
0001
0000
,  // measure 16
1000
0100
0001
0100
1000
0010
0100
0001
,  // measure 17
0000
0100
1000
0100
0001
0010
1000
0010
,  // measure 18
0001
0010
0100
1000
0010
0100
0001
1000
,  // measure 19
0000
0000
0001
0000
0010
0001
1000
0001
0100
0000
0000
0000
0001
0000
0000
0000
,  // measure 20
0010
0000
1000
0000
0010
0100
1000
0100
,  // measure 21
0020
0000
0030
0100
0001
0100
0010
1000
,  // measure 22
0001
0000
0100
0000
0001
0000
0000
1000
0000
0010
0000
0000
1000
0000
0100
0000
,  // measure 23
0010
0001
0010
0001
1000
0100
0001
0000
,  // measure 24
1000
0100
1000
0001
0100
0010
1000
0000
,  // measure 25
1000
0000
0010
0000
0100
0000
0001
0100
0000
0010
1000
0000
0001
0000
0000
0000
,  // measure 26
1000
0000
0010
0100
0000
0000
0001
0000
0100
0000
0010
0000
1000
0000
0000
0000
,  // measure 27
1000
0000
0100
0000
1000
0000
0000
0001
0000
0100
0001
0000
0010
0000
0000
0000
,  // measure 28
0010
0000
0100
0000
1000
0000
0100
0010
0000
0000
0001
0000
1000
0000
0001
0000
,  // measure 29
0102
0000
1003
0100
0010
0001
0100
0000
,  // measure 30
0010
0100
1000
0100
0001
0010
1000
0000
,  // measure 31
0021
0000
0130
0010
1000
0001
0100
0000
,  // measure 32
1000
0100
0010
0001
1000
0001
0100
0000
,  // measure 33
2100
0000
3001
0100
0001
0001
1000
0000
,  // measure 34
0101
0000
1000
0100
1000
1000
0001
0000
,  // measure 35
2010
0000
3001
0010
0001
1000
0100
1000
,  // measure 36
0010
1000
0001
0100
0001
0100
0010
1000
,  // measure 37
0000
0100
1000
0100
0010
0001
0010
0100
,  // measure 38
1000
0100
0001
0100
0010
1000
0001
0100
,  // measure 39
0000
0000
0001
0000
1000
0010
0100
0010
1000
0000
0001
0000
0100
0000
0010
0000
,  // measure 40
1000
0001
1000
0100
0010
0001
1000
0100
,  // measure 41
0000
0001
0100
0001
0010
0100
1000
0001
,  // measure 42
1000
0010
1000
0001
1000
0100
0010
0001
,  // measure 43
0000
0000
0100
0000
0010
0100
0001
0010
0100
0000
0010
0000
0001
0000
0100
0000
,  // measure 44
0010
1000
0001
0100
1000
0100
0001
1000
,  // measure 45
0010
0000
0101
0000
1000
0000
0001
0100
,  // measure 46
0010
0000
1100
0000
1000
0000
0001
0100
,  // measure 47
0010
0000
1010
0000
0100
0000
0010
0001
,  // measure 48
1000
0020
0230
0320
,  // measure 49
1030
0100
1000
1000
0100
0010
0001
0010
,  // measure 50
0000
0100
1000
1000
0010
1000
0001
0100
,  // measure 51
0000
0000
1000
0000
0100
1000
0001
0010
0100
0000
1000
0000
0001
0000
0010
0000
,  // measure 52
0100
1000
0000
1000
0101
1000
1010
0000
,  // measure 53
0000
0010
1000
1000
0010
0100
1000
0100
,  // measure 54
0001
0100
1000
0100
0001
0010
1000
0010
,  // measure 55
0000
0000
0100
0000
0010
0001
1000
0001
0100
0000
0010
0000
1000
0000
0100
0000
,  // measure 56
0010
0011
1100
1100
,  // measure 57
0022
0000
0000
0000
,  // measure 58
0033
0000
0000
0000
;
