#TITLE:Dragon Fight!;
#SUBTITLE:from Blue Dragon;
#ARTIST:植松伸夫;
#TITLETRANSLIT:;
#SUBTITLETRANSLIT:;
#ARTISTTRANSLIT:Nobuo Uematsu;
#CREDIT:348;
#BANNER:Dragon Fight! Banner.png;
#BACKGROUND:Dragon Fight! Background.png;
#LYRICSPATH:;
#CDTITLE:;
#MUSIC:Dragon Fight!.mp3;
#OFFSET:0.409;
#SAMPLESTART:1.190;
#SAMPLELENGTH:15.000;
#SELECTABLE:YES;
#BPMS:0.000=150.000;
#STOPS:;
#BGCHANGES:;

//---------------dance-single - ----------------
#NOTES:
     dance-single:
     :
     Beginner:
     2:
     0.121,0.140,0.000,0.000,0.000: // measure 1
0000
0000
0000
0000
,  // measure 2
1000
0000
0000
0000
,  // measure 3
0001
0000
0000
0000
,  // measure 4
1000
0000
0000
0000
,  // measure 5
0001
0000
0001
0000
,  // measure 6
0100
0000
0000
0000
,  // measure 7
0010
0000
0000
0000
,  // measure 8
0100
0000
0000
0000
,  // measure 9
0010
0000
0000
0000
,  // measure 10
0010
0000
0000
0000
,  // measure 11
1000
0000
1000
0000
,  // measure 12
1000
0000
1000
0000
,  // measure 13
0001
0000
0001
0000
,  // measure 14
0001
0000
0001
0000
,  // measure 15
0100
0000
0100
0000
,  // measure 16
0100
0000
0100
0000
,  // measure 17
0010
0000
0010
0000
,  // measure 18
0010
0000
0010
0000
,  // measure 19
1000
0000
0000
0000
,  // measure 20
0010
0000
0000
0000
,  // measure 21
1000
0000
0010
0000
,  // measure 22
1000
0000
0000
0000
,  // measure 23
0001
0000
0000
0000
,  // measure 24
0100
0000
0000
0000
,  // measure 25
0001
0000
0100
0000
,  // measure 26
0001
0000
0000
0000
,  // measure 27
0100
0000
0000
0001
,  // measure 28
0001
0000
0000
1000
,  // measure 29
1000
0000
0000
0010
,  // measure 30
0010
0000
0000
0000
,  // measure 31
1000
0000
0000
0001
,  // measure 32
0001
0000
0000
1000
,  // measure 33
1000
0000
0000
0000
,  // measure 34
0010
0010
0000
0010
,  // measure 35
0010
0000
0000
0100
,  // measure 36
0100
0000
0000
0010
,  // measure 37
0010
0000
0000
0000
,  // measure 38
1000
1000
0000
1000
,  // measure 39
1000
0000
0100
0000
,  // measure 40
1000
0000
0000
0000
,  // measure 41
0001
0000
0010
0000
,  // measure 42
0001
0000
0000
0000
,  // measure 43
0100
0000
0001
0000
,  // measure 44
0100
0000
0000
0000
,  // measure 45
0010
0000
1000
0000
,  // measure 46
0010
0000
0000
0000
,  // measure 47
1000
0000
0000
0000
,  // measure 48
0001
0000
0000
0000
,  // measure 49
0100
0000
0000
0000
,  // measure 50
0010
0000
0000
0000
,  // measure 51
1000
0000
0001
0000
,  // measure 52
1000
0000
0000
0000
,  // measure 53
0010
0000
0000
0000
,  // measure 54
0100
0000
0000
0000
;

//---------------dance-single - ----------------
#NOTES:
     dance-single:
     :
     Easy:
     5:
     0.350,0.481,0.222,0.296,0.148: // measure 1
0000
0000
0000
0000
,  // measure 2
1000
0100
0010
1001
,  // measure 3
0001
0100
0010
1001
,  // measure 4
1000
0001
1000
0001
,  // measure 5
1000
0000
1000
0000
1000
0000
0001
0000
0001
0000
0001
0000
,  // measure 6
0100
0001
1000
0110
,  // measure 7
0010
1000
0001
0110
,  // measure 8
0100
0010
0100
0010
,  // measure 9
2000
3002
0203
0320
,  // measure 10
0230
0302
2003
3002
,  // measure 11
1003
0000
1000
0000
0000
0000
0100
0000
0100
0000
0000
0000
,  // measure 12
0010
0000
0010
0000
0000
0000
0001
0000
0001
0000
0000
0000
,  // measure 13
0100
0000
0100
0000
0000
0000
0010
0000
0010
0000
0000
0000
,  // measure 14
1000
0000
1000
0000
0000
0000
0002
0000
0000
0000
0000
0000
,  // measure 15
0103
0000
0100
0000
0000
0000
0001
0000
0001
0000
0000
0000
,  // measure 16
1000
0000
1000
0000
0000
0000
0010
0000
0010
0000
0000
0000
,  // measure 17
1000
0000
1000
0000
0000
0000
0001
0000
0001
0000
0000
0000
,  // measure 18
0100
0000
0100
0000
0000
0000
0020
0000
0000
0000
0000
0000
,  // measure 19
1030
0000
0000
0000
1000
0000
0001
0000
0000
0000
0000
0000
,  // measure 20
0001
0000
0000
0000
0001
0000
0100
0000
0000
0000
0000
0000
,  // measure 21
0100
0000
0000
0000
0100
0000
0010
0000
0000
0000
0000
0000
,  // measure 22
0020
0030
2002
3003
,  // measure 23
0100
0000
0000
0000
0100
0000
0001
0000
0000
0000
0000
0000
,  // measure 24
0001
0000
0000
0000
0001
0000
1000
0000
0000
0000
0000
0000
,  // measure 25
1000
0000
0000
0000
1000
0000
0010
0000
0000
0000
0000
0000
,  // measure 26
2000
3000
0220
0330
,  // measure 27
0001
0100
0002
1003
,  // measure 28
1000
0010
2000
3001
,  // measure 29
0010
0100
0002
1003
,  // measure 30
1000
0001
0200
0310
,  // measure 31
1000
0011
0000
0100
,  // measure 32
1010
0000
0000
0010
,  // measure 33
0100
1001
0000
1100
,  // measure 34
0101
0000
0110
0000
,  // measure 35
1000
0100
0001
0100
,  // measure 36
1000
0110
0000
0110
,  // measure 37
0001
0010
1000
0010
,  // measure 38
0001
1001
0000
1001
,  // measure 39
0002
0010
0013
0000
,  // measure 40
2000
0000
3010
0000
,  // measure 41
0200
1000
1300
0000
,  // measure 42
0002
0000
0103
0000
,  // measure 43
2000
0100
3100
0000
,  // measure 44
0002
0000
0103
0000
,  // measure 45
0020
0001
0031
0000
,  // measure 46
0001
0010
0100
1000
,  // measure 47
0010
0100
0001
1001
,  // measure 48
0100
0010
1000
0011
,  // measure 49
0001
1000
0010
1100
,  // measure 50
0001
0010
0100
1000
,  // measure 51
0010
0000
0010
0000
0010
0000
0100
0000
0100
0000
0100
0000
,  // measure 52
0001
1000
0010
0101
,  // measure 53
1000
0001
0100
1010
,  // measure 54
0200
0000
0300
0000
;

//---------------dance-single - ----------------
#NOTES:
     dance-single:
     :
     Medium:
     7:
     0.505,0.594,0.275,0.539,0.508:
0000
0000
0000
0000
,
1000
0000
0000
0001
0000
0000
1000
0000
0001
0010
0000
0000
,
0001
0000
0000
1000
0000
0000
0001
0000
1000
0010
0000
0000
,
1000
0000
0000
0010
0000
0000
0100
0000
0001
1000
0000
0000
,
0001
0000
0001
0000
0011
0000
1000
0000
1000
0000
1100
0000
,
0010
0000
0000
0100
0000
0000
0010
0000
0100
0001
0000
0000
,
0100
0000
0000
0010
0000
0000
0100
0000
0010
1000
0000
0000
,
0010
0000
0000
1000
0000
0000
0001
0000
0100
0010
0000
0000
,
2000
0000
3001
0200
0000
0000
0320
0000
1030
0002
0000
0000
,
0203
0000
0310
2000
0000
0000
3002
0000
0103
0020
0000
0000
,
1030
0000
1000
0000
1000
0000
0100
0000
0100
0000
0100
0000
,
1000
0000
1000
0000
1000
0000
0010
0000
0010
0000
0010
0000
,
1000
0000
1000
0000
1000
0000
0001
0000
0001
0000
0001
0000
,
0100
0000
0100
0000
0100
0000
0010
0000
0010
0000
0010
0000
,
1000
0000
1000
0000
1000
0000
0001
0000
0001
0000
0001
0000
,
0100
0000
0100
0000
0100
0000
0001
0000
0001
0000
0001
0000
,
0010
0000
0010
0000
0010
0000
0001
0000
0001
0000
0001
0000
,
1000
0000
1000
0000
1000
0000
0001
0000
0001
0000
0001
0000
,
1000
0000
2200
0000
3300
0000
0001
0000
0022
0000
0033
0000
,
0100
0000
0202
0000
0303
0000
0010
0000
2020
0000
3030
0000
,
1000
0000
0100
0000
1000
0000
0001
0000
0010
0000
0001
0000
,
0100
0000
0001
0000
0100
0000
0010
0000
1000
0000
0010
0000
,
1000
0000
2002
0000
3003
0000
0001
0000
2002
0000
3003
0000
,
0010
0000
0220
0000
0330
0000
0100
0000
0220
0000
0330
0000
,
0001
0000
0100
0000
0010
0000
1000
0000
0010
0000
0100
0000
,
0001
0000
0010
0000
0100
0000
1000
0000
0100
0000
0010
0000
,
0001
0000
1000
0001
0000
0000
0102
0000
0000
0013
0000
0000
,
0100
0000
0010
0100
0000
0000
0120
0000
0000
1030
0000
0000
,
1000
0000
0001
1000
0000
0000
2010
0000
0000
3100
0000
0000
,
0010
0000
0100
0010
0000
0000
0210
0000
0000
0301
0000
0000
,
2000
0100
0010
3001
,
0020
0000
0000
1000
0000
0000
0001
0000
0000
1030
0000
0001
,
0200
1000
0001
1300
,
0002
0010
0100
1003
,
1000
0000
0000
0011
0000
0000
1100
0000
1000
0010
0000
0100
,
0001
0000
0000
1010
0000
0000
0101
0000
1000
0001
0000
0100
,
0010
0000
0000
1001
0000
0000
0110
0000
1000
0100
0000
0010
,
0001
0000
0000
1100
0000
0000
0101
0000
1000
0001
0000
0001
,
2000
0002
0003
3002
,
0203
0000
0020
0300
,
0230
0020
0030
0320
,
2030
0000
0002
3003
,
0002
0200
0300
0203
,
0320
0000
2000
0030
,
3020
0200
0300
0230
,
0301
0000
0000
0110
0000
0000
1000
0000
1000
0000
1000
0000
,
0001
0000
0001
0000
0001
0000
1000
0000
0000
1001
0000
0000
,
0100
0000
0000
0001
0000
0000
0100
0000
0001
0100
0000
0000
,
0010
0000
0000
1000
0000
0000
0010
0000
1000
0010
0000
0000
,
1000
0000
0000
0001
0000
0000
1000
0000
0001
1000
0000
0000
,
0010
0000
0010
0000
1010
0000
0100
0000
0100
0000
0101
0000
,
0010
0000
0000
0001
0000
0000
0010
0000
0001
0010
0000
0000
,
0100
0000
0000
1000
0000
0000
0100
0000
1000
0100
0000
0000
,
2000
0000
3000
0000
;

//---------------dance-single - ----------------
#NOTES:
     dance-single:
     :
     Hard:
     8:
     0.627,0.707,0.645,0.391,0.783:
0000
0000
0000
0000
,
1000
0001
1000
0001
0000
0100
1000
0000
0100
0001
0000
0000
,
0100
0010
0100
0010
0000
1000
0100
0000
0010
0001
0000
0000
,
1000
0100
0010
0001
0000
1000
0001
0000
0001
1000
0000
0000
,
0002
0000
0010
0000
0013
0000
2000
0000
0100
0000
3100
0000
,
0011
0000
0000
1010
0000
0000
0100
0001
0100
0001
0000
0000
,
1100
0000
0000
0101
0000
0000
1000
0010
1000
0010
0000
0000
,
0110
0000
0000
1001
0000
0000
0100
0001
1000
0010
0000
0000
,
2000
0000
3001
0200
0000
0301
0020
0000
0031
0200
0000
0310
,
2000
0000
3001
0020
0000
0130
2000
0000
3001
0200
0000
0301
,
2000
0000
3100
0000
1100
0000
0020
0000
0031
0000
0011
0000
,
2000
0000
3010
0000
1010
0000
0200
0000
0301
0000
0101
0000
,
0002
0000
1003
0000
1001
0000
0020
0000
0130
0000
0110
0000
,
1000
0000
0001
0000
0110
0000
1001
0000
1001
0000
1001
0000
,
0002
0000
0013
0000
0011
0000
0200
0000
1300
0000
1100
0000
,
0020
0000
1030
0000
1010
0000
0002
0000
0103
0000
0101
0000
,
2000
0000
3001
0000
1001
0000
0200
0000
0310
0000
0110
0000
,
0001
0000
1000
0000
0110
0000
0100
0000
0010
0000
1001
0000
,
0100
0000
0010
0000
1100
0000
0010
0000
0100
0000
0011
0000
,
1000
0000
0100
0000
0011
0000
0001
0000
0010
0000
1100
0000
,
1000
0000
0010
0000
0101
0000
0001
0000
0100
0000
1010
0000
,
0001
0000
1000
0000
1001
0000
0010
0100
0010
0000
0100
0000
,
0001
0000
1000
0000
0101
0000
1000
0000
0001
0000
1010
0000
,
0100
0000
0001
0000
1010
0000
0010
0000
1000
0000
0101
0000
,
0100
0000
0001
0000
1100
0000
0010
0000
1000
0000
0011
0000
,
0100
0000
0010
0000
0110
0000
1000
0000
0001
0000
1001
0000
,
0110
0000
0001
1000
0000
0001
0100
0000
0001
0010
0000
0000
,
1001
0000
0010
0001
0000
0100
0001
0000
1000
0001
0000
0000
,
1010
0000
0001
0100
0000
0000
0101
0000
1000
0010
0000
0000
,
1100
0100
0011
0010
,
0001
0000
1000
0020
0000
0000
0100
0000
0000
1030
0000
0000
,
0100
0000
0001
2000
0000
0000
0010
0000
0000
3001
0000
0000
,
1000
0000
0010
0200
0000
0000
0001
0000
0000
0310
0000
0000
,
0101
0001
1010
1000
,
0001
0000
0010
0002
0000
0000
0100
0000
0000
1003
0000
0000
,
0100
0000
0010
0200
0000
0000
1000
0000
0000
0301
0000
0000
,
0010
0000
1000
0020
0000
0000
0100
0000
0000
0031
0000
0000
,
0100
0001
1000
0110
,
1001
0000
0000
0100
0010
0100
0010
0000
0000
1001
0000
0000
,
0100
0000
0000
0110
0000
0000
0010
0000
1000
0001
0000
0000
,
0110
0000
0000
1000
0001
1000
0001
0000
0000
0110
0000
0000
,
1000
0000
0000
1001
0000
0000
0001
0000
1000
0001
0000
0100
,
0020
0000
0000
1030
0100
1000
0200
0000
0000
0310
0000
0000
,
0001
1000
0011
1100
,
0002
0000
0000
0103
0010
0100
0020
0000
0000
1030
0000
0000
,
0001
0000
0001
0000
0001
0000
0100
0000
0100
0000
0100
0000
,
0010
0000
0010
0000
0010
0000
2000
0000
0001
0000
3001
0000
,
0001
1000
0001
1000
0000
0100
0001
0000
0100
1000
0000
0000
,
0010
0100
0010
0100
0000
0001
0100
0000
0010
1000
0000
0000
,
0001
0100
0010
1000
0000
0010
0100
0000
0100
0010
0000
0000
,
0200
0000
0001
0000
0301
0000
0020
0000
1000
0000
1030
0000
,
1010
0000
0000
1100
0000
0000
0001
0100
0001
0100
0000
0000
,
0011
0000
0000
0101
0000
0000
1000
0010
1000
0010
0000
0000
,
0220
0000
0330
0000
;

//---------------dance-single - ----------------
#NOTES:
     dance-single:
     :
     Challenge:
     9:
     0.736,0.622,0.814,0.286,1.000:
0000
0000
0000
0000
,
1000
0100
1000
0100
0000
1000
0100
0001
0100
1000
0000
0000
,
0001
0010
0001
0010
0000
0001
0010
1000
0010
0001
0000
0000
,
0100
0010
0100
0010
0000
1000
0001
0100
0001
1000
0000
0000
,
0002
0000
0103
0000
0101
0000
2000
0000
3010
0000
1010
0000
,
0001
0010
0100
1000
0000
0001
1000
0100
0010
0001
0000
0000
,
1000
0010
0100
0001
0000
1000
0001
0100
0010
1000
0000
0000
,
0001
0100
0001
0100
0000
0010
1000
0010
1000
0010
0000
0000
,
1000
0100
1000
0200
0000
0000
0310
0001
0010
0002
0000
0000
,
1003
0010
1000
0020
0000
0000
0130
0001
0100
0002
0000
0000
,
1003
0000
0011
0000
0101
0000
0001
0000
1100
0000
1010
0000
,
0100
0000
1010
0000
0011
0000
0010
0000
0101
0000
1100
0000
,
0001
0000
0011
0000
0101
0000
1000
0000
1100
0000
1010
0000
,
0100
0000
1001
0000
0110
0000
1000
0010
0100
0010
0100
0001
,
1000
0000
1100
0000
0110
0000
0001
0000
0011
0000
0110
0000
,
0100
0000
0101
0000
1001
0000
0010
0000
1010
0000
1001
0000
,
0100
0000
0101
0000
1010
0000
0010
0000
1100
0000
0011
0000
,
1000
0000
0110
0000
0001
0000
0100
0000
1001
0000
0010
0100
,
0010
0000
1100
0000
0001
1000
0001
0000
1010
0000
0100
1000
,
0100
0000
0011
0000
1000
0010
1000
0000
0101
0000
0010
0001
,
0010
0000
0110
0000
1000
0001
1000
0000
1001
0000
0100
0010
,
0100
0000
1000
0000
0001
0000
0100
0001
1000
0010
1000
0001
,
0100
0000
1010
0000
0100
0001
0100
0000
0011
0000
1000
0001
,
1000
0000
0011
0000
1000
0001
1000
0000
1010
0000
0001
0100
,
0001
0000
0110
0000
1000
0001
1000
0000
0110
0000
0001
0100
,
0010
0000
1001
0000
0100
0000
0010
0000
1001
0000
0100
0000
,
0001
0100
0010
0200
0000
0000
0310
0100
0010
2000
0000
0000
,
3010
0100
0001
0020
0000
0000
0130
1000
0010
0200
0000
0000
,
0301
1000
0001
1000
0010
1000
0100
1000
0100
1000
0000
0000
,
0011
1100
0101
1010
,
1001
0000
0000
0110
0000
1000
0100
0000
0010
0001
0000
0000
,
1100
0000
0000
0012
0000
0000
1003
0000
0000
0100
0001
1000
,
0010
1001
0101
1010
,
0110
0000
1000
0100
0000
1000
0010
0000
1000
0001
0000
0000
,
0110
0000
0000
1001
0000
0010
1000
0000
0001
0100
0000
0000
,
0101
0000
0000
1020
0000
0000
0130
0000
0000
1000
0100
0010
,
0001
1100
0011
0110
,
1001
0000
0010
0001
0000
0100
0001
0000
1000
0001
0000
0000
,
2001
0000
0000
3001
0010
0001
0100
0010
0100
0010
1000
0010
,
2000
3001
1100
1010
,
1002
0000
0000
1003
0010
1000
0010
0100
0010
0100
0001
0100
,
0002
1003
0011
0101
,
0210
0000
0000
0310
1000
0010
0100
0001
0100
0010
0100
0010
,
0200
0310
0110
1001
,
0120
0000
0000
0130
0001
0100
0010
1000
0010
1000
0001
1000
,
0002
0000
1000
0000
1003
0000
2000
0000
0010
0000
3010
0000
,
0020
0000
0100
0000
0130
0000
0200
0000
0001
0000
0301
0000
,
0001
0100
0001
0100
0000
0001
0100
1000
0100
0001
0000
0000
,
1000
0010
1000
0010
0000
1000
0010
0001
0010
1000
0000
0000
,
0001
1000
0001
1000
0000
0001
0010
0100
0010
0001
0000
0000
,
2000
0000
3100
0000
1100
0000
0002
0000
0013
0000
0011
0000
,
1000
0001
0010
0100
0000
0010
0100
0010
0001
1000
0000
0000
,
0010
1000
0001
0100
0000
0010
0100
0001
1000
0010
0000
0000
,
2002
0000
3003
0000
;
