#TITLE:Pacman;
#SUBTITLE:;
#ARTIST:Topvibe Vs Dj Sy;
#TITLETRANSLIT:;
#SUBTITLETRANSLIT:;
#ARTISTTRANSLIT:;
#CREDIT:;
#BANNER:;
#BACKGROUND:;
#LYRICSPATH:;
#CDTITLE:;
#MUSIC:Pacman.mp3;
#OFFSET:-0.100;
#SAMPLESTART:68.040;
#SAMPLELENGTH:11.140;
#SELECTABLE:YES;
#DISPLAYBPM:173.000;
#BPMS:0.000=173.000,61.000=346.001,63.000=173.000,251.000=346.001,253.000=173.000;
#STOPS:32.000=0.260
,32.250=0.260
,32.500=0.260
,32.750=0.260
,61.000=0.260
,61.500=0.260
,62.000=0.260
,62.500=0.260
,251.000=0.260
,251.500=0.260
,252.000=0.260
,252.500=0.130
,252.750=0.130
;
#BGCHANGES:;

//---------------dance-single - ----------------
#NOTES:
     dance-single:
     :
     Hard:
     9:
     0.782,0.850,0.695,0.619,0.102:
0000
0000
0000
0000
,
1000
0001
0100
1000
0100
0001
2000
0000
,
3001
0000
1100
0000
0001
0100
0010
0000
,
1000
0010
0001
1000
0001
0010
1000
0000
,
0011
0000
1100
0000
0001
1000
1001
0000
,
0001
1000
0100
0001
0100
1000
0002
0000
,
1003
0000
0101
0000
1000
0100
0010
0000
,
0001
0010
1000
0001
1000
0010
0001
1000
,
0002
0203
0320
2030
3001
0000
0010
0000
0100
0000
1000
0000
0100
0000
0010
0000
,
0001
0100
0010
0000
1001
0000
0010
0100
,
0010
0100
0001
0100
0010
1000
0010
0100
,
0001
1000
0100
0000
1001
0000
0010
0100
,
0010
0100
1000
0010
0100
0001
0100
0010
,
1000
0100
0010
0000
1001
0000
0010
0100
,
0010
0100
1000
0100
0010
0001
0010
0100
,
1000
0001
0101
1010
1100
0012
1003
0000
,
0110
0001
0110
1000
,
0110
0000
0001
0000
0110
1000
0001
0000
,
0110
1000
0110
0001
,
0110
0000
1000
0000
0110
0001
1000
0000
,
0110
0001
0110
1000
,
0110
0000
0001
0000
0110
1000
0001
0000
,
0110
0000
1000
0001
0110
0000
1000
0100
,
0010
0001
0100
0010
1001
0000
0001
0000
,
0110
1000
0110
0001
,
0110
0000
1000
0000
0110
0001
1000
0000
,
0110
0001
0110
1000
,
0110
0000
0001
0000
0110
1000
0001
0000
,
0110
1000
0110
0001
,
0110
0000
1000
0000
0110
0001
1000
0000
,
0110
0000
0001
1000
0110
0000
0002
0000
,
0000
0000
0000
0000
1000
1000
1003
0100
,
0010
0000
0001
0000
0010
0100
0000
0000
2000
0000
0000
0000
3001
0000
0010
0000
,
0100
0000
1000
0000
0100
0010
0000
0000
0002
0000
0000
0000
1003
0000
0010
0000
,
0100
0000
0001
0000
0100
0010
0000
0000
2000
0000
0000
0000
3001
0010
0000
0000
,
0010
0100
0000
0000
0100
1000
0000
0000
0002
0000
0000
0000
1003
0000
0100
0000
,
0010
0000
0001
0000
0010
0100
0000
0000
2000
0000
0000
0000
3001
0000
0010
0000
,
0100
0000
1000
0000
0100
0010
0000
0000
0002
0000
0000
0000
1003
0000
0010
0000
,
0100
0000
0001
0000
0100
0010
0000
0000
2000
0000
0000
0000
3001
0010
0000
0000
,
0010
0100
0000
0000
0100
1000
0000
0000
0002
0000
0000
0000
1003
0000
0100
0000
,
0010
0000
0001
0000
0100
0010
0000
0000
2000
0000
0000
0000
3001
0000
0100
0000
,
0010
0000
1000
0000
0100
0010
0000
0000
0002
0000
0000
0000
1003
0000
0010
0000
,
0100
0000
0001
0000
0010
0100
0000
0000
2000
0000
0000
0000
3001
0100
0000
0000
,
0010
1000
0000
0000
0100
0010
0000
0000
0002
0000
0000
0000
1003
0000
0100
0000
,
0010
0000
0001
0000
0100
0010
0000
0000
2000
0000
0000
0000
3001
0000
0100
0000
,
0010
0000
1000
0000
0100
0010
0000
0000
0002
0000
0000
0000
1003
0000
0010
0000
,
0100
0000
0001
0000
0010
0100
0000
0000
2000
0000
0000
0000
3001
0000
0100
0000
,
0010
1000
0100
0010
1002
0000
1003
0100
,
1000
0100
0010
0001
0101
0000
0001
0100
,
0001
0100
0010
1000
1100
0000
1000
0010
,
1000
0010
0100
0001
0011
0000
0001
0010
,
0100
1000
0100
0010
1001
0000
0001
0100
,
0001
0100
0010
1000
1100
0000
1000
0100
,
1000
0100
0010
0001
0101
0000
0001
0010
,
0001
0010
0100
1000
1010
0000
1000
0010
,
0100
0001
0100
0010
1001
0000
1000
0100
,
0001
0100
1000
0100
0001
0100
1000
0010
,
0100
0001
1000
0010
0100
0001
1000
0010
,
0001
0010
1000
0010
0001
0010
1000
0100
,
0010
0001
1000
0100
0011
0000
0001
0010
,
1000
0010
0001
0010
1000
0010
0001
0100
,
0010
1000
0001
0100
0010
1000
0001
0100
,
1000
0100
0001
0100
1000
0100
0001
0010
,
0100
0000
1000
1001
0001
0000
0000
0000
1000
0000
0000
0000
0100
0000
0000
0000
,
0010
0000
0022
0033
0202
0303
2020
3030
,
2100
3100
1000
0000
0100
0000
0010
0000
,
0001
0000
0202
0303
2020
3030
2200
3300
,
0021
0031
0001
0000
0110
0000
1000
0000
,
0110
0000
0022
0033
0202
0303
2020
3030
,
2100
3100
1000
0000
0110
0000
0001
0000
,
0110
0000
2001
0001
0001
0001
0001
0001
,
3001
0001
0001
0100
1000
0100
0001
0100
,
1000
0100
0022
0033
2200
3300
2020
3030
,
0202
0303
1000
0100
0001
0100
1000
0100
,
0001
0100
2020
3030
0202
0303
0022
0033
,
2200
3300
0001
0010
1000
0010
0001
0010
,
1000
0010
0202
0303
2020
3030
0022
0033
,
2200
3300
1000
0010
0001
0010
1000
0010
,
0001
0010
2000
0000
0000
0000
0000
0000
,
3001
0001
0220
0000
0000
0000
0000
0000
,
0000
0330
0000
0000
;

//---------------dance-single - xRGTMx----------------
#NOTES:
     dance-single:
     xRGTMx:
     Medium:
     8:
     0.639,0.816,0.653,0.508,0.013:
0000
0000
0000
0000
,
1001
0000
1000
0000
0100
0010
0100
0000
,
0010
0100
1100
0000
,
1000
0000
0001
0000
0100
0010
0100
0000
,
0010
0100
1001
0000
,
1000
0000
0100
0000
0001
0100
1000
0000
,
0001
1000
1001
0000
,
0001
0000
0010
0000
0100
1000
0100
0000
,
1000
1000
0001
0001
1000
0000
0000
0000
0100
0000
0000
0000
0010
0000
0100
0000
,
1000
0012
0100
1003
,
0100
0000
0001
0000
0100
0000
0010
0100
,
0001
1020
0100
0001
,
0130
0000
1000
0000
0001
0000
1000
0100
,
0010
1001
0020
0230
,
2300
3001
0100
1000
,
0100
0000
0001
0010
0100
1000
0001
0000
,
0110
1000
0110
0001
,
0110
1000
1001
1000
,
0110
0001
0110
1000
,
0110
0001
1001
0001
,
0110
1000
0110
0001
,
0110
1000
1001
1000
,
0110
0001
0110
1000
,
0110
1001
0110
0001
,
0110
1000
0110
0001
,
0110
1000
1001
1000
,
0110
0001
0110
1000
,
0110
0001
1001
0001
,
0110
1000
0110
0001
,
0110
1000
1001
1000
,
0110
0001
0110
2002
,
0000
0000
0000
0000
3000
0000
1003
0100
,
0010
0001
0010
0000
0100
0000
1000
0100
,
0010
0001
0010
0000
0100
0000
1000
0100
,
0010
0001
0010
0000
0100
0000
1000
0100
,
0010
0000
0010
0001
1000
0000
0001
0100
,
0010
1000
0010
0000
0100
0000
0001
0100
,
0010
1000
0010
0000
0100
0000
0001
0100
,
0010
1000
0010
0000
0100
0000
0001
0100
,
0010
0000
0010
1000
0001
0000
1000
0100
,
0001
0100
1000
0000
0001
0000
1000
0100
,
0001
0100
1000
0000
0001
0000
1000
0100
,
0001
0100
1000
0000
0001
0000
1000
0100
,
0001
0000
0001
0100
1000
0000
0001
0100
,
1000
0100
0001
0000
1000
0000
0001
0100
,
1000
0100
0001
0000
1000
0000
0001
0100
,
1000
0100
0001
0000
0100
0000
0001
0100
,
1000
0000
1000
0100
0001
0000
0001
0010
,
0100
0000
1000
0000
1001
0000
1000
0010
,
0100
0000
0001
0000
1001
0000
0001
0100
,
0010
0000
1000
0000
1001
0000
1000
0100
,
0010
0000
0010
0001
1000
0000
1000
0010
,
0100
0000
0001
0000
1001
0000
0001
0010
,
0100
0000
1000
0000
1001
0000
1000
0100
,
0010
0000
0001
0000
1001
0000
0001
0100
,
0010
0000
0010
1000
0001
0000
1000
0100
,
0010
0001
0100
0000
1001
0000
0001
0100
,
0010
1000
0100
0000
1001
0000
1000
0010
,
0100
0001
0010
0000
1001
0000
0001
0010
,
0100
1000
0010
0010
0010
0000
0001
0100
,
0010
1000
0100
0000
1001
0000
1000
0100
,
0010
0001
0100
0000
1001
0000
0001
0010
,
0100
1000
0010
0000
1001
0000
0001
0010
,
0100
0000
1000
0001
1000
0000
0000
0000
0001
0000
0000
0000
1000
0000
0000
0000
,
0001
0000
2002
3003
0220
0330
2002
3003
,
0220
0330
0001
0000
1000
0000
0001
0000
,
1000
0000
0220
0330
2002
3003
0220
0330
,
2002
3003
1000
0100
0001
0000
1000
0100
,
0001
0000
2002
3003
0220
0330
2002
3003
,
0220
0330
0001
0100
1000
0000
0001
0100
,
1000
2002
0000
0000
,
3003
0000
1000
0100
0010
0001
0100
0010
,
1000
0000
2002
3003
0220
0330
2002
3003
,
0220
0330
0001
0100
0010
1000
0100
0010
,
0001
0000
2002
3003
0220
0330
2002
3003
,
0220
0330
1000
0010
0100
0001
0010
0100
,
1000
0000
2002
3003
0220
0330
2002
3003
,
0220
0330
0001
0010
0100
1000
0010
0100
,
0001
1000
2002
0000
0000
0000
0000
0000
,
3000
0203
0000
0000
,
0000
0300
0000
0000
;

//---------------dance-single - xRGTMx----------------
#NOTES:
     dance-single:
     xRGTMx:
     Easy:
     6:
     0.465,0.476,0.695,0.110,0.008: // measure 1
0000
0000
0000
0000
,  // measure 2
1000
0100
0010
0100
,  // measure 3
2100
0100
3010
0001
,  // measure 4
0001
0100
0010
0100
,  // measure 5
0102
0100
0013
1000
,  // measure 6
1000
0100
0001
0100
,  // measure 7
2100
0010
0001
3100
,  // measure 8
0001
0100
1000
0100
,  // measure 9
0001
0001
0001
0001
0001
0000
0000
0000
0100
0000
0000
0000
1000
0000
0000
0000
,  // measure 10
0100
0001
0010
2100
,  // measure 11
3010
0001
0010
1000
,  // measure 12
0010
0001
0100
2010
,  // measure 13
3100
1000
0010
0001
,  // measure 14
0100
1000
0010
1002
,  // measure 15
0013
1000
0100
0010
,  // measure 16
0001
0000
1000
1000
0001
0001
1000
0000
,  // measure 17
0100
0011
0100
1000
,  // measure 18
0100
0011
0100
1000
,  // measure 19
0100
0011
0100
1000
,  // measure 20
0011
1100
0011
0001
,  // measure 21
0100
1010
0100
0001
,  // measure 22
0100
1010
0100
0001
,  // measure 23
0100
1010
0100
0001
,  // measure 24
1010
0101
1010
1000
,  // measure 25
0001
0110
1000
0001
,  // measure 26
1000
0110
0001
1000
,  // measure 27
0001
0110
1000
0001
,  // measure 28
0110
1001
0110
1000
,  // measure 29
0001
0110
1000
0001
,  // measure 30
0110
1000
0110
0001
,  // measure 31
0110
1001
0110
2002
,  // measure 32
0000
0000
0003
3001
,  // measure 33
0000
1100
0000
0010
,  // measure 34
0000
0101
0000
1000
,  // measure 35
0000
0011
0000
1100
,  // measure 36
0000
1001
0000
1000
,  // measure 37
0000
0101
0000
0010
,  // measure 38
0000
1100
0000
0001
,  // measure 39
0000
1010
0000
0101
,  // measure 40
0000
1001
0000
0001
,  // measure 41
0010
1100
0000
0010
,  // measure 42
1000
0101
0000
1000
,  // measure 43
0100
0011
0000
1100
,  // measure 44
0010
1001
0000
1000
,  // measure 45
0010
0101
0000
0010
,  // measure 46
0001
1100
0000
0001
,  // measure 47
0100
1010
0000
0101
,  // measure 48
1010
1100
0011
1000
,  // measure 49
0010
1000
0010
0100
,  // measure 50
0001
0100
0001
1000
,  // measure 51
0100
1000
0100
0010
,  // measure 52
0001
0010
0001
1000
,  // measure 53
0010
0100
0001
1000
,  // measure 54
0100
0010
0001
1000
,  // measure 55
0010
0100
0001
1000
,  // measure 56
0100
0010
1001
0001
,  // measure 57
0100
1000
1100
1000
,  // measure 58
0100
0001
0101
0001
,  // measure 59
0010
1000
1010
1000
,  // measure 60
0010
0001
0011
0001
,  // measure 61
0100
1000
1010
1000
,  // measure 62
0100
0001
0011
0001
,  // measure 63
0100
0000
0010
0000
1001
0000
1000
1000
,  // measure 64
1000
1001
0001
0000
0001
0000
1000
0000
,  // measure 65
1000
0110
1001
0110
,  // measure 66
1001
1000
1000
0001
,  // measure 67
0001
0110
1001
0110
,  // measure 68
1001
0001
0001
1000
,  // measure 69
1000
0110
1001
0110
,  // measure 70
1001
1000
1000
0001
,  // measure 71
0001
2002
0000
3003
,  // measure 72
0000
1000
0100
0001
,  // measure 73
0100
1000
1001
0001
,  // measure 74
1001
0001
0100
1000
,  // measure 75
0100
0001
1001
1000
,  // measure 76
1001
1000
0010
0001
,  // measure 77
0010
1000
1001
0001
,  // measure 78
1001
0001
0010
1000
,  // measure 79
0010
2002
0000
3003
,  // measure 80
0000
0020
0000
0000
,  // measure 81
0000
0030
0000
0000
;
