#TITLE:X-TREME;
#SUBTITLE:;
#ARTIST:BanYa;
#TITLETRANSLIT:;
#SUBTITLETRANSLIT:;
#ARTISTTRANSLIT:;
#CREDIT:348;
#BANNER:;
#BACKGROUND:;
#LYRICSPATH:;
#CDTITLE:;
#MUSIC:X-TREME.mp3;
#OFFSET:-1.445;
#SAMPLESTART:1.425;
#SAMPLELENGTH:15.000;
#SELECTABLE:YES;
#BPMS:0.000=162.000,156.000=81.000,171.000=162.000;
#STOPS:156.000=2.222
,171.000=1.111
;
#BGCHANGES:;

//---------------dance-single - ----------------
#NOTES:
     dance-single:
     :
     Beginner:
     1:
     0.096,0.144,0.000,0.000,0.000: // measure 1
0000
0000
0000
0000
,  // measure 2
0000
0000
0000
0000
,  // measure 3
0000
0000
0000
0000
,  // measure 4
0000
0000
0000
0000
,  // measure 5
1000
0000
0000
0000
,  // measure 6
0001
0000
0001
0000
,  // measure 7
0100
0000
0000
0000
,  // measure 8
0010
0000
0010
0000
,  // measure 9
0100
0000
0000
0000
,  // measure 10
0001
0000
0000
0000
,  // measure 11
1000
0000
0000
0000
,  // measure 12
0010
0000
0000
0000
,  // measure 13
0100
0000
0000
0000
,  // measure 14
0100
0000
0000
0000
,  // measure 15
0010
0000
0000
0000
,  // measure 16
0010
0000
0000
0000
,  // measure 17
1000
0000
0000
0000
,  // measure 18
1000
0000
0000
0000
,  // measure 19
0001
0000
0000
0000
,  // measure 20
0001
0000
0000
0000
,  // measure 21
1000
0000
0001
0000
,  // measure 22
0000
0000
0000
0000
,  // measure 23
0001
0000
1000
0000
,  // measure 24
0000
0000
0000
0000
,  // measure 25
0010
0000
0100
0000
,  // measure 26
0000
0000
0000
0000
,  // measure 27
0100
0000
0010
0000
,  // measure 28
0100
0000
0000
0000
,  // measure 29
0100
0000
0000
0000
,  // measure 30
0000
0001
0000
0001
,  // measure 31
0000
0000
0000
0000
,  // measure 32
0000
1000
0000
1000
,  // measure 33
0000
0000
0000
0000
,  // measure 34
0000
0010
0000
0010
,  // measure 35
0000
0000
0000
0000
,  // measure 36
0100
0000
0000
0000
,  // measure 37
0010
0000
0000
0000
,  // measure 38
0010
0000
0000
0000
,  // measure 39
0010
0000
0000
0000
,  // measure 40
0010
0000
0000
0000
,  // measure 41
1000
0000
0000
0000
,  // measure 42
0001
0000
0000
0000
,  // measure 43
0100
0000
0000
0001
,  // measure 44
0000
0000
0000
0000
,  // measure 45
0100
0000
0100
0000
,  // measure 46
0100
0000
0000
0000
,  // measure 47
0010
0000
0010
0000
,  // measure 48
0010
0000
0000
0000
,  // measure 49
1000
0000
0001
0000
,  // measure 50
1000
0000
0000
0000
,  // measure 51
0001
0000
0000
0000
,  // measure 52
0001
0001
0000
0000
,  // measure 53
1000
0000
1000
0000
,  // measure 54
1000
1000
0000
0000
,  // measure 55
0001
0000
0001
0000
,  // measure 56
0100
0100
0000
0000
,  // measure 57
0010
0000
0010
0000
,  // measure 58
0100
0000
0000
0000
,  // measure 59
0010
0000
0010
0000
,  // measure 60
0100
0000
0000
0000
;

//---------------dance-single - ----------------
#NOTES:
     dance-single:
     :
     Easy:
     4:
     0.287,0.319,0.166,0.127,0.000: // measure 1
0000
0000
0000
0000
,  // measure 2
0000
0000
0000
0000
,  // measure 3
0000
0000
0000
0000
,  // measure 4
0000
0000
0000
0000
,  // measure 5
0001
1000
0001
1000
,  // measure 6
0010
0000
0010
0000
,  // measure 7
0100
0010
0100
0010
,  // measure 8
0100
0000
0100
0100
,  // measure 9
0010
1000
0100
1000
,  // measure 10
0001
0010
0001
0100
,  // measure 11
0001
0010
0100
1000
,  // measure 12
0002
0000
1000
0003
,  // measure 13
1000
0000
0001
0010
,  // measure 14
1000
0010
0001
0000
,  // measure 15
0100
0000
0010
0000
,  // measure 16
0100
0010
0100
0100
,  // measure 17
0001
0000
1000
0100
,  // measure 18
0001
0100
1000
0000
,  // measure 19
0001
0000
1000
0000
,  // measure 20
0001
1000
0001
1000
,  // measure 21
1000
0100
1000
0100
,  // measure 22
0011
0000
1100
0000
,  // measure 23
0001
0010
0001
0010
,  // measure 24
0101
0000
1010
0000
,  // measure 25
0010
0100
0010
0100
,  // measure 26
1001
0000
0110
0000
,  // measure 27
1000
0001
1000
0001
,  // measure 28
2000
0000
0001
3001
,  // measure 29
0001
1000
0011
0000
,  // measure 30
0200
0000
0310
0010
,  // measure 31
1000
0001
1100
0000
,  // measure 32
0020
0000
0130
0100
,  // measure 33
0010
0100
1001
0000
,  // measure 34
0002
0000
2003
3001
,  // measure 35
0001
0100
1000
0100
,  // measure 36
0002
0000
1000
1003
,  // measure 37
1000
0100
0010
0001
,  // measure 38
1000
0010
0100
0001
,  // measure 39
1000
0001
1000
0001
,  // measure 40
1001
0000
1000
0000
,  // measure 41
0100
0000
0100
0000
,  // measure 42
0010
0000
0010
0000
,  // measure 43
0001
0000
0001
0001
,  // measure 44
0001
0000
1000
0100
,  // measure 45
0001
0100
1000
0001
,  // measure 46
1000
0000
0001
0010
,  // measure 47
1000
0010
0001
0010
,  // measure 48
0001
0000
1000
0100
,  // measure 49
0001
0010
1000
0001
,  // measure 50
0200
0310
0020
0130
,  // measure 51
0200
0000
0010
0310
,  // measure 52
0001
0001
0001
0100
,  // measure 53
0000
0101
0000
1100
,  // measure 54
1000
1000
1000
0010
,  // measure 55
0000
1010
0000
0011
,  // measure 56
0001
0100
0010
0010
,  // measure 57
0000
0110
0000
1001
,  // measure 58
0100
0100
0010
1000
,  // measure 59
0020
0000
0100
0130
,  // measure 60
0220
0000
0330
0000
;

//---------------dance-single - ----------------
#NOTES:
     dance-single:
     :
     Medium:
     5:
     0.353,0.348,0.254,0.137,0.000: // measure 1
0000
0000
0000
0000
,  // measure 2
0000
0000
0000
0000
,  // measure 3
0000
0000
0000
0000
,  // measure 4
0000
0000
0000
0000
,  // measure 5
1000
0001
0100
0010
,  // measure 6
2000
0001
0000
0001
,  // measure 7
3001
0000
1000
0000
0010
0100
0010
0000
,  // measure 8
0110
0000
1001
0110
,  // measure 9
0001
1000
0001
1010
,  // measure 10
1000
0001
1000
0101
,  // measure 11
0100
0000
0010
0000
1000
0001
1000
0000
,  // measure 12
0011
0000
1100
1001
,  // measure 13
0001
0000
1000
0000
0001
0010
0001
0000
,  // measure 14
1000
0100
0001
0010
,  // measure 15
1000
0000
0001
0000
1000
0100
1000
0000
,  // measure 16
0001
0100
1000
0010
,  // measure 17
0001
0000
0100
0000
0010
0100
0010
0000
,  // measure 18
0100
0001
1000
0010
,  // measure 19
0100
0000
0010
0000
1000
0100
1000
0000
,  // measure 20
0002
0010
0100
1003
,  // measure 21
0001
0011
0001
0101
,  // measure 22
0100
0110
0000
0110
,  // measure 23
1000
1010
1000
1100
,  // measure 24
0001
1001
0000
1001
,  // measure 25
0001
0101
1000
1010
,  // measure 26
0001
2000
0000
3001
,  // measure 27
0001
0010
0001
0000
1000
0100
1000
0000
,  // measure 28
0020
0000
0100
0130
,  // measure 29
1000
0002
0000
0103
,  // measure 30
0100
0020
0000
1030
,  // measure 31
1000
0200
0000
1300
,  // measure 32
0001
0000
1001
1001
,  // measure 33
0001
0200
0000
0310
,  // measure 34
1000
2000
0000
3001
,  // measure 35
0100
0200
0000
0310
,  // measure 36
0110
0000
0002
1003
,  // measure 37
0001
0000
0010
0000
0000
0010
0001
0000
,  // measure 38
1000
0000
0100
0000
0000
0100
1000
0000
,  // measure 39
1000
0001
0000
0100
,  // measure 40
0110
1000
1000
1000
,  // measure 41
0000
0001
0001
0001
,  // measure 42
0000
0100
0100
0100
,  // measure 43
0000
0010
0010
0010
,  // measure 44
1000
0000
0001
0100
0001
0000
1000
0000
,  // measure 45
0001
0000
0001
1000
,  // measure 46
0001
0000
1000
0100
1000
0000
0001
0000
,  // measure 47
1000
0000
0010
0100
,  // measure 48
0010
0000
0100
0010
0100
0000
0010
0000
,  // measure 49
0100
0000
0001
0100
,  // measure 50
0001
1000
0001
0010
,  // measure 51
0002
0000
0100
1003
,  // measure 52
1000
0000
0100
0000
0010
0000
0001
0010
,  // measure 53
0001
0010
0100
1000
,  // measure 54
0001
0000
0100
0000
0010
0000
1000
0010
,  // measure 55
1000
0010
0100
0001
,  // measure 56
1000
0000
0100
0000
0001
0000
0100
1000
,  // measure 57
0100
0001
0100
1000
,  // measure 58
0001
0100
0001
0000
1000
0010
1000
0000
,  // measure 59
1001
0000
0110
0110
,  // measure 60
2002
0000
3003
0000
;

//---------------dance-single - ----------------
#NOTES:
     dance-single:
     :
     Hard:
     7:
     0.527,0.464,0.303,0.215,0.093: // measure 1
0000
0000
0000
0000
,  // measure 2
0000
0000
0000
0000
,  // measure 3
0000
0000
0000
0000
,  // measure 4
0000
0000
0000
0000
,  // measure 5
1000
0000
0000
0000
0001
0000
0000
1000
0000
0000
0010
0000
0100
0000
0000
0000
,  // measure 6
0001
0010
0001
0000
0100
0010
0100
0000
,  // measure 7
0010
0000
0000
0000
0100
0000
0000
0010
0000
0000
1000
0000
0001
0000
0000
0000
,  // measure 8
1000
0100
0001
0100
1000
0000
1001
0000
,  // measure 9
0001
0010
0001
0100
0010
1000
0100
0000
,  // measure 10
1010
1100
1010
0011
,  // measure 11
1000
0100
1000
0010
0100
0001
0010
0000
,  // measure 12
2002
3003
0101
1100
,  // measure 13
0001
0010
0100
0010
0001
0000
1100
0000
,  // measure 14
0010
0100
0010
1000
0001
0100
0001
1000
,  // measure 15
0100
0000
1000
0010
0100
0010
1000
0001
,  // measure 16
0200
0000
0310
0000
0001
1000
0001
0000
,  // measure 17
1000
0100
0010
0100
1000
0000
0011
0000
,  // measure 18
0100
0001
1000
0010
0100
0001
0010
0001
,  // measure 19
1000
0000
0010
0100
0001
0100
0010
1000
,  // measure 20
0100
1010
0110
0101
,  // measure 21
2000
0000
0000
0000
0100
0000
0000
3100
0000
0000
0100
0000
1000
0000
0000
0000
,  // measure 22
0001
0100
0010
0000
0100
0010
1000
0000
,  // measure 23
0002
0000
0000
0000
0010
0000
0000
0013
0000
0000
0010
0000
0001
0000
0000
0000
,  // measure 24
1000
0100
0010
0000
0100
0010
0001
0000
,  // measure 25
2000
0000
0000
0000
0001
0000
0000
3001
0000
0000
0001
0000
1000
0000
0000
0000
,  // measure 26
0010
0100
0001
0000
1000
0010
0100
0000
,  // measure 27
0001
0010
0100
1000
0100
0010
0001
0000
,  // measure 28
2200
0000
0000
0000
3300
0000
0000
0000
0001
1000
0000
0000
0011
0000
0000
0000
,  // measure 29
1000
0100
0001
0100
1000
0100
0001
0100
,  // measure 30
2000
0100
0010
3001
,  // measure 31
0001
0010
1000
0010
0001
0010
1000
0010
,  // measure 32
0002
0010
0100
1003
,  // measure 33
1000
0100
0001
1000
0010
0001
1000
0001
,  // measure 34
0200
0010
0010
0310
,  // measure 35
0001
0010
1000
0000
0001
0100
1000
0000
,  // measure 36
0001
0100
0010
1000
0010
0000
0110
0000
,  // measure 37
1000
0100
1000
0010
1000
0001
1000
0001
,  // measure 38
0100
0012
1003
0110
,  // measure 39
0001
0010
0001
0100
0001
1000
0001
1000
,  // measure 40
0100
0000
0000
0000
1000
1000
0000
0000
0001
0001
0000
0000
0100
0000
0000
0000
,  // measure 41
0010
0010
0000
0000
0100
0100
0000
0000
0001
0000
0010
0000
0100
0000
1000
0000
,  // measure 42
0001
0000
0000
0000
0100
0100
0000
0000
0001
0001
0000
0000
1000
0000
0000
0000
,  // measure 43
0010
0000
0000
0000
1000
1000
0000
0000
0010
0010
0000
0000
0110
0000
0000
0000
,  // measure 44
1002
0000
0103
0000
0001
0010
1000
0010
,  // measure 45
0001
1000
0100
0010
1000
0000
0110
0000
,  // measure 46
2001
0000
3100
0000
1000
0100
0010
0100
,  // measure 47
1000
0100
0010
0001
0100
0000
0110
0000
,  // measure 48
0120
0000
0130
0000
1000
0001
1000
0010
,  // measure 49
0100
0010
1000
0001
1000
0000
1001
0000
,  // measure 50
0010
1000
0010
0000
0100
0001
0100
0000
,  // measure 51
0001
0000
1000
0000
0001
0000
0000
0000
0100
0010
0000
0000
1001
0000
0000
0000
,  // measure 52
0200
0000
0000
0000
0010
0000
0000
0301
0000
0000
0001
0000
1000
0000
0000
0000
,  // measure 53
0001
0010
1000
0010
0001
0000
0110
0000
,  // measure 54
0020
0000
0000
0000
0100
0000
0000
1030
0000
0000
1000
0000
0001
0000
0000
0000
,  // measure 55
1000
0100
0001
0100
1000
0000
0110
0000
,  // measure 56
0002
0000
0000
0000
0100
0000
0000
1003
0000
0000
0010
0000
0100
0000
0000
0000
,  // measure 57
0001
1000
0100
0000
0100
1000
0001
0000
,  // measure 58
1000
0100
0010
0001
1000
0001
1000
0000
,  // measure 59
2002
0000
0000
0000
3003
0000
0000
0000
1000
0001
0000
0000
0110
0000
0000
0000
,  // measure 60
0220
0000
0330
0000
;

//---------------dance-single - ----------------
#NOTES:
     dance-single:
     :
     Challenge:
     9:
     0.682,0.813,0.234,0.273,0.444: // measure 1
0000
0000
0000
0000
,  // measure 2
0000
0000
0000
0000
,  // measure 3
0000
0000
0000
0000
,  // measure 4
0000
0000
0000
0000
,  // measure 5
1000
0000
0001
0000
0100
0000
0001
1000
0000
0001
1000
0000
0001
0000
0010
0000
,  // measure 6
0002
0000
1003
0100
0001
0100
1000
0000
,  // measure 7
0001
0000
0010
0000
0001
0000
0100
0010
0000
1000
0010
0000
1000
0000
0100
0000
,  // measure 8
1000
0000
0000
0000
0110
0000
0000
0000
1000
0000
0001
0010
0000
0100
1000
0000
,  // measure 9
0001
0010
0001
0100
0010
1000
0100
1000
,  // measure 10
0100
0010
0100
1000
0100
0001
0100
1000
,  // measure 11
0001
0000
0010
0000
1000
0000
0010
0000
0001
0000
0010
0000
0100
1000
0100
1000
,  // measure 12
0200
0000
0300
0000
1000
0100
0011
0000
,  // measure 13
1000
0100
1000
0000
0000
0000
0001
0010
0001
0000
0000
0000
1000
0001
1000
0000
,  // measure 14
0001
0010
0100
0010
0001
1000
0100
0010
,  // measure 15
0001
0010
0001
0000
0000
0000
1000
0100
1000
0000
0000
0000
0001
1000
0001
0000
,  // measure 16
1000
0000
0100
0000
0010
0000
0100
0000
1000
0100
0000
0100
1000
0000
0001
0000
,  // measure 17
0100
0001
0100
0000
0000
0000
0010
1000
0010
0000
0000
0000
0100
0010
0100
0000
,  // measure 18
0001
0010
1000
0010
0001
0100
0010
1000
,  // measure 19
0100
1000
0100
0000
0000
0000
0010
0001
0010
0000
0000
0000
0100
0010
0100
0000
,  // measure 20
0010
0000
0001
0000
1000
0000
0010
0100
0000
0100
0010
0000
1000
0000
0001
0000
,  // measure 21
0010
0000
0000
0000
0011
0000
0000
1001
0000
0000
0010
0100
0010
0000
1000
0000
,  // measure 22
0001
0010
1000
0001
0100
1000
0001
1000
,  // measure 23
0100
0000
0000
0000
1100
0000
0000
1001
0000
0000
0100
0010
0100
0000
0001
0000
,  // measure 24
1000
0100
1000
0010
0100
0001
0010
0001
,  // measure 25
1000
0000
0000
0000
1001
0000
0000
0110
0000
0000
1000
0001
1000
0000
0001
0000
,  // measure 26
0010
0100
1000
0100
0010
0001
1000
0001
,  // measure 27
2000
0000
0000
0000
0001
0000
0000
0001
0000
0000
3001
0000
1000
0000
0000
0000
,  // measure 28
0220
0000
0000
0000
0330
0000
0000
0000
0001
0000
1000
0010
0000
0100
0001
0000
,  // measure 29
1000
0100
0100
1000
0001
0010
0001
0100
,  // measure 30
0002
0000
0000
0000
2003
0000
0000
0000
3010
0100
0000
0000
1001
0000
0000
0000
,  // measure 31
0010
1000
1000
0100
1000
0010
1000
0001
,  // measure 32
0200
0000
0000
0000
0320
0000
0000
0000
1030
0001
0000
0000
0110
0000
0000
0000
,  // measure 33
0001
0100
0100
0001
0100
0010
1000
0010
,  // measure 34
2000
0000
0000
0000
3020
0000
0000
0000
0130
0001
0000
0000
1001
0000
0000
0000
,  // measure 35
0010
0001
0100
0010
1000
0100
1000
0001
,  // measure 36
2002
0000
0000
0000
3003
0000
0000
0000
0100
0000
0001
1000
0000
0001
1000
0000
,  // measure 37
0010
1000
0100
0010
0001
0100
1000
0010
,  // measure 38
0001
1000
0000
0001
0000
0100
0000
0010
0000
0100
0000
0001
0000
1000
0000
0001
,  // measure 39
1000
0001
0100
1000
0100
0001
1000
0001
,  // measure 40
1001
0000
0020
0000
1030
0100
2000
0000
0000
0000
3001
0000
0100
0010
0100
0000
,  // measure 41
0002
1000
0000
0000
1003
0010
1000
0000
2000
0001
0000
0000
3001
0010
0001
0000
,  // measure 42
1000
0001
0000
1100
0000
0011
0000
1001
0000
0201
0000
0310
0000
1020
0000
0130
,  // measure 43
0000
2001
0000
3010
0000
1002
0000
0103
0001
0010
0100
1000
0002
0000
0000
0000
,  // measure 44
1003
0000
0001
1000
0000
0001
1000
0000
0001
0000
0010
0000
0100
0000
0010
0000
,  // measure 45
0001
0000
1000
0010
0000
0100
0001
0000
1000
0000
0001
0000
1000
0000
0000
0000
,  // measure 46
0001
0000
0100
0010
0000
0100
0010
0000
1000
0000
0001
0000
0100
0000
0001
0000
,  // measure 47
1000
0100
0001
0100
1000
0100
0001
0100
,  // measure 48
1000
0000
0001
0100
0000
0010
1000
0000
0001
0000
0010
0000
0001
0000
0100
0000
,  // measure 49
0010
0000
1000
0100
0000
0010
0100
0000
1000
0000
0001
0000
1000
0000
0000
0000
,  // measure 50
0001
0000
0010
0000
0001
0000
1000
0100
0000
0100
1000
0000
0001
0000
0010
0000
,  // measure 51
2200
0000
0000
0000
3300
0000
0000
0000
0001
0000
1000
0001
0000
0001
0100
0000
,  // measure 52
0010
0000
1000
0000
0001
0000
1000
0000
0010
0000
0100
0000
0001
1000
0001
0000
,  // measure 53
1000
0000
0100
0000
0010
0000
0100
1000
0000
0001
0010
0000
0001
0000
0100
0000
,  // measure 54
0001
0000
0010
0000
0100
0000
1000
0000
0001
0000
1000
0000
0010
0100
0010
0000
,  // measure 55
1000
0000
0100
0000
1000
0000
0001
0100
0000
0010
1000
0000
0001
0000
0100
0000
,  // measure 56
0010
0000
0100
0000
0001
0000
0100
0000
1000
0000
0100
0000
0010
0100
0010
0000
,  // measure 57
1000
0000
0100
0000
0010
0000
0001
1000
0000
0100
0010
0000
0001
0000
1000
0000
,  // measure 58
0001
0010
1000
0010
0001
1000
0100
0010
,  // measure 59
2002
0000
0000
0000
3003
0000
0000
0000
0010
0100
0010
0100
0010
0000
0000
0000
,  // measure 60
2002
0000
3003
0000
;
