#TITLE:Utopia;
#SUBTITLE:;
#ARTIST:☺;
#TITLETRANSLIT:;
#SUBTITLETRANSLIT:;
#ARTISTTRANSLIT:;
#CREDIT:;
#BANNER:utopia-banner.png;
#BACKGROUND:Utopia-bg.png;
#LYRICSPATH:;
#CDTITLE:;
#MUSIC:Smiley - Utopia.ogg;
#OFFSET:0.004;
#SAMPLESTART:40.420;
#SAMPLELENGTH:11.540;
#SELECTABLE:YES;
#BPMS:0.000=166.000,324.000=148.540,324.500=144.360,325.000=134.180,325.500=130.000,326.000=120.000,326.500=110.000,327.000=98.600,327.500=88.000;
#STOPS:;
#BGCHANGES:;

//---------------dance-single - ----------------
#NOTES:
     dance-single:
     :
     Hard:
     9:
     0.642,0.600,0.137,0.217,0.120:
0000
0000
0000
0000
,
0000
0000
0000
0000
,
1000
0100
0010
0001
0010
0100
1000
1000
,
0000
0100
0100
0010
0010
0001
0001
0100
,
0010
1000
0100
0010
0100
0010
0001
0020
,
0000
0000
0130
0000
0000
0000
1000
0010
1000
0000
0100
0000
0010
0000
0001
0000
,
1000
0001
0010
0001
0010
0100
1000
0001
,
0000
0100
0010
1000
1010
0000
0101
0000
,
0001
0100
1000
0100
0001
0010
0100
2000
,
0000
0000
3100
0000
0000
0000
0010
0001
0010
0000
0100
0000
1000
0000
0010
0000
,
0001
0010
1000
0100
0010
0001
0100
0001
,
0000
1000
0010
0001
0010
1000
0100
0001
,
0100
0100
1000
1000
0100
0100
0010
0002
,
0000
0000
2003
0000
0000
0000
3010
0100
0010
0000
1000
0000
0100
0000
0010
0000
,
0001
0100
0010
0100
1000
0100
0010
1000
,
0000
0100
0010
0001
0100
1000
0100
0001
,
0010
0000
0100
0000
1000
0010
0100
0001
,
0000
0100
0010
0000
1000
0010
0100
0001
,
0100
0000
0100
0010
1000
0010
0100
0001
,
0100
0010
1000
0000
1000
0000
0000
0000
0001
0000
0100
0000
1000
0000
0100
0000
,
0001
0000
0010
0000
0100
0000
0001
1000
,
0010
0000
0000
0000
0100
0000
0000
0000
0001
0000
0000
0001
0010
0000
0100
1000
,
0100
0000
0010
0000
0001
0000
1000
0010
,
0001
0000
0000
0000
0010
0000
0000
0000
1000
0000
0000
0100
0010
0000
0010
0001
,
0010
0000
0100
1000
0010
0100
0001
0100
,
0010
1000
0000
1000
0100
0000
0010
0000
0010
0000
0000
0010
0000
0000
0100
0000
,
1000
0000
0000
0010
1000
0000
0100
0010
0100
0000
0010
0000
0001
0000
0100
0000
,
0010
0000
1000
0000
0010
0000
0100
0000
0001
0100
0000
0010
0000
0000
1000
0000
,
0001
0010
0100
1000
0100
0010
0001
0100
,
0000
0010
0100
1000
0100
0010
0100
0001
,
0000
1000
0010
0100
0001
0010
0100
1000
,
0000
0100
0010
0100
0010
0001
0010
0100
,
1000
0010
0100
0001
0100
0010
0100
0001
,
0000
0010
0100
0010
0100
1000
0100
0010
,
0000
0001
0010
0100
1000
0010
0100
0001
,
0100
0010
1000
0000
0100
0000
0000
0010
0001
0000
0000
0100
0010
0000
1000
0010
,
1000
0010
0100
0001
0100
0010
0000
1010
,
0000
0000
0101
0001
0010
0100
0000
0110
,
0000
0000
0011
0000
0001
0020
0000
0230
,
0000
0300
1000
0010
0100
0001
0100
0010
,
1000
0010
0100
0001
1000
0100
0000
1100
,
0000
0000
1001
0000
0000
0101
0000
0110
,
0000
0000
1010
0000
0000
1000
0000
0100
,
0010
0001
0010
0000
0100
0000
0000
0100
0010
0000
1000
0000
0100
0000
0010
0000
,
0001
0000
0000
0000
0010
0001
0010
0000
0200
0000
0000
0000
2300
0000
0000
0000
,
3020
0000
0000
0000
0000
0130
0001
1000
,
0200
0000
0000
0000
0310
0001
0100
0010
,
2000
0000
0000
0000
0000
0000
0000
0000
0000
0000
3010
0000
0000
0100
0000
0000
,
0001
0000
0000
0000
0010
0100
1000
0000
0100
0000
0000
0000
0010
0100
0000
0000
,
0002
0000
0000
0000
0000
0000
0000
0000
0000
0000
0013
0000
0100
0010
0000
0000
,
0200
0000
0000
1300
0010
0100
0001
0010
,
0002
0000
0000
0000
1003
0100
1000
0100
,
1000
0010
0001
0010
0100
0010
1000
0100
,
0001
0100
0010
0100
1000
0010
0001
0010
,
0100
0001
0010
0100
1000
0010
0001
0010
,
0100
0001
0010
0100
0010
0100
1000
0010
,
0001
0010
1000
0100
0001
0100
1000
0010
,
0100
0001
0010
1000
0010
0001
0100
0010
,
1000
0100
0001
0100
1000
0010
0001
0010
,
1000
0100
1000
0001
0100
0010
1000
0100
,
0020
0000
0000
0031
0010
0000
0100
0000
,
1000
0000
1100
0110
,
0002
0000
0000
0000
0000
0010
0000
0023
,
0000
0000
0230
0000
0000
1300
0000
2000
,
0000
0000
3001
0000
0010
0100
0000
1000
,
0020
0000
0130
0000
0000
0001
0010
0000
,
0200
0000
0000
0000
0000
1300
0000
2000
,
0000
0000
3020
0000
0000
0130
0000
0002
,
0000
0000
0013
0000
0100
1000
0010
0100
,
0001
0100
0010
1000
0010
0100
0001
0010
,
0100
0000
1000
0010
0100
0001
0100
0010
,
0000
0000
1000
0000
0000
0000
0001
0010
0001
0000
0010
0000
0100
0000
1000
0000
,
0100
0000
0100
0010
0001
0100
0010
1000
,
0010
0100
0001
0000
2000
0000
0000
0000
0000
0000
0000
0000
3010
0000
0100
0000
,
0001
0000
0010
0000
0100
0010
0000
0110
,
0000
0000
0011
0000
0001
1000
0001
0100
,
0000
0000
1010
0000
1000
0010
1000
0010
,
0100
0001
0100
0000
0001
0000
0000
0000
0100
0000
0010
0000
1000
0000
0100
0000
,
0010
0001
0100
0010
1000
0010
0100
0001
,
0000
0000
0100
0000
0000
0000
0001
0100
0001
0000
0100
0000
0010
0000
1000
0000
,
0010
0100
0001
0010
0100
1000
0001
0001
,
0000
0100
0001
0010
0100
1000
0001
1000
,
2002
0000
0000
0000
,
3003
0000
0000
0000
;

//---------------dance-single - ----------------
#NOTES:
     dance-single:
     :
     Medium:
     6:
     0.459,0.500,0.185,0.249,0.004:
0000
0000
0000
0000
,
0000
0000
0000
0000
,
1000
0000
0010
0000
0010
0000
1000
1000
,
0000
0100
0100
0000
0010
0000
0001
0000
,
1000
0100
1000
0000
0001
0000
0001
0020
,
0000
0130
0000
1000
0010
0000
0100
0000
,
0001
0010
0001
0000
0100
0000
0010
1000
,
0000
1000
0100
0000
0011
0000
0011
0000
,
0001
0100
0010
0000
0010
1000
0010
0100
,
0000
0001
0000
0010
0100
0000
1000
0000
,
0001
0010
0100
0000
1000
0000
0010
0100
,
0000
0001
1000
0000
0010
0000
0100
1000
,
0001
0000
1000
0100
0010
0000
0010
0001
,
0000
0100
0000
0010
1000
0000
0100
0000
,
0001
0100
0001
0000
1000
0000
0010
0100
,
0000
0100
0001
0000
0010
0000
0100
0000
,
1000
0000
0010
0000
1000
0000
0100
0010
,
0000
0001
0100
0000
0010
0000
1000
0000
,
0010
0000
0100
0001
0100
0010
1000
0010
,
1000
0100
0010
0000
0001
0100
0001
0100
,
0001
0010
0100
1000
,
0010
0100
0001
0100
,
0010
1000
0010
0100
,
0001
0010
0100
1000
,
0100
0010
0001
0010
,
0001
0010
0001
0100
,
0001
1000
0001
0100
,
0000
0010
1000
0000
0000
0100
0010
0000
,
0002
0000
0000
0000
0003
0011
0000
0011
,
0000
0000
2000
0000
3000
1100
0000
1100
,
0000
0000
1000
0000
0001
0020
0000
0200
,
0000
0000
0000
0330
,
0220
0000
0000
0330
0000
1100
0000
1010
,
0000
0000
0020
0000
0030
0110
0000
0110
,
0000
0000
0100
0000
0001
0100
0000
0010
,
0000
1000
0010
1000
,
0200
0000
0000
0000
0000
0310
0000
0010
,
0000
0000
0011
0000
0000
0110
0000
1100
,
0000
0000
1100
0000
0001
0020
0000
0230
,
0000
0300
1000
0000
0010
0000
1000
0000
,
0001
0000
0100
0000
0010
1000
0000
1100
,
0000
0000
1001
0000
0000
0101
0000
0110
,
0000
0000
1010
0000
0000
1000
0000
0100
,
0010
0001
0100
0000
0001
1000
0100
0010
,
0001
0000
0010
0001
2000
0000
3200
0000
,
0320
0000
0000
0000
0000
0031
1000
0100
,
0020
0000
0000
0000
0031
0100
0010
1000
,
0020
0000
0000
0000
0000
0000
0000
0000
0000
0000
0130
0000
0000
0001
0000
0000
,
0010
0000
0100
1000
0100
0000
0010
0000
,
0002
0000
0000
0000
0000
0013
0100
0000
,
0200
0000
0000
1300
0010
0100
0001
0010
,
0002
0000
0000
0000
1003
0100
1000
0100
,
0010
0001
0010
0000
0001
0010
0001
0000
,
0010
0100
0010
0000
0100
0010
0100
0000
,
1000
0100
1000
0000
0100
1000
0100
0000
,
0010
0100
0010
0000
0100
0010
0100
0000
,
0010
0001
0010
0000
0001
0010
0001
0000
,
1000
0010
1000
0000
0001
0100
0001
0000
,
1000
0010
0100
0000
0001
1000
0100
0000
,
0010
0001
1000
0000
0001
0000
0001
0000
,
0020
0000
0000
0031
0010
0000
0100
0000
,
1000
0000
1100
0110
,
0002
0000
0000
0000
0000
0010
0000
0023
,
0000
0000
0230
0000
0000
1300
0000
2000
,
0000
0000
3001
0000
0010
0100
0000
1000
,
0020
0000
0130
0000
0000
0001
0010
0000
,
0200
0000
0000
0000
0000
1300
0000
2000
,
0000
0000
3020
0000
0000
0130
0000
0002
,
0000
0000
0013
0000
0100
1000
0000
0100
,
0000
0100
0010
0000
0000
0001
0010
0000
,
0000
0000
0100
1000
0010
0100
0001
0100
,
0000
0000
0010
0000
0000
1000
0000
0100
,
0000
0000
0010
0000
0001
0100
0000
0010
,
0000
1000
0100
0010
,
0001
0000
0100
0000
0010
1000
0000
0010
,
0000
0000
0100
0000
0001
0100
0000
0010
,
0000
0000
1000
0000
0100
0010
0000
0001
,
0000
0010
0100
1000
,
0001
0000
0100
0000
0001
0000
0000
1000
,
0000
0100
0000
0000
0010
0000
0001
0000
,
0100
0000
0010
0000
1000
0000
0010
0100
,
0000
0001
1000
0001
,
2002
0000
0000
0000
,
3003
0000
0000
0000
;

//---------------dance-single - ----------------
#NOTES:
     dance-single:
     :
     Easy:
     4:
     0.294,0.330,0.088,0.096,0.000:
0000
0000
0000
0000
,
0000
0000
1000
0000
,
0200
0000
0000
0000
0000
0000
0000
0320
,
0000
0000
0000
0030
,
0011
0000
0000
0000
0000
0000
0000
0002
,
0000
0000
0000
0000
0000
0000
0000
0003
,
0011
0000
0000
0000
0000
0000
0000
0200
,
0000
0000
0000
0300
1100
0000
1100
0000
,
1000
0010
0100
0001
,
0100
0010
1000
0100
,
0010
0001
0010
0100
,
1000
0010
0100
0001
,
0100
0010
1000
0100
,
0010
0010
0001
0100
,
0010
1000
0010
0100
,
0001
0100
0010
0001
,
0010
0011
0000
0001
,
0000
0011
0000
0100
,
0000
0110
0000
0010
,
0100
1000
0100
0010
,
0001
0001
0001
0000
,
0010
0010
0010
0000
,
0100
0100
0100
0000
,
1000
1000
1000
0000
,
0100
0010
0100
1000
,
0100
0010
0001
0100
,
0010
1000
0010
1000
,
0010
0100
0000
0001
,
0020
0000
0000
0000
0000
0100
0000
0130
,
0000
0000
2000
0000
0000
0010
0000
3010
,
0000
0000
0100
0000
0010
0000
0000
0001
,
0000
0010
0000
0000
,
0002
0000
0000
0000
0000
0100
0000
0103
,
0000
0000
0020
0000
0000
0100
0000
0130
,
0000
0000
1000
0000
0010
0000
0000
0100
,
0000
0001
0000
0000
,
0002
0000
0000
0000
0000
0010
0000
0013
,
0000
0000
0020
0000
0000
0100
0000
0130
,
0000
0000
1000
0000
0010
0000
0000
0100
,
0000
0000
0000
0000
,
0001
0000
0000
0000
0000
0100
0000
0100
,
0000
0000
0010
0000
0000
1000
0000
0001
,
0000
0000
0100
0000
0010
0000
0000
1000
,
0000
0010
0100
0000
,
0001
0100
0010
1000
,
0010
0000
0000
0100
,
0001
0000
0010
0100
,
1000
0000
0000
0000
,
1000
0100
0010
0001
,
0010
0000
0000
0100
,
1000
0000
0001
0010
,
0001
0000
0000
0000
,
1000
0100
0010
0001
,
0010
0100
1000
0010
,
0100
0001
0010
0100
,
1000
0010
0100
0001
,
0100
0010
0100
0001
,
0010
0100
1000
0010
,
0100
0001
0010
0100
,
1000
0001
0010
0100
,
1000
0000
0001
0010
,
0011
0000
1100
1100
,
0100
0000
0000
0000
0000
1000
0000
1000
,
0000
0000
0100
0000
0000
0010
0000
0010
,
0000
0000
0001
0000
0000
0000
0000
0001
,
0000
0010
0000
0010
,
0001
0000
0000
0000
0000
0001
0000
0001
,
0000
0000
0010
0000
0000
0010
0000
0010
,
0000
0000
0100
0000
0000
0000
0000
0100
,
0000
1000
0000
1000
,
0001
0000
0000
0000
,
0001
0000
0010
0000
0000
0000
0000
0010
,
0000
0001
0000
0001
,
0010
0100
1000
0100
,
0010
0001
0010
0001
,
0100
0010
1000
0010
,
0100
0001
0010
0100
,
1000
0100
0010
0001
,
0010
0000
0000
0000
0000
0000
0000
0100
,
0000
0100
0000
0000
0010
0000
0000
0000
,
0100
0000
0000
0000
,
1000
0100
0010
0001
,
2002
3003
0000
0000
;

//---------------dance-single - Copied from----------------
#NOTES:
     dance-single:
     Copied from:
     Challenge:
     11:
     0.714,1.000,0.177,0.345,0.482:
0000
0000
0000
0000
,
0000
0000
0000
0000
,
1100
1000
0010
0100
0001
1000
0010
1010
,
0000
0101
0100
0001
0010
0100
1000
0100
,
1100
0010
0001
1000
0100
1000
0010
0200
,
0000
0000
0001
0000
0000
0000
0310
1000
0001
0000
0010
0000
0100
0000
1000
0000
,
1100
0001
0010
0001
0010
0100
1000
0001
,
0000
0100
0010
1000
1010
0000
1010
0000
,
0110
0001
0010
0100
1000
0010
0100
0002
,
0000
0000
0100
0000
0000
0000
1003
0100
0010
0000
0010
0000
0001
0000
0010
0000
,
0011
0001
0010
0100
1000
0010
0100
0001
,
0000
1000
0010
0001
0010
1000
0100
0001
,
0100
1000
0010
1000
0100
1000
0100
0020
,
0000
0000
0032
0000
0000
0000
1003
0100
0010
0000
0001
0000
1000
0000
0100
0000
,
1100
1000
0010
0100
0001
0010
0001
1000
,
0000
0010
0100
0001
0100
0010
1000
0100
,
0010
0000
0110
0000
0010
0001
1100
1000
,
0000
0100
0010
0000
0001
0010
0011
0001
,
1001
0000
0100
0010
0001
0010
0100
0010
,
0100
1000
0100
0000
0010
0000
0000
0001
0100
0010
1000
0100
0010
0000
0001
0000
,
1000
0000
0010
0000
0100
0000
0001
1000
,
1100
0000
0000
0000
0100
0000
0000
0000
0010
0000
0000
0001
0010
0000
0100
1000
,
0100
0000
0010
0000
0001
0000
1000
0010
,
0101
0000
0000
0000
0001
0000
0000
0000
0010
0000
0000
0100
1000
0000
0010
0100
,
0001
0000
0000
0100
0010
0000
1000
0100
1000
0000
1000
0100
1000
0000
0001
0010
,
0001
0010
0000
0100
1000
0000
0100
0010
0001
0000
0000
0010
0000
0000
0100
0000
,
1000
0000
0000
0010
1000
0000
0100
0010
0100
0000
0010
0001
0010
0001
0100
0001
,
0100
0010
1000
0100
1000
0000
0010
0100
0001
0100
0000
0010
0000
0000
1000
0000
,
0002
0000
0000
0000
0000
0010
0000
0010
,
0000
0000
2003
0000
0000
0100
0000
0100
,
0000
0000
3020
0000
0100
0100
0000
0100
,
0000
0130
MMMM
0000
,
0002
0000
0000
0000
0000
0100
0000
0100
,
0000
0000
0203
0000
0000
0010
0000
0310
,
0000
0000
1000
0000
0010
0100
0000
0001
,
0100
0010
1000
0000
0100
0000
0000
0010
0001
0000
0000
0100
0010
0000
1000
0010
,
2000
0000
0000
0000
0000
0010
0000
3020
,
0000
0000
0032
0000
0000
0010
0000
0023
,
0000
0000
2030
0000
0100
3200
0000
0302
,
0000
0203
0000
0000
,
2300
0000
0000
0000
0000
0100
0000
0100
,
0000
0000
0020
3000
0000
0100
0000
0230
,
0000
0000
0302
0000
0003
0010
0000
0100
,
1000
0010
1000
0000
0010
0000
0000
0100
0001
0000
0100
0000
0010
0000
1000
0000
,
0200
0000
0000
0000
0310
0001
0010
0000
0200
0000
0000
0000
2300
0000
0000
0000
,
3020
0000
0000
0000
0000
0130
0001
0100
,
0020
0000
0000
0000
0130
0001
0010
0100
,
0200
0000
0000
0000
0000
0000
0000
0000
0000
0000
1300
0000
0000
1000
0000
0000
,
2000
0000
0000
0000
3010
0100
0001
0000
0100
0000
0000
0000
0010
1000
0000
0000
,
2000
0000
0000
0000
0000
0000
0000
0000
3000
0000
0010
0000
0100
0001
0000
0000
,
0200
0000
0000
0310
1000
0010
0100
0010
,
0002
0000
0000
0000
0000
0000
0000
0000
1003
0010
1000
0010
1000
0010
1000
0010
,
1000
0100
0010
0001
1000
0100
0010
0001
1000
0100
0010
0001
1000
0100
0010
0001
,
1000
0010
0100
0001
1000
0010
0100
0001
1000
0010
0100
0001
1000
0010
0100
0001
,
0010
0100
1000
0100
0010
0001
0010
0100
1000
0010
0100
0001
0100
0010
1000
0010
,
0100
0001
0010
0001
0010
0001
0100
0001
1000
0001
0010
0001
1000
0001
0010
0001
,
1000
0010
1000
0100
1000
0010
1000
0001
1000
0010
0100
0001
0100
0010
1000
0010
,
0100
0001
0100
0010
1000
0100
1000
0001
0010
0001
1000
0010
1000
0001
0100
0001
,
1000
0010
1000
0001
0100
0001
1000
0010
0100
0001
0100
0010
1000
0001
0100
0010
,
1000
0010
0100
0001
0100
0010
0100
0001
1000
0100
0000
0010
0001
0100
0010
1000
,
0002
0000
0000
0013
0010
0000
0100
0000
,
1000
0000
1100
0110
,
0002
0000
0000
0000
0000
0010
0000
0023
,
0000
0000
0230
0000
0000
1300
0000
2000
,
0000
0000
3001
0000
0010
0100
0000
1000
,
0020
0000
0130
0000
0000
0001
0010
0000
,
0200
0000
0000
0000
0000
1300
0000
2000
,
0000
0000
3020
0000
0000
0130
0000
0002
,
0000
0000
0013
0000
0100
1000
0000
0100
,
0000
0010
0001
0000
0000
0100
0010
0000
,
0100
0000
0001
0010
0100
1000
0010
0100
,
0000
0000
0001
0000
0000
0000
0100
0010
1000
0000
0010
0000
0100
0000
0001
0000
,
0100
0000
0100
0010
1000
0100
0010
0001
,
1000
0100
1000
0000
0001
0000
0100
0010
1000
0010
0000
0100
0010
0000
1000
0000
,
0001
0000
0010
0000
0100
0010
0000
0110
,
0000
0000
0011
0000
0001
1000
0001
0100
,
0000
0000
1010
0000
1000
0010
1000
0010
,
0100
0001
0100
0000
0001
0000
0000
0010
0100
1000
0100
0010
0001
0010
0100
1000
,
0001
0010
0100
1000
0100
0010
0001
1000
,
0000
0000
0100
0000
0000
0000
0010
0001
0010
0000
0100
0000
1000
0000
0010
0000
,
0100
0001
0100
0010
1000
0010
0100
0001
,
0000
0010
0100
1000
0010
0100
0001
1000
,
2002
0000
0000
0000
,
3003
0000
0000
0000
;
