#TITLE:Squeeze;
#SUBTITLE:;
#ARTIST:Oriental ST8;
#TITLETRANSLIT:;
#SUBTITLETRANSLIT:;
#ARTISTTRANSLIT:;
#CREDIT:;
#BANNER:;
#BACKGROUND:;
#LYRICSPATH:;
#CDTITLE:;
#MUSIC:Squeeze.mp3;
#OFFSET:-2.238;
#SAMPLESTART:0.000;
#SAMPLELENGTH:11.800;
#SELECTABLE:YES;
#BPMS:0.000=147.000;
#STOPS:;
#BGCHANGES:;

//---------------dance-single - ----------------
#NOTES:
     dance-single:
     :
     Easy:
     3:
     0.278,0.323,0.165,0.083,0.000:
0000
0000
0000
0000
,
0000
0000
0000
0000
,
0000
0000
0000
0000
,
0000
0000
0000
0000
,
1000
0001
0100
0100
,
0001
1000
0100
0100
,
1000
0001
0100
0100
,
0020
0000
0000
0130
,
1000
0100
0010
0000
,
1000
0100
0010
0000
,
1000
0010
0100
0000
,
1001
0000
1001
0000
,
0001
0100
0010
0000
,
0001
0100
0010
0000
,
0001
0010
0100
0000
,
1000
1000
0001
1001
,
0000
1000
0100
1000
,
0000
0001
0100
0001
,
0010
0100
0100
0000
,
0010
0000
0100
0000
,
1001
0100
0010
0001
,
0100
0010
1000
0100
,
0110
0000
0001
0000
,
1000
0000
1001
0000
,
1000
0001
0001
0000
,
0100
0010
0010
0000
,
0001
1000
1000
0000
,
0010
0100
0100
0000
,
0011
0000
0000
1000
,
0001
0000
0000
0001
,
2002
0000
0000
3003
,
1000
1000
1000
1000
,
0002
0000
0000
0103
,
0010
1000
0100
0010
,
0001
1001
0100
0101
,
0001
0000
1000
0000
,
0001
0000
1000
0000
,
0001
0010
0100
1000
,
0100
1100
1000
1001
,
0001
0001
0001
0001
,
0200
0000
0000
0310
,
0100
0001
0010
0100
,
1000
1001
0100
1100
,
1000
0000
0001
0000
,
1000
0000
0001
0000
,
1000
0010
0100
0001
,
0100
1100
0001
1001
,
1000
1000
1000
1000
,
0020
0000
0000
0130
,
0001
0100
0010
0010
,
0100
0001
0010
0010
,
1000
0010
0001
0001
,
0200
0000
0000
0310
,
1000
0100
0001
0001
,
0100
1000
0010
0010
,
1000
0010
0100
0100
,
0002
0000
0000
0103
;

//---------------dance-single - ----------------
#NOTES:
     dance-single:
     :
     Hard:
     7:
     0.461,0.440,0.145,0.062,0.010:
0000
0000
0000
0000
,
0000
0000
0000
0000
,
0000
0000
0000
0000
,
0000
0000
0000
0000
,
1000
0100
1000
0000
0010
0000
0100
0000
,
0010
0001
0010
0000
0100
0000
1000
0000
,
0100
0001
0100
0000
0001
0000
0010
0000
,
0100
1000
0100
0010
0001
0000
0101
0000
,
0001
0010
0100
0000
1000
0000
0010
0100
,
0001
0010
0100
0000
1000
0000
0010
0100
,
0001
0010
0100
0000
1000
0000
0010
0100
,
0001
0010
1000
0010
0001
0100
0010
0000
,
1000
0100
0010
0000
0001
0000
0100
0000
,
0010
1000
0100
0010
0001
0000
0100
0000
,
0010
1000
0100
0010
0001
0000
0100
0000
,
0010
0000
0000
1000
0000
0000
0100
0000
0000
0000
0010
0000
0110
0000
0000
0000
,
0010
0001
0100
0000
0100
0001
0010
0000
,
0100
1000
0001
1000
0100
0010
0000
0100
,
0000
0000
1100
0000
1100
0000
0000
0001
,
0000
0001
0100
0001
0010
0100
0000
0011
,
0000
0000
0100
1000
0010
0100
0010
1000
,
0000
1000
0001
0100
0001
0010
0100
0010
,
0000
0000
0100
0000
0100
0000
0100
1000
,
0001
0100
0010
0100
0000
0010
0001
0000
,
1001
0000
0101
0000
0001
0100
0001
1000
,
0000
0100
0000
1000
0000
0010
0100
0010
,
1000
0000
1000
0100
0000
0001
0000
0100
,
0000
1000
0001
0010
0001
0000
1001
0000
,
0100
0000
0001
0010
0000
0001
0000
0100
,
0000
0010
1000
0010
0000
1000
1000
0000
,
0200
0000
0000
0000
0300
1000
0001
1000
,
0020
0100
0100
0130
,
0001
0100
1000
0010
1000
0100
0001
0010
,
0100
1000
0001
0001
0000
0100
0010
0100
,
0000
0010
0000
0010
0000
0100
0000
0002
,
0000
0010
0013
0000
0100
1000
0100
0010
,
0000
0011
0000
0110
0000
1000
0001
0000
,
1000
0010
0100
0001
0000
0100
0010
1000
,
0000
0001
0000
1000
0000
0100
0000
0000
,
0010
0100
1000
0010
0100
0010
1000
0200
,
0000
0000
0000
0000
0310
0000
1000
0010
,
0100
0001
1000
1000
0000
0100
0010
0100
,
0000
0010
0000
0010
0000
0100
0000
2000
,
0000
0010
3010
0000
0100
0001
0010
1000
,
0000
0011
0000
0110
0000
1000
0001
0000
,
1000
0100
0010
0001
0000
0100
0010
1000
,
0000
0001
0000
1000
0000
0100
0000
0000
,
0010
0100
1000
0010
0100
0010
1000
0200
,
0000
0010
0310
0110
,
0001
0100
0010
0000
1000
0000
0010
0100
,
0001
0010
0100
0000
1000
0000
0001
0010
,
1000
0010
0001
0000
0100
0000
0010
1000
,
0001
0100
0001
0010
0001
0100
0010
0000
,
1000
0010
0100
0000
0001
0000
1000
0010
,
0100
0001
1000
0000
0001
0000
1000
0010
,
0001
0010
1000
0000
0100
0000
0010
0001
,
0100
0000
0000
0010
0000
0000
1000
0000
0000
0000
0001
0000
1001
0000
0000
0000
;

//---------------dance-single - ----------------
#NOTES:
     dance-single:
     :
     Challenge:
     9:
     0.591,0.616,0.248,0.031,0.238:
0000
0000
0000
0000
,
0000
0000
0000
0000
,
0000
0000
0000
0000
,
0000
0000
0000
0000
,
0001
0000
0100
0001
0000
0100
0001
0000
1000
0000
0100
0000
0010
0000
0100
0000
,
1000
0000
0100
1000
0000
0100
1000
0000
0001
0000
0100
0000
0010
0000
0100
0000
,
0001
0000
1000
0001
0000
1000
0001
0000
1000
0000
0010
0000
0100
0000
0001
0000
,
0010
0100
0000
0010
0100
0000
0010
0000
0200
0000
0000
0000
0310
0000
0000
0000
,
1000
0000
1000
0000
0010
0000
0100
0001
0000
0001
0100
0000
0010
0000
1000
0000
,
0001
0000
0001
0000
0010
0000
0100
1000
0000
1000
0100
0000
0010
0000
0001
0000
,
1000
0000
1000
0000
0001
0000
0100
0010
0000
0010
0100
0000
0001
0000
0010
0000
,
0100
1000
0100
0010
0001
0010
0110
0000
,
0100
0000
0100
0000
0010
0000
0001
1000
0000
1000
0001
0000
1000
0000
0010
0000
,
0100
0000
0100
0000
0010
0000
1000
0001
0000
0001
1000
0000
0001
0000
0010
0000
,
0100
0000
0100
0000
1000
0000
0001
0100
0000
0100
0001
0000
1000
0000
0001
0000
,
1000
0100
0000
1000
0010
0000
1000
0100
0000
1000
0010
0000
0100
0000
0000
0000
,
0001
0100
0010
1000
0001
0100
0010
1000
,
0000
0100
0010
0001
1000
0100
0010
0001
,
0000
0000
0101
0000
1100
0000
0000
1001
,
0000
0001
0100
0010
0001
0010
0000
1010
,
0000
0000
0010
1000
0100
0010
0001
1000
,
0000
0010
0100
0001
1000
0010
0000
0101
,
0000
0000
1000
0000
0001
0000
1000
0001
,
1000
0100
0010
0100
0000
1000
0001
0000
,
0001
0100
0010
0100
0001
0010
0100
0010
,
0001
0100
0010
0100
0001
0010
0100
0010
,
0001
0000
1000
0100
0000
1000
0000
0010
,
0000
1000
0100
0001
0100
0000
1100
0000
,
1010
0100
0001
0010
0100
1000
1000
0000
,
0010
0100
1000
0010
0100
0001
0001
0000
,
0200
0000
0000
0000
0000
0310
0100
0010
,
2000
0100
3100
1100
,
0001
0100
1000
0010
1000
0100
0001
0100
,
1000
0001
0100
0101
0000
0010
1000
0010
,
0000
0110
0000
0101
0000
0110
0000
1001
,
0000
0100
0100
0000
0010
0001
0010
1000
,
0000
0001
0000
0001
0000
1000
0100
0010
,
0001
0100
1000
0100
0000
0100
0001
0100
,
0000
1000
0000
0100
0000
0001
0000
0000
,
1010
0100
0001
0000
0011
0100
1000
0000
,
0001
0010
1000
0010
0001
0100
0010
1000
,
0001
1000
0100
0110
0000
0010
0001
0010
,
0000
0110
0000
1100
0000
0110
0000
0101
,
0000
1000
1000
0000
0010
0001
0010
0100
,
0000
1000
0000
1000
0000
0100
0001
0100
,
1000
0010
0100
0010
0000
0100
0001
0100
,
0000
0001
0000
0100
0000
1000
0000
0000
,
0011
0100
0010
0000
1010
0100
0010
0000
,
1000
0010
0001
0010
1000
0001
0001
0000
,
1000
0100
1000
0000
0001
0000
1000
0100
0000
1000
0100
0000
1000
0000
0010
0000
,
0100
0001
0100
0000
0010
0000
1000
0001
0000
1000
0001
0000
0010
0000
0100
0000
,
1000
0001
1000
0000
0100
0000
0010
0001
0000
0010
0001
0000
0100
0000
0010
0000
,
1000
0100
0001
0100
1000
0010
0110
0000
,
0010
0100
0010
0000
0100
0000
0001
0010
0000
0001
0010
0000
0100
0000
1000
0000
,
0010
1000
0010
0000
0100
0000
0010
0100
0000
0010
0100
0000
0001
0000
0010
0000
,
0100
1000
0100
0000
1000
0000
0001
1000
0000
0001
1000
0000
0100
0000
0010
0000
,
0100
1000
0000
0001
0100
0000
0010
1000
0000
0001
0100
0000
0010
0000
0000
0000
;

//---------------dance-single - ----------------
#NOTES:
     dance-single:
     :
     Medium:
     5:
     0.349,0.352,0.021,0.093,0.005: // measure 1
0000
0000
0000
0000
,  // measure 2
0000
0000
0000
0000
,  // measure 3
0000
0000
0000
0000
,  // measure 4
0000
0000
0000
0000
,  // measure 5
0000
1000
0000
0001
0000
0100
0010
0100
,  // measure 6
0000
0001
0000
1000
0000
0100
0010
0100
,  // measure 7
0000
1000
0000
0001
0000
0100
0010
0100
,  // measure 8
0002
0000
0000
0103
,  // measure 9
0010
1000
0010
0000
1000
0000
0100
0000
,  // measure 10
1000
0010
1000
0000
1000
0000
1000
0000
,  // measure 11
0001
0100
0001
0000
0010
0000
0010
0000
,  // measure 12
0200
0000
0000
1300
,  // measure 13
0001
0010
0001
0000
0100
0000
0001
0000
,  // measure 14
0010
0001
0010
0000
0001
0000
0001
0000
,  // measure 15
1000
0100
1000
0000
0010
0000
0100
0000
,  // measure 16
0002
0000
0000
1003
,  // measure 17
0100
0000
1000
0000
0010
0000
0100
0001
,  // measure 18
0000
0000
0010
0000
0100
0000
1000
0001
,  // measure 19
0000
1000
0100
0000
0110
0000
0000
0001
,  // measure 20
0000
0100
0010
0000
0100
0010
0000
0100
,  // measure 21
0000
0010
1000
0100
,  // measure 22
0001
0000
0100
0000
1000
0001
0000
1000
,  // measure 23
0000
0000
0000
0000
0000
0010
0000
0100
,  // measure 24
0001
0000
1000
0100
0000
0010
0001
0000
,  // measure 25
1000
0100
1000
0000
0001
0000
0001
0000
,  // measure 26
1000
0100
1000
0000
0010
0000
0010
0000
,  // measure 27
0100
0000
0100
0001
0000
0010
0000
0002
,  // measure 28
0000
0000
0000
0000
0103
0000
0010
1000
,  // measure 29
0010
0000
1000
0100
0000
1000
0000
0001
,  // measure 30
0000
1000
0100
1000
0000
0001
0000
0000
,  // measure 31
2000
0000
0000
0000
3000
0010
0000
0010
,  // measure 32
2000
0100
0100
3100
,  // measure 33
0001
1000
0001
0000
1000
0001
1000
0000
,  // measure 34
1000
0000
1000
0010
0000
0100
0000
0001
,  // measure 35
0000
0001
0000
1000
0000
0010
0000
0200
,  // measure 36
0000
0010
0000
0010
,  // measure 37
0000
0010
0000
0310
,  // measure 38
0001
0000
0010
0100
0000
1000
0000
0010
,  // measure 39
0000
1000
0000
0100
0000
0010
0000
0000
,  // measure 40
0100
0010
0100
0000
0010
0100
0010
0000
,  // measure 41
0100
0010
0001
0000
1000
0000
0001
0000
,  // measure 42
1000
0000
1000
0010
0000
0100
0000
0001
,  // measure 43
0000
0001
0000
1000
0000
0010
0000
0200
,  // measure 44
0000
0010
0000
0010
,  // measure 45
0000
0010
0000
0310
,  // measure 46
0001
0000
0010
0100
0000
1000
0000
0010
,  // measure 47
0000
1000
0000
0100
0000
0010
0000
0000
,  // measure 48
0100
0010
0100
0000
0010
0100
0010
0000
,  // measure 49
0100
0010
0001
0000
1000
0000
1001
0000
,  // measure 50
0010
0001
0010
0000
0001
0000
0100
0000
,  // measure 51
0001
0010
0001
0000
0001
0000
0001
0000
,  // measure 52
1000
0100
1000
0000
0010
0000
0010
0000
,  // measure 53
0200
0000
0000
0301
,  // measure 54
1000
0010
1000
0000
0100
0000
1000
0000
,  // measure 55
0010
1000
0010
0000
0001
0000
0001
0000
,  // measure 56
0001
0100
0001
0000
0010
0000
0100
0000
,  // measure 57
1000
0000
0000
0001
0000
0000
1000
0000
0000
0000
0001
0000
0100
0000
0000
0000
;
