#TITLE:Son of Sun;
#SUBTITLE:;
#ARTIST:Hosoe Shinji;
#TITLETRANSLIT:;
#SUBTITLETRANSLIT:;
#ARTISTTRANSLIT:;
#GENRE:;
#CREDIT:;
#BANNER:;
#BACKGROUND:;
#LYRICSPATH:;
#CDTITLE:;
#MUSIC:SON OF SUN.mp3;
#OFFSET:-4.959;
#SAMPLESTART:24.145;
#SAMPLELENGTH:12.100;
#SELECTABLE:YES;
#DISPLAYBPM:200.000;
#BPMS:0.000=200.050,91.000=600.150,91.750=200.050,276.000=400.100,280.000=200.050;
#STOPS:28.000=0.150
,28.500=0.150
,29.000=0.150
,29.500=0.150
,58.000=0.150
,58.500=0.150
,59.000=0.150
,59.500=0.150
,91.750=0.150
,181.000=1.200
,276.000=0.150
,277.000=0.075
,277.500=0.150
,278.500=0.075
,279.000=0.150
;
#BGCHANGES:;
#KEYSOUNDS:;

//---------------dance-single - Blank----------------
#NOTES:
     dance-single:
     Blank:
     Challenge:
     10:
     0.764,0.980,0.485,0.168,0.084,503.000,52.000,18.000,0.000,0.000,0.000,0.764,0.980,0.485,0.168,0.084,503.000,52.000,18.000,0.000,0.000,0.000:
0000
0000
0000
0000
,
0001
0100
0100
0001
,
1000
0100
0100
1000
,
0010
0100
0100
0010
,
1000
0000
0000
0000
,
1000
0001
0001
1000
,
0100
0010
0010
0100
,
0200
0000
0000
1000
0000
0000
0000
0000
0000
0000
0000
0000
0000
0000
0000
0000
0000
0000
0000
0000
0300
0000
0000
0000
2000
0000
0000
0010
0000
0000
0000
0000
0000
0000
0000
0000
0000
0000
0000
0000
0000
0000
0000
0000
0000
3000
0000
0000
0020
0000
0000
0100
0000
0000
0000
0000
0000
0000
0000
0000
0000
0000
0000
0000
0000
0000
0000
0000
0000
0030
0000
0000
0200
0000
0000
0001
0000
0000
0000
0000
0000
0000
0000
0000
0000
0000
0000
0000
0000
0000
0000
0000
0000
0300
0000
0000
0001
0000
0000
0000
0000
0000
0000
0000
0000
0000
0000
0000
0000
0000
0000
0000
0000
0000
0000
0000
0000
0000
0000
0000
0100
0000
0000
0000
0000
0000
0000
0000
0000
0000
0000
0000
0000
0000
0000
0000
0000
0000
0000
0000
0000
0000
0000
0000
0010
0000
0000
0000
0000
0000
0000
0000
0000
0000
0000
0000
0000
0000
0000
0000
0000
0000
0000
0000
0000
0000
0000
0000
0100
0000
0000
0000
0000
0000
0000
0000
0000
0000
0000
0000
0000
0000
0000
0000
0000
0000
0000
0000
0000
0000
0000
0000
,
0001
1000
1000
0000
0100
0100
0010
0001
,
1000
0001
0100
0000
0010
1000
0001
1000
,
0100
0010
0010
0000
0001
0001
0010
0100
,
0010
0000
0001
0000
1000
0000
0000
0001
0010
0000
0010
0000
0100
0000
1000
0000
,
0001
1000
0001
0000
1000
0010
0100
0001
,
0010
0000
0001
0000
0001
0000
1000
0100
0010
0000
0010
0000
0001
0000
1000
0000
,
0001
0000
0100
0000
0010
0000
0000
0000
2200
3300
0202
0303
2020
3030
0022
0033
,
1100
1000
0001
0000
1100
1000
0001
0000
,
0100
0010
0100
0010
1000
0001
1000
0001
,
0011
0010
0100
0000
0011
0010
0100
0000
,
1000
0010
1000
0010
0100
0001
0010
0001
,
1100
0001
0100
0000
1100
0001
0100
0000
,
0100
0010
0100
0010
1000
0001
1000
0001
,
0011
1000
0001
0000
0011
1000
0001
0000
,
0001
0000
0100
0000
1000
0000
0100
0000
0001
0000
0010
0000
2200
0000
0000
3300
,
0001
0100
1000
0100
0101
0000
1100
0000
,
0001
0010
0100
0010
0011
0000
1010
0000
,
0100
0001
0010
0001
0101
0000
1100
0000
,
0001
0001
0002
1000
0013
0100
0010
0000
,
0001
0100
0010
0100
0101
0000
0011
0000
,
0100
0010
1000
0010
0110
0000
0101
0000
,
0001
0010
1000
0010
0011
0000
0101
0000
,
1000
1000
2000
0010
3001
1000
1000
0000
,
0001
0100
0000
0010
0000
1000
0000
0001
,
0010
0100
0000
0010
0000
0001
0000
1000
,
0010
0001
0000
0010
0000
1000
0000
0010
,
0100
1000
0100
0001
0100
1000
0100
0001
,
1000
0001
0000
0100
0000
0010
0000
1000
,
0001
0010
0000
0001
0000
0100
0000
0010
,
0001
0010
0000
1000
0000
0001
0000
0010
,
0100
1000
0100
1000
0100
0000
0010
0000
0001
0100
0001
0000
1000
0001
1000
0001
,
0100
0000
0010
1000
0001
0010
0000
0001
,
0000
0100
0010
1000
0001
0010
0001
0000
,
0010
0000
0100
0000
0010
0001
1000
0010
,
0000
0100
0001
0010
0001
1000
0100
0000
,
1000
0000
0001
0100
0001
0010
0100
1000
,
0000
0001
0100
0001
0010
0001
1000
0000
,
0010
0000
0000
0000
2002
3003
0000
0000
0010
0000
0100
0000
1001
0000
0010
0000
,
0100
0000
0001
0000
0010
0000
0001
0100
,
0000
0010
1000
0000
0001
0000
1000
0101
,
0101
0000
1100
0000
1000
0000
0001
0010
,
0000
0001
1000
0100
0010
0000
1000
0000
,
0011
0000
1000
0000
0010
0000
0100
0001
,
0000
0010
0100
0000
1000
0000
0001
0011
,
0011
0000
1010
0000
0100
0000
0001
0010
,
0100
0000
1000
0100
1000
0000
0100
1000
0100
0000
1000
0001
1000
0000
0001
0000
,
1001
0000
1000
0010
0100
0001
1000
0010
,
1010
0000
0001
1000
0001
0100
0010
1000
,
1010
0000
1000
0010
0100
0001
0010
0100
,
1100
0000
1000
0010
0100
0001
0010
0001
,
1001
0000
0001
0010
0001
1000
0010
0100
,
0101
0000
1000
0001
0100
0010
1000
0100
,
1100
0000
0100
1000
0001
0100
0010
1000
,
0001
0000
0100
0001
0100
0000
0001
0100
0001
0000
0100
0010
0100
0000
0010
0000
,
1000
0001
1000
0001
0010
0100
1000
0000
,
0001
0100
0001
0010
0001
1000
0010
0000
,
0100
0001
0010
0100
1000
0001
0100
0000
,
0110
0000
1000
0001
0010
0001
1000
0000
,
0010
0100
0001
0100
0010
1000
0001
0000
,
0010
0001
0010
0001
1000
0010
0100
0000
,
0001
1000
0001
0010
0100
0010
0001
0100
,
0011
0000
0100
1010
0000
0100
1001
0000
,
0001
0010
1000
0010
0001
0010
0100
0010
,
0001
0100
1000
0100
0001
0100
0110
0000
,
1000
0010
0001
0010
1000
0010
0100
0010
,
1000
0001
0101
0000
0001
1000
1100
0000
,
0001
0010
0100
0010
0001
0010
1000
0010
,
0001
0100
1000
0100
0001
0100
0110
0000
,
1000
0001
0010
0001
1000
0001
0100
0001
,
1100
0000
0000
0001
0100
0000
0010
0000
1001
0000
0010
0000
1100
0000
0000
0000
;

//---------------dance-single - Blank----------------
#NOTES:
     dance-single:
     Blank:
     Hard:
     9:
     0.612,0.617,0.485,0.075,0.009,399.000,52.000,8.000,0.000,0.000,0.000,0.612,0.617,0.485,0.075,0.009,399.000,52.000,8.000,0.000,0.000,0.000:
0000
0000
0000
0000
,
0000
0000
0000
0000
,
0000
0000
0000
0000
,
0000
0000
0000
0000
,
0000
0000
0000
0000
,
0000
0000
0000
0000
,
0000
0000
0000
0000
,
0200
0000
0002
0300
0020
0003
2000
0030
0010
3000
0001
0000
0100
0000
0010
0000
,
1000
0001
1000
0000
0100
1000
0100
1000
,
0001
0100
0010
0000
1000
0001
1000
0010
,
0100
0001
0100
0000
0001
0010
0100
1000
,
0001
0010
0001
0000
1000
0010
0100
0010
,
1000
0001
1000
0000
0100
0010
0001
1000
,
0001
0010
0100
0000
1000
0001
1000
0010
,
1000
0100
1000
0000
0110
0101
1001
0110
,
0001
1000
0001
0000
0100
0010
0100
0000
,
0001
0010
0100
0100
1000
0010
0100
0100
,
0001
0010
0001
0000
1000
0010
1000
0000
,
0001
0010
0100
0100
1000
0010
1000
0010
,
1000
0100
1000
0000
0001
0100
0001
0000
,
0010
0100
1000
1000
0010
0100
0001
0001
,
0010
0100
0010
0000
0001
1000
0001
0000
,
0010
0000
0010
0000
0100
0000
0100
0000
1000
0000
0001
0000
2002
0000
0000
3003
,
0100
0010
1000
0000
1100
0000
0101
0000
,
1000
0010
0100
0000
0101
0000
0011
0000
,
0100
1000
0001
0000
0011
0000
1010
0000
,
0100
0000
0000
0100
0001
0000
1000
0000
0010
0000
0100
0000
0010
0000
0000
0000
,
1000
0100
0010
0000
1010
0000
0011
0000
,
1000
0010
0100
0000
0011
0000
0101
0000
,
0001
0100
0010
0000
0101
0000
1100
0000
,
1000
0000
0000
0001
1000
0000
0010
0000
0100
0000
0010
0000
1000
0000
0000
0000
,
0001
0010
0000
0100
0000
1000
0000
0010
,
0100
0001
0000
1000
0000
0001
0000
1000
,
0100
0010
0000
0001
0000
1000
0000
0010
,
0100
0011
1010
1001
,
0100
0010
0000
1000
0000
0001
0000
0010
,
0100
0010
0000
0001
0000
1000
0000
0010
,
0100
0001
0000
1000
0000
0100
0000
1000
,
0010
1010
0110
0101
,
1000
0000
0001
0000
0010
0100
1000
0001
,
0000
1000
0100
0000
1000
0001
0100
0000
,
0011
0000
0100
0000
1000
0010
1000
0100
,
0000
1000
0001
0000
1000
0010
1000
0000
,
1100
0000
0001
1000
0001
0100
0000
0010
,
0000
1000
0100
0000
0010
0001
1000
0000
,
1001
0000
0110
0000
0001
1000
0010
0100
,
0001
0000
1000
0000
0001
0000
0010
0100
,
0000
0010
0001
0000
1000
0000
0010
0100
,
0001
0000
1000
0000
0001
0000
0010
0001
,
0000
1000
0010
0000
0200
0000
1000
0000
,
0301
0000
0010
0000
0100
0000
1000
0001
,
0000
0100
0001
0000
0010
0000
0100
1000
,
0001
0010
0100
1000
,
0001
1000
0001
1000
0010
0100
0010
0000
,
0011
0000
0110
0000
0100
1000
0010
0000
,
0110
0000
0101
0000
1000
0001
0100
0000
,
0011
0000
0110
0000
0010
0001
1000
0000
,
0110
0000
0100
0001
0010
0001
1000
0000
,
1010
0000
0110
0000
0100
0001
0010
0000
,
0011
0000
1001
0000
1000
0010
0100
0000
,
0101
0000
1001
0000
1000
0100
0010
0000
,
0001
1000
0010
0100
0001
1000
0010
0000
,
0100
0000
0001
1000
0100
1000
0010
0000
,
0100
0000
0001
0010
0100
1000
0100
0000
,
1000
0000
0001
0100
0010
0100
0001
0000
,
2100
0010
0001
3100
,
0010
0000
0001
1000
0010
1000
0001
0000
,
0100
0000
0010
1000
0100
0010
0001
0000
,
0100
0000
0001
1000
0100
1000
0010
0000
,
0100
0000
0001
0100
0000
0010
1000
0000
,
0100
0010
0000
0011
0000
0100
0000
0110
,
0000
1000
0000
1100
0000
0010
0001
0000
,
0100
0010
0000
1010
0000
0100
0000
1100
,
0000
0010
0001
0000
1000
0010
0100
0000
,
0001
0010
0000
0110
0000
0001
0000
1100
,
0000
0001
0000
1010
0000
0010
0100
0000
,
0001
1000
0000
1100
0000
0010
0000
0101
,
1000
0000
0001
0000
0010
0100
0110
0000
;

//---------------dance-single - Blank----------------
#NOTES:
     dance-single:
     Blank:
     Medium:
     7:
     0.495,0.508,0.121,0.065,0.000,351.000,13.000,7.000,0.000,0.000,0.000,0.495,0.508,0.121,0.065,0.000,351.000,13.000,7.000,0.000,0.000,0.000:
0000
0000
0000
0000
,
0000
0000
0000
0000
,
0000
0000
0000
0000
,
0000
0000
0000
0000
,
0000
0000
0000
0000
,
0000
0000
0000
0000
,
0000
0000
0000
0000
,
0001
1000
0010
1000
0001
0000
0010
0100
,
1000
0000
0010
0000
0100
0001
0100
0000
,
0010
1000
0010
0000
1000
0000
0001
0010
,
0100
0000
0010
0000
0001
0010
0001
0000
,
1000
0001
1000
0000
0010
0000
0100
0001
,
0010
0000
0100
0000
1000
0010
1000
0000
,
0001
0100
0001
0000
1000
0000
0001
0010
,
0100
0000
1000
0000
0010
1000
0100
0001
,
0100
1000
0100
0000
0010
0001
0010
0000
,
0001
0100
0010
1000
,
0001
0010
0001
0000
1000
0010
1000
0000
,
0001
0000
0010
0000
0100
1000
0100
0000
,
1000
0001
1000
0000
0001
0100
0001
0000
,
0100
0010
1000
0001
,
0010
0100
0010
0000
0001
1000
0001
0000
,
0100
0000
0010
0000
0100
0000
0010
0000
0100
0000
0020
0000
0200
0000
0000
0330
,
0001
1000
0001
0000
0010
0000
0010
0000
,
0100
1000
0100
0000
0010
0000
0010
0000
,
0001
0100
0001
0000
1000
0000
1000
0000
,
0010
0000
0010
0100
0001
1000
0001
0000
,
1000
0100
1000
0000
0010
0000
0010
0000
,
0100
0001
0100
0000
0010
0000
0010
0000
,
1000
0001
1000
0000
0100
0000
0100
0000
,
0010
0000
0010
0001
1000
0001
0100
0000
,
0010
0000
0000
1000
0000
0001
0000
0010
,
0100
0000
0000
1000
0000
0001
0000
1000
,
0010
0000
0000
0100
0000
0001
0000
1000
,
0100
0011
0100
1010
,
0100
0000
0000
0001
0000
0010
0000
0100
,
1000
0000
0000
0001
0000
1000
0000
0010
,
0100
0000
0000
0001
0000
0010
0000
0001
,
1000
1010
0100
0011
,
1000
0000
0001
0100
0010
0000
0000
1000
,
0000
0000
0001
0000
0010
0100
0010
0000
,
0001
0000
1000
0000
0001
0000
0000
0100
,
0000
0000
0010
0000
1000
0001
1000
0000
,
0001
0000
0010
0100
0010
0000
0000
0001
,
0000
1000
0010
0000
0100
0001
0100
0000
,
1001
0000
0010
0000
0100
0001
0010
0100
,
2000
0100
0001
0000
,
0100
0000
0100
0000
3010
0000
0010
1000
,
0002
0000
0010
0000
1000
0000
0000
0100
,
0000
0000
1000
0000
1003
0000
0000
0100
,
0020
0001
1000
0000
,
0100
0000
0100
0000
0031
0000
0001
0100
,
0010
1000
0001
0010
,
0001
1000
0001
1000
0010
0100
0010
0100
,
0001
0000
1000
0100
0010
0000
0001
0000
,
1000
0000
0010
0100
0001
0000
1000
0000
,
0001
0000
1000
0100
0010
0000
0001
0000
,
0100
0000
0010
0100
0001
0000
1000
0000
,
0010
0000
1000
0001
0010
0000
0100
0000
,
0010
0000
0001
0010
0100
0000
1000
0000
,
0010
0000
1000
0001
0100
0000
0010
0000
,
1000
0001
1000
0001
0100
0010
0100
0010
,
1000
0000
0001
0010
0100
0000
0010
0000
,
0001
0101
1100
1000
,
0010
0000
0100
0001
0010
0000
0100
0000
,
2010
3020
0100
0130
,
0001
0000
0010
0100
1000
0000
0001
0000
,
0100
1010
0011
0100
,
0001
0000
0010
0100
1000
0000
0001
0000
,
1001
0000
0000
0000
,
0100
0001
0000
0100
0001
0100
0000
0001
,
1000
0010
0000
0010
0000
0010
0000
0010
,
1000
0100
0000
0010
0001
0010
0000
0100
,
1000
0001
0000
0001
0000
0001
0000
0001
,
1000
0010
0000
1000
0010
1000
0000
0001
,
1000
0100
0000
0100
0000
0100
0000
0100
,
1000
0010
0000
0100
0001
0100
0000
0000
,
1001
0000
0010
1000
0001
0000
1001
0000
;

//---------------dance-single - Blank----------------
#NOTES:
     dance-single:
     Blank:
     Easy:
     5:
     0.381,0.435,0.345,0.131,0.000,235.000,37.000,14.000,0.000,0.000,0.000,0.381,0.435,0.345,0.131,0.000,235.000,37.000,14.000,0.000,0.000,0.000: // measure 1
0000
0000
0000
0000
,  // measure 2
0000
0000
0000
0000
,  // measure 3
0000
0000
0000
0000
,  // measure 4
0000
0000
0000
0000
,  // measure 5
0000
0000
0000
0000
,  // measure 6
0000
0000
0000
0000
,  // measure 7
0000
0000
0000
0000
,  // measure 8
0000
0000
0001
0001
,  // measure 9
1000
0100
0010
0001
,  // measure 10
0010
0001
1000
1000
,  // measure 11
0010
0100
0001
1000
,  // measure 12
0001
1000
0010
0010
,  // measure 13
1000
0100
0010
0001
,  // measure 14
0010
0001
1000
1000
,  // measure 15
0010
0100
0001
1000
,  // measure 16
0100
0100
1000
1000
,  // measure 17
0001
0000
1000
0000
,  // measure 18
0010
0010
0100
0100
,  // measure 19
0001
0000
1000
0100
,  // measure 20
1000
1000
0010
0010
,  // measure 21
0100
0000
0001
0000
,  // measure 22
1000
1000
0100
0100
,  // measure 23
1000
0000
0000
0000
0001
0000
0000
0000
1000
0000
0000
0000
2002
0000
0000
3003
,  // measure 24
0000
0010
0010
0010
,  // measure 25
0000
0100
0100
0100
,  // measure 26
0000
0001
0001
0001
,  // measure 27
1000
0100
1000
0100
,  // measure 28
0000
0010
0010
0010
,  // measure 29
0000
0100
0100
0100
,  // measure 30
0000
1000
1000
1000
,  // measure 31
0001
1000
0010
1000
,  // measure 32
0002
0000
0100
0100
,  // measure 33
2003
0000
0010
0010
,  // measure 34
3200
0000
0010
0310
,  // measure 35
0011
1100
0011
1100
,  // measure 36
0020
0000
0001
0001
,  // measure 37
2030
0000
0100
0100
,  // measure 38
3002
0000
0010
0013
,  // measure 39
0101
1010
0101
1010
,  // measure 40
0001
1000
0100
0000
,  // measure 41
0010
0001
0100
0010
,  // measure 42
1000
0001
0010
0000
,  // measure 43
0001
1000
0100
1000
,  // measure 44
0010
0100
0001
0000
,  // measure 45
1000
0100
0010
0100
,  // measure 46
0000
1001
0000
0010
,  // measure 47
0200
0000
0301
0000
,  // measure 48
0020
0000
0130
0000
,  // measure 49
0011
0000
1000
0000
,  // measure 50
0020
0000
0130
0000
,  // measure 51
1001
0000
0100
0000
,  // measure 52
0020
0000
1030
0000
,  // measure 53
0011
1001
0000
0000
,  // measure 54
0010
0010
0100
0100
,  // measure 55
0011
0011
0100
1000
,  // measure 56
1010
1010
0100
0001
,  // measure 57
1100
1100
0010
0100
,  // measure 58
0011
0100
1000
0010
,  // measure 59
0101
0101
1000
0100
,  // measure 60
0011
0011
0100
0010
,  // measure 61
1010
1010
1000
0001
,  // measure 62
0010
0010
0100
0100
,  // measure 63
1000
0001
0100
0010
,  // measure 64
0100
0001
0001
1000
,  // measure 65
0100
0010
0001
1000
,  // measure 66
1001
0001
1000
0001
,  // measure 67
0100
0010
1000
1000
,  // measure 68
0001
0010
0100
0010
,  // measure 69
0001
0100
0010
0010
,  // measure 70
2002
0000
0000
3003
,  // measure 71
0000
0010
0000
0010
,  // measure 72
0100
0101
1000
1100
,  // measure 73
0000
0010
0000
0001
,  // measure 74
0100
0110
1000
1100
,  // measure 75
0000
0001
0000
1000
,  // measure 76
0100
0110
0001
0101
,  // measure 77
0000
0010
0000
1000
,  // measure 78
1001
0010
0100
1001
;

//---------------dance-single - Blank----------------
#NOTES:
     dance-single:
     Blank:
     Beginner:
     3:
     0.212,0.254,0.009,0.168,0.000,140.000,1.000,18.000,0.000,0.000,0.000,0.212,0.254,0.009,0.168,0.000,140.000,1.000,18.000,0.000,0.000,0.000: // measure 1
0000
0000
0000
0000
,  // measure 2
0000
0000
0000
0000
,  // measure 3
0000
0000
0000
0000
,  // measure 4
0000
0000
0000
0000
,  // measure 5
0000
0000
0000
0000
,  // measure 6
0000
0000
0000
0000
,  // measure 7
0000
0000
0000
0000
,  // measure 8
0000
0000
0000
0001
,  // measure 9
0000
1000
0010
0000
,  // measure 10
0100
0000
0000
0001
,  // measure 11
0000
0010
0100
0000
,  // measure 12
1000
0000
0000
0010
,  // measure 13
0000
1000
0001
0000
,  // measure 14
0100
0000
0000
0010
,  // measure 15
0000
0200
0020
0000
,  // measure 16
0330
1000
0000
0001
,  // measure 17
0000
0010
0000
0010
,  // measure 18
0000
0100
0000
1000
,  // measure 19
0000
0001
0000
0001
,  // measure 20
0000
0100
0000
0010
,  // measure 21
0000
1000
0000
1000
,  // measure 22
0000
0001
0000
0010
,  // measure 23
0000
0100
0100
0100
,  // measure 24
0000
0000
1000
1000
,  // measure 25
0000
0000
0001
0001
,  // measure 26
0000
0000
0100
0100
,  // measure 27
0010
0000
0100
0000
,  // measure 28
0000
0000
0001
0001
,  // measure 29
0000
0000
1000
1000
,  // measure 30
0000
0000
0100
0100
,  // measure 31
0010
0000
0100
0000
,  // measure 32
1000
0000
0000
0000
,  // measure 33
0001
0000
0000
0000
,  // measure 34
0100
0000
0000
0000
,  // measure 35
0010
0010
1000
1000
,  // measure 36
0001
0000
0000
0000
,  // measure 37
0010
0000
0000
0000
,  // measure 38
0001
0000
0000
0000
,  // measure 39
0100
0100
0010
0010
,  // measure 40
1000
0000
0001
0000
,  // measure 41
0010
0000
0001
0000
,  // measure 42
1000
0000
0010
0000
,  // measure 43
0100
0000
0010
0000
,  // measure 44
1000
0000
0001
0000
,  // measure 45
0010
0000
0100
0000
,  // measure 46
1000
0000
0000
0000
,  // measure 47
0002
0000
0000
0000
,  // measure 48
2000
0000
0003
0000
,  // measure 49
0200
0000
3000
0000
,  // measure 50
0020
0000
0300
0000
,  // measure 51
0002
0000
0030
0000
,  // measure 52
0200
0000
0003
0000
,  // measure 53
0020
0000
0330
0000
,  // measure 54
1000
0001
1000
0001
,  // measure 55
1000
0000
0020
0030
,  // measure 56
0100
0000
0020
0030
,  // measure 57
1000
0000
0002
0003
,  // measure 58
0010
0000
0200
0300
,  // measure 59
0010
0000
0002
0003
,  // measure 60
1000
0000
0020
0030
,  // measure 61
0100
0000
0020
0030
,  // measure 62
1000
0001
1000
0001
,  // measure 63
0010
0000
0001
0000
,  // measure 64
1000
0000
0010
0000
,  // measure 65
0100
0000
0010
0000
,  // measure 66
0200
0000
0000
0300
,  // measure 67
0001
0000
1000
0000
,  // measure 68
0100
0000
0010
0000
,  // measure 69
0001
0000
1000
0000
,  // measure 70
0002
0000
0000
0003
,  // measure 71
0000
0000
1000
1000
,  // measure 72
0010
0000
0100
0100
,  // measure 73
0010
0000
1000
1000
,  // measure 74
0010
0000
0100
0000
,  // measure 75
0001
0000
0010
0010
,  // measure 76
0100
0000
1000
1000
,  // measure 77
0100
0000
0010
0010
,  // measure 78
0100
0000
0010
1001
;
