#TITLE:Proposed, Flower, Wolf Part 2;
#SUBTITLE:;
#ARTIST:ReX;
#TITLETRANSLIT:;
#SUBTITLETRANSLIT:;
#ARTISTTRANSLIT:;
#CREDIT:Pandemonium X;
#BANNER:bn.png;
#BACKGROUND:bg.png;
#LYRICSPATH:;
#CDTITLE:;
#MUSIC:Proposed, Flower, Wolf Part 2.mp3;
#OFFSET:-0.040;
#SAMPLESTART:65.500;
#SAMPLELENGTH:12.000;
#SELECTABLE:YES;
#BPMS:0.000=160.000,67.000=120.000,79.000=240.000,223.000=319.999,351.000=79.999;
#STOPS:;
#BGCHANGES:;

//---------------dance-single - Pandemonium X----------------
#NOTES:
     dance-single:
     Pandemonium X:
     Hard:
     9:
     0.680,1.000,0.343,0.287,0.236: // measure 1
0000
0000
0000
0000
,  // measure 2
0000
0000
0000
0000
,  // measure 3
0000
0000
0000
0000
,  // measure 4
0000
0000
0000
0000
,  // measure 5
0000
0000
0001
0200
,  // measure 6
0000
0000
0000
0000
0000
0000
0000
0000
0000
0000
0310
1000
0002
0000
0000
0000
,  // measure 7
0000
1003
0001
0200
,  // measure 8
0000
0000
0301
0100
0020
0000
0000
0000
0000
0000
0000
0000
0200
0000
0000
0000
,  // measure 9
0000
0000
0000
0000
0330
0000
0010
1000
,  // measure 10
0001
0010
0002
0000
0000
0010
0013
0000
,  // measure 11
0000
0000
0000
0000
0001
0000
0000
0001
0000
0000
0100
0001
0100
0000
0000
0001
,  // measure 12
0000
0000
0100
0000
0000
0000
0010
0000
0100
0000
0010
0000
1000
0000
0000
0001
,  // measure 13
0000
0000
0010
0001
0010
0000
0000
0001
0000
0000
0010
0000
0001
0000
0100
0000
,  // measure 14
0010
0000
0100
0000
0001
0000
0000
0000
0000
0000
1000
0000
1000
0000
0000
1000
,  // measure 15
0000
0000
0001
0000
0100
0000
0000
0010
0000
0000
0100
0000
0110
0000
0000
0000
,  // measure 16
0010
0000
1000
0000
0001
0000
0000
1000
0000
0000
0100
0000
1000
0000
0000
1000
,  // measure 17
0000
0000
0001
0000
0010
0000
0000
0001
0000
0000
0001
0000
1001
0000
0000
0001
,  // measure 18
0000
0000
0001
0100
0001
0100
0000
0000
0010
0000
0000
0100
0000
0000
0010
0100
,  // measure 19
0010
0100
0000
0000
0010
1000
0010
1000
0000
0000
0001
0100
0001
0100
0000
0000
,  // measure 20
0001
0010
0100
1000
0100
0010
0001
0010
0100
1000
0010
0100
0010
0000
0000
0000
,  // measure 21
0010
0001
1000
0001
0010
0000
0011
0000
,  // measure 22
0001
0100
0010
0000
0010
0100
0001
1000
,  // measure 23
0010
0000
1010
0000
0001
0100
0001
0000
,  // measure 24
0100
0010
1000
0001
0010
0000
0001
0000
,  // measure 25
0001
0100
0010
0000
0010
1000
0100
1000
,  // measure 26
0100
0010
0001
1000
0010
1000
0010
0000
,  // measure 27
0101
0000
0001
0010
0001
0000
1100
0000
,  // measure 28
0001
0100
0010
0000
0110
0000
0010
1000
,  // measure 29
0001
0000
1001
0000
1000
0000
0001
0100
,  // measure 30
0001
0010
0001
0000
0010
0001
0010
0001
,  // measure 31
0100
0000
0010
1000
0001
0010
0001
0100
,  // measure 32
0010
1000
0001
0010
0001
0100
0020
0000
,  // measure 33
0130
0000
0010
1000
0002
0000
0013
0000
,  // measure 34
0001
0100
0020
0000
0130
0000
0010
1000
,  // measure 35
0002
0000
0013
0000
0001
1000
0200
0000
,  // measure 36
1300
0100
1000
0001
0200
0000
0301
0000
,  // measure 37
0001
0100
0020
0000
0130
0000
0010
1000
,  // measure 38
0001
0010
0001
0100
0010
1000
0002
0000
,  // measure 39
0013
0000
0001
0100
0020
0000
0130
0000
,  // measure 40
0010
1000
0002
0000
0013
0000
0001
0100
,  // measure 41
0020
0000
0130
0000
0010
0000
0100
0010
,  // measure 42
1000
0001
0010
0000
0001
0010
0001
0100
,  // measure 43
0010
0000
0010
0100
0010
1000
0001
1000
,  // measure 44
0100
1000
0100
1000
0100
1000
0010
0100
,  // measure 45
0010
1000
0001
1000
0010
0100
0001
0010
,  // measure 46
0100
0010
0001
0010
0001
1000
0001
0020
,  // measure 47
0200
0000
0330
0110
,  // measure 48
0010
0100
0000
0100
0010
0000
1001
0000
,  // measure 49
0001
1000
0100
0000
0100
1000
0001
0000
,  // measure 50
0001
1000
0010
0000
0010
1000
0001
0000
,  // measure 51
1000
0001
0002
1003
,  // measure 52
2000
3001
0001
0010
,  // measure 53
0002
0013
0020
0031
,  // measure 54
0100
0010
1000
0001
,  // measure 55
0010
0011
1100
0101
,  // measure 56
1010
0110
1001
1000
,  // measure 57
0001
0000
0001
0100
,  // measure 58
0010
0000
0010
1000
,  // measure 59
0001
0000
0001
1000
,  // measure 60
0000
0000
1001
0000
1000
0010
1000
0000
,  // measure 61
0010
0000
1000
0001
,  // measure 62
0100
0000
0100
0010
,  // measure 63
1000
0000
2002
0000
0000
3003
2200
0000
,  // measure 64
0000
3300
0022
0000
0000
0033
1001
0000
,  // measure 65
1001
0000
0001
0101
,  // measure 66
0101
0000
0100
0110
,  // measure 67
1001
0000
1000
1100
,  // measure 68
1100
0000
1000
1001
,  // measure 69
0101
0000
0001
0101
,  // measure 70
1010
0000
1000
1001
,  // measure 71
0101
0000
0001
0101
,  // measure 72
0000
1100
0000
0001
,  // measure 73
0000
0001
0010
0000
0000
0010
0100
0000
,  // measure 74
0000
0100
1000
0000
0000
1000
0001
0000
,  // measure 75
0000
0001
0100
0000
0000
0100
0010
0000
,  // measure 76
0000
0010
1000
0000
0100
1000
0100
0000
,  // measure 77
0000
0001
0010
0000
0000
0001
0100
0000
,  // measure 78
0000
0001
0010
0000
0000
0001
1000
0000
,  // measure 79
0000
1000
0100
0000
0000
1000
0010
0000
,  // measure 80
0000
0010
0100
0000
0000
0010
1000
0000
,  // measure 81
0010
1000
0100
0010
,  // measure 82
0010
0001
0001
1000
,  // measure 83
0001
0010
0100
1000
,  // measure 84
1000
0000
0001
0000
0001
0000
1000
0001
,  // measure 85
1000
0000
0001
0000
0100
0000
0010
0100
,  // measure 86
0010
0000
0100
0000
0010
0000
1000
0010
,  // measure 87
1000
0000
0010
0000
1000
0000
1000
0001
,  // measure 88
1000
0010
0100
2002
,  // measure 89
3003
0000
0000
0000
0000
0000
0000
0000
0000
0000
0000
0000
0000
0000
0000
0000
0000
0000
0000
0000
0000
0000
0000
0000
0000
0000
0000
1000
0000
0000
0000
0000
,  // measure 90
0000
0000
0000
0000
0000
0000
1000
0000
0000
0000
0000
0000
0000
0000
0000
0000
0000
0000
0100
0000
0000
0000
0000
0000
0000
0000
0000
0000
0000
0000
0000
0000
0000
0010
0000
0000
0000
0000
0000
0001
0000
0000
0000
0000
0000
0000
0000
0000
0010
0000
0000
0000
0000
0000
0000
0000
0000
0001
0000
0000
0000
0000
0000
0000
0000
0000
0000
0000
0000
0000
0000
0000
0001
0000
0000
0000
0000
0000
0000
0000
0000
0000
0000
0000
0000
0000
0000
0000
0000
0000
0100
0000
0000
0000
0000
0000
0000
0000
0000
0000
0000
0000
0000
0000
0000
0000
0000
0000
0000
0000
0000
0000
0000
0000
0000
0000
0000
0000
0000
0000
0000
0000
0000
0000
0000
0000
0000
0000
0000
0000
0000
0000
0000
0000
0000
0000
0000
0000
0000
0000
0000
0000
0000
0000
0000
0000
0000
0000
0000
0000
0000
0000
0000
0000
0000
0000
0000
0000
0000
0000
0000
0000
0000
0000
0000
0000
0000
0000
0001
0000
0000
0000
0000
0000
0000
0000
0000
0000
0000
0000
0000
0000
0000
0000
0100
0000
0000
0000
0000
0000
0000
0000
,  // measure 91
0000
0000
0000
0000
0000
0000
0000
0000
0001
0000
0000
0000
0000
0000
0000
0000
0000
0000
0000
0000
0000
0000
0000
0000
0001
0000
0000
0000
0000
0000
0000
0000
0000
0000
0000
0000
0000
0000
0000
0000
0000
0000
0000
0000
0000
0000
0000
0000
0000
0000
0000
0000
0000
0000
0000
0000
1000
0000
0000
0000
0000
0000
0000
0000
0001
0000
0000
0000
0000
0000
0000
0000
0100
0000
0000
0000
0000
0000
0000
0000
0000
0001
0000
0000
0000
0000
0000
0000
0000
0000
0100
0000
0000
0000
0000
0000
0000
0000
0000
0001
0000
0000
0000
0000
0000
0000
0000
0000
0000
0000
0000
0000
0000
0000
0000
0000
0000
0000
0000
0000
0000
0000
0000
0000
0000
0000
0000
0000
0000
0001
0000
0000
0000
0000
0000
0000
0000
0000
0000
0000
0000
0000
0000
0000
0000
0000
0000
0000
0000
0000
0000
0000
0000
1000
0000
0000
0000
0000
0000
0000
0000
0000
0000
0000
0000
0000
0000
0000
0000
0000
0000
0000
0000
0000
1000
0000
0000
0000
0000
0000
0000
0000
0000
0000
0000
0000
0000
0000
0000
0000
0000
0000
,  // measure 92
0000
0000
0000
0000
0000
0000
0000
0000
0000
0000
0000
0000
0100
0000
0000
0000
0000
0000
0000
0000
0000
0000
0000
0000
0000
0000
0000
0000
0000
0000
0000
0000
0000
0000
0000
0000
0000
0000
0000
0000
0000
0000
0000
0000
0000
0000
0000
0000
0000
0000
0000
0000
0000
0000
0000
0000
0100
1000
0000
0000
0000
0000
0000
0000
,  // measure 93
0000
0000
0000
0000
0000
0000
1000
0000
0000
0000
0000
0000
0000
0100
0000
0000
0000
0000
0000
0000
0000
0000
0000
0010
0001
0000
0000
0000
0000
0000
0000
0000
0000
0000
0000
0000
0000
0000
0000
0000
0000
0000
0000
0000
0000
0000
0000
0000
0000
0000
0000
0000
0000
0000
0000
0000
0000
0000
0000
0000
0000
0000
0000
0000
;

//---------------dance-single - Pandemonium X----------------
#NOTES:
     dance-single:
     Pandemonium X:
     Medium:
     7:
     0.449,0.685,0.315,0.297,0.088: // measure 1
0000
0000
0000
0000
,  // measure 2
0000
0000
0000
0000
,  // measure 3
0000
0000
0000
0000
,  // measure 4
0000
0000
0000
0000
,  // measure 5
0000
0000
1000
0200
,  // measure 6
0000
0000
0000
1300
,  // measure 7
0000
1000
0001
0200
,  // measure 8
0000
0001
0000
0301
,  // measure 9
0000
0000
0000
0000
0000
0000
0001
0100
,  // measure 10
0010
1000
0020
0000
0000
0000
0030
0000
,  // measure 11
0000
0000
0000
0000
0010
0000
0000
0000
0000
0000
0010
0000
1000
0000
0000
1000
,  // measure 12
0000
1000
0000
0000
0000
0000
0000
0000
,  // measure 13
0000
0000
1000
0000
0001
0000
0000
0010
0000
0000
0001
0000
0100
0000
0001
0000
,  // measure 14
0100
0010
2000
0000
0000
3100
1100
0000
,  // measure 15
0100
1100
0101
2001
,  // measure 16
0000
0001
0000
3001
,  // measure 17
1000
0000
0001
0000
1000
0001
0110
0000
,  // measure 18
0000
0100
0000
0000
0100
0000
0000
0010
,  // measure 19
0000
0000
1000
0000
0000
0001
0000
0000
,  // measure 20
1001
0000
0000
0100
0000
0000
0010
0000
,  // measure 21
1000
0010
0100
0100
,  // measure 22
0010
1000
0001
0010
,  // measure 23
0001
0001
1000
1001
,  // measure 24
0001
0100
0010
0010
,  // measure 25
0100
0010
1000
0001
,  // measure 26
0010
0010
0010
0011
,  // measure 27
0001
0000
0001
0100
0001
0000
0100
0000
,  // measure 28
0010
0100
0010
0000
0100
0000
0010
1000
,  // measure 29
0010
1000
0001
1000
,  // measure 30
0001
1000
0001
0000
0101
0000
0001
0100
,  // measure 31
0001
0000
0001
0100
0010
1000
0001
0100
,  // measure 32
0010
1000
0001
0100
0010
1000
0002
0000
,  // measure 33
0013
0001
0200
0310
,  // measure 34
0100
0020
1030
0010
,  // measure 35
2000
0000
3100
0000
1000
0100
1000
0000
,  // measure 36
0001
0100
0002
0013
,  // measure 37
0001
1000
0001
0000
0001
0000
0100
0000
,  // measure 38
0010
0100
0010
2000
,  // measure 39
0000
0000
3001
0100
0020
0000
0000
0000
,  // measure 40
0130
0010
2000
0000
0000
0000
3100
1000
,  // measure 41
0020
0000
0130
0010
,  // measure 42
1000
0001
0010
0001
,  // measure 43
0010
0001
0100
0010
,  // measure 44
1000
0001
0010
0001
,  // measure 45
0100
0010
1000
0001
,  // measure 46
0010
2002
0000
0000
,  // measure 47
0000
3003
0000
1001
,  // measure 48
0000
1100
0000
0000
1000
0000
0001
0000
,  // measure 49
0010
0000
0011
0000
0000
0101
0000
0000
,  // measure 50
0010
0100
0010
1000
,  // measure 51
0000
1001
0000
0000
1000
0000
0001
0000
,  // measure 52
0100
0000
0001
0000
0000
0101
0000
0000
,  // measure 53
0001
0100
0010
1000
,  // measure 54
0001
0010
0001
0100
,  // measure 55
0010
0110
1001
1100
,  // measure 56
0011
0101
1010
1002
,  // measure 57
0000
0000
0000
2003
,  // measure 58
0000
3200
0000
2300
,  // measure 59
0000
0000
0000
0000
,  // measure 60
0000
0000
0000
0000
3001
0100
0020
0000
,  // measure 61
0000
0000
0000
0000
,  // measure 62
0000
0000
0000
0030
,  // measure 63
0000
0200
0000
0320
,  // measure 64
0000
2030
0000
3002
,  // measure 65
0000
0000
0000
2003
,  // measure 66
0000
0000
0000
3020
,  // measure 67
0000
0000
0000
0000
,  // measure 68
0000
1000
0000
2030
,  // measure 69
0000
0000
3200
0000
,  // measure 70
0000
2300
0000
0000
,  // measure 71
0000
0020
0000
0000
,  // measure 72
0000
3030
0000
1001
,  // measure 73
0000
0001
0000
0101
,  // measure 74
0000
0001
0000
0011
,  // measure 75
0000
0001
0000
0101
,  // measure 76
0000
0001
0100
0110
,  // measure 77
0000
0010
0000
0110
,  // measure 78
0000
0001
0000
1001
,  // measure 79
0000
1000
0000
1000
,  // measure 80
0000
1000
0000
1001
,  // measure 81
0000
0001
0000
0101
,  // measure 82
0000
0010
0000
0110
,  // measure 83
0000
0010
0000
1010
,  // measure 84
0000
0010
0000
0100
,  // measure 85
0000
0010
0000
1000
,  // measure 86
0000
0001
0000
1000
,  // measure 87
0001
0100
0001
0100
,  // measure 88
0010
1000
0100
0020
,  // measure 89
0000
0000
0000
0000
0000
0000
0000
0000
0030
0000
0000
0000
0000
0000
0000
0000
0000
0000
0000
0000
0000
0000
0000
0000
0000
0000
0000
1000
0000
0000
0000
0000
,  // measure 90
0000
0000
0000
0000
0000
0000
1000
0000
0000
0000
0000
0000
0000
0000
0000
0000
0000
0000
0000
0000
0000
0000
0000
0000
0000
0000
0000
0000
0000
0000
0000
0000
0000
0010
0000
0000
0000
0000
0000
0000
0000
0000
0000
0000
0000
0000
0000
0000
1000
0000
0000
0000
0000
0000
0000
0000
0000
0000
0000
0000
0000
0000
0000
0000
0000
0000
0000
0000
0000
0000
0000
0000
0001
0000
0000
0000
0000
0000
0000
0000
0000
0000
0000
0000
0000
0000
0000
0000
0000
0000
0100
0000
0000
0000
0000
0000
0000
0000
0000
0000
0000
0000
0000
0000
0000
0000
0000
0000
0000
0000
0000
0000
0000
0000
0000
0000
0000
0000
0000
0000
0000
0000
0000
0000
0000
0000
0000
0000
0000
0000
0000
0000
0000
0000
0000
0000
0000
0000
0000
0000
0000
0000
0000
0000
0000
0000
0000
0000
0000
0000
0000
0000
0000
0000
0000
0000
0000
0000
0000
0000
0000
0000
0000
0000
0000
0000
0000
0000
0001
0000
0000
0000
0000
0000
0000
0000
0000
0000
0000
0000
0000
0000
0000
0000
0100
0000
0000
0000
0000
0000
0000
0000
,  // measure 91
0000
0000
0000
0000
0000
0000
0000
0000
0001
0000
0000
0000
0000
0000
0000
0000
0000
0000
0000
0000
0000
0000
0000
0000
0001
0000
0000
0000
0000
0000
0000
0000
0000
0000
0000
0000
0000
0000
0000
0000
0000
0000
0000
0000
0000
0000
0000
0000
0000
0000
0000
0000
0000
0000
0000
0000
0001
0000
0000
0000
0000
0000
0000
0000
0000
0000
0000
0000
0000
0000
0000
0000
0100
0000
0000
0000
0000
0000
0000
0000
0000
0001
0000
0000
0000
0000
0000
0000
0000
0000
0100
0000
0000
0000
0000
0000
0000
0000
0000
0001
0000
0000
0000
0000
0000
0000
0000
0000
0000
0000
0000
0000
0000
0000
0000
0000
0000
0000
0000
0000
0000
0000
0000
0000
0000
0000
0000
0000
0000
0001
0000
0000
0000
0000
0000
0000
0000
0000
0000
0000
0000
0000
0000
0000
0000
0000
0000
0000
0000
0000
0000
0000
0000
1000
0000
0000
0000
0000
0000
0000
0000
0000
0000
0000
0000
0000
0000
0000
0000
0000
0000
0000
0000
0000
1000
0000
0000
0000
0000
0000
0000
0000
0000
0000
0000
0000
0000
0000
0000
0000
0000
0000
,  // measure 92
0000
0000
0000
0000
0000
0000
0000
0000
0000
0000
0000
0000
0100
0000
0000
0000
0000
0000
0000
0000
0000
0000
0000
0000
0000
0000
0000
0000
0000
0000
0000
0000
0000
0000
0000
0000
0000
0000
0000
0000
0000
0000
0000
0000
0000
0000
0000
0000
0000
0000
0000
0000
0000
0000
0000
0000
0000
1000
0000
0000
0000
0000
0000
0000
,  // measure 93
0000
0000
0000
0000
0000
0000
1000
0000
0000
0000
0000
0000
0000
0010
0000
0000
0000
0000
0000
0000
0000
0000
0000
0000
0100
0000
0000
0000
0000
0000
0000
0000
0000
0000
0000
0000
0000
0000
0000
0000
0000
0000
0000
0000
0000
0000
0000
0000
0000
0000
0000
0000
0000
0000
0000
0000
0000
0000
0000
0000
0000
0000
0000
0000
;

//---------------dance-single - Pandemonium X----------------
#NOTES:
     dance-single:
     Pandemonium X:
     Easy:
     4:
     0.197,0.300,0.121,0.204,0.019: // measure 1
0000
0000
0000
0000
,  // measure 2
0000
0000
0000
0000
,  // measure 3
0000
0000
0000
0000
,  // measure 4
0000
0000
0000
0000
,  // measure 5
0000
0000
0000
2000
,  // measure 6
0000
0000
3000
0001
,  // measure 7
0000
0001
0100
0001
,  // measure 8
0000
0100
0000
0110
,  // measure 9
0000
0000
0000
0020
,  // measure 10
0000
0000
0000
0030
,  // measure 11
0000
0100
0000
0010
,  // measure 12
0000
1000
0000
0001
,  // measure 13
1000
0001
0100
0002
,  // measure 14
0000
0200
0003
0001
,  // measure 15
0000
0001
0001
0002
,  // measure 16
0000
0000
0000
0000
,  // measure 17
0000
0000
0303
1001
,  // measure 18
0000
0000
0000
0000
,  // measure 19
0000
0000
0000
0000
,  // measure 20
0000
0000
0000
0001
,  // measure 21
0000
0000
1000
0000
,  // measure 22
0000
0001
0000
0000
,  // measure 23
0100
0000
0000
0010
,  // measure 24
0000
0000
0100
0000
,  // measure 25
0000
0010
0000
0000
,  // measure 26
0010
1000
0010
0100
,  // measure 27
0000
0000
0010
0000
,  // measure 28
0000
1000
0000
0000
,  // measure 29
0001
0000
0000
1000
,  // measure 30
0000
0000
1000
0000
,  // measure 31
0000
0001
0000
0000
,  // measure 32
1000
0000
0000
1001
,  // measure 33
0000
0000
0010
0000
,  // measure 34
0000
1001
0000
0000
,  // measure 35
0100
0000
0000
0110
,  // measure 36
0000
0000
1000
0000
,  // measure 37
0000
0110
0000
0000
,  // measure 38
0001
0000
0000
0101
,  // measure 39
0000
0000
0200
0300
,  // measure 40
0000
0110
0000
0000
,  // measure 41
0020
0030
0000
1001
,  // measure 42
0000
0000
0001
0000
,  // measure 43
0000
1000
0000
0000
,  // measure 44
0001
0000
0000
0100
,  // measure 45
0000
0000
0100
0000
,  // measure 46
0000
0220
0000
0000
,  // measure 47
0000
0000
0330
0020
,  // measure 48
0000
0000
0100
0000
,  // measure 49
0000
0130
0000
0000
,  // measure 50
0010
0000
0000
1001
,  // measure 51
0000
0000
0001
0000
,  // measure 52
0000
1100
0000
0000
,  // measure 53
0001
0000
0000
0100
,  // measure 54
0000
0000
0010
0000
,  // measure 55
0000
0010
1000
0001
,  // measure 56
0100
0001
0010
0001
,  // measure 57
0000
0000
0000
0001
,  // measure 58
0000
0100
0000
0020
,  // measure 59
0000
0000
0000
0030
,  // measure 60
0000
0000
0000
0220
,  // measure 61
0000
0000
0000
0000
,  // measure 62
0000
0000
0000
0330
,  // measure 63
0000
0010
0000
1000
,  // measure 64
0000
0010
0000
0200
,  // measure 65
0000
0000
0000
0010
,  // measure 66
0000
0000
0000
0020
,  // measure 67
0000
0000
0000
0330
,  // measure 68
0000
0010
0000
2000
,  // measure 69
0000
0000
0001
0000
,  // measure 70
0000
0001
0000
0000
,  // measure 71
0000
0002
0000
0000
,  // measure 72
0000
3003
0000
0001
,  // measure 73
0000
0100
0000
0010
,  // measure 74
0000
1000
0000
0020
,  // measure 75
0000
0000
0000
0100
,  // measure 76
0000
0000
0000
0200
,  // measure 77
0000
0000
0000
0000
,  // measure 78
0000
0000
0000
0330
,  // measure 79
0000
0010
0000
1000
,  // measure 80
0000
0001
0000
1000
,  // measure 81
0000
0000
0000
1000
,  // measure 82
0000
0000
0000
2000
,  // measure 83
0000
0000
0000
0000
,  // measure 84
3000
0000
0000
0001
,  // measure 85
0000
0000
0000
0100
,  // measure 86
0000
0000
0020
0000
,  // measure 87
0000
0000
0200
0000
,  // measure 88
0000
0000
0000
0330
,  // measure 89
0000
0000
0000
0000
0000
0000
0000
1000
,  // measure 90
0000
0000
0000
0000
0000
0000
0000
0000
0000
0000
0000
0000
0000
0000
0000
0000
0000
0000
0000
0000
0000
0000
0000
0000
0000
0000
0000
0000
0000
0000
0000
0000
0000
0000
0000
0000
0000
0000
0000
0000
0000
0000
0000
0000
0000
0000
0000
0000
0000
0000
0000
0000
0000
0000
0000
0000
0000
0000
0000
0001
0000
0000
0000
0000
,  // measure 91
0000
0000
0000
0000
0000
0000
0000
0000
0000
0000
0000
0000
0000
0000
0000
0000
0000
0000
0000
0000
0000
0000
0000
0000
0000
0000
0000
0000
0000
0000
0000
0000
0000
0000
0000
0000
0000
0000
0000
0000
0000
0000
0000
1000
0000
0000
0000
0000
0000
0000
0000
0000
0000
0000
0000
0000
0000
0000
0000
0000
0000
0000
0000
0000
,  // measure 92
0000
0000
0000
0000
0000
0010
0000
0000
0000
0000
0000
0000
0000
0000
0000
0000
0000
0000
0000
0000
0000
0000
0000
0000
0000
0000
0000
0000
0000
0100
0000
0000
,  // measure 93
0000
0000
0000
0010
0000
0000
0000
0000
;

//---------------dance-single - Pandemonium X----------------
#NOTES:
     dance-single:
     Pandemonium X:
     Beginner:
     2:
     0.107,0.257,0.093,0.000,0.019: // measure 1
0000
0000
0000
0000
,  // measure 2
0000
0000
0000
0000
,  // measure 3
0000
0000
0000
0000
,  // measure 4
0000
0000
0000
0000
,  // measure 5
0000
0000
0000
0000
,  // measure 6
0000
0000
0000
0000
,  // measure 7
0000
0000
0000
0000
,  // measure 8
0000
0000
0000
0000
,  // measure 9
0000
0000
0000
0001
,  // measure 10
0000
0000
0000
0000
,  // measure 11
0000
1000
0000
1000
,  // measure 12
0000
0000
0000
0000
,  // measure 13
0000
0010
0000
0100
,  // measure 14
0000
0000
0000
0010
,  // measure 15
0000
0010
0000
0010
,  // measure 16
0000
0000
0000
0100
,  // measure 17
0000
0010
0000
1001
,  // measure 18
0000
0000
0000
0000
,  // measure 19
0000
0000
0000
0000
,  // measure 20
0000
0000
0000
0001
,  // measure 21
0000
0000
0000
0000
,  // measure 22
0000
1000
0000
0000
,  // measure 23
0000
0000
0000
0010
,  // measure 24
0000
0000
0000
0000
,  // measure 25
0000
0100
0000
0000
,  // measure 26
0000
0000
0000
0010
,  // measure 27
0000
0000
0010
0000
,  // measure 28
0000
0010
0000
0000
,  // measure 29
0010
0000
0000
0100
,  // measure 30
0000
0000
0100
0000
,  // measure 31
0000
0100
0000
0000
,  // measure 32
0000
0000
0000
1001
,  // measure 33
0000
0000
0000
0000
,  // measure 34
0000
0001
0000
0000
,  // measure 35
0000
0000
0000
1000
,  // measure 36
0000
0000
0000
0000
,  // measure 37
0000
0010
0000
0000
,  // measure 38
0000
0000
0000
0010
,  // measure 39
0000
0000
1000
0000
,  // measure 40
0000
1000
0000
0000
,  // measure 41
0001
0000
0000
0100
,  // measure 42
0000
0000
0000
0000
,  // measure 43
0000
0001
0000
0000
,  // measure 44
0000
0000
0000
1001
,  // measure 45
0000
0000
1001
0000
,  // measure 46
0000
0110
0000
0000
,  // measure 47
0000
0000
0000
0110
,  // measure 48
0000
0000
0000
0000
,  // measure 49
0000
0010
0000
0000
,  // measure 50
0000
0000
0000
1000
,  // measure 51
0000
0000
0000
0000
,  // measure 52
0000
0001
0000
0000
,  // measure 53
0000
0000
0000
1000
,  // measure 54
0000
0000
0000
0000
,  // measure 55
0000
1001
0000
0000
,  // measure 56
1001
0000
0000
0110
,  // measure 57
0000
0000
0000
0000
,  // measure 58
0000
0000
0000
0010
,  // measure 59
0000
0000
0000
0000
,  // measure 60
0000
0000
0000
0100
,  // measure 61
0000
0000
0000
0000
,  // measure 62
0000
0000
0000
0000
,  // measure 63
0000
0010
0000
0000
,  // measure 64
0000
0000
0000
0010
,  // measure 65
0000
0000
0000
0000
,  // measure 66
0000
0000
0000
1000
,  // measure 67
0000
0000
0000
0000
,  // measure 68
0000
0000
0000
0001
,  // measure 69
0000
0000
0000
0000
,  // measure 70
0000
0000
0000
1000
,  // measure 71
0000
0000
0000
0000
,  // measure 72
0000
0000
0000
0010
,  // measure 73
0000
0000
0000
0010
,  // measure 74
0000
0000
0000
0010
,  // measure 75
0000
0000
0000
0100
,  // measure 76
0000
0000
0000
0010
,  // measure 77
0000
0000
0000
1000
,  // measure 78
0000
0000
0000
0001
,  // measure 79
0000
0000
0000
1000
,  // measure 80
0000
0000
0000
0001
,  // measure 81
0000
0000
0000
0001
,  // measure 82
0000
0000
0000
0001
,  // measure 83
0000
0000
0000
0000
,  // measure 84
0000
0000
0000
1000
,  // measure 85
0000
0000
0000
1000
,  // measure 86
0000
0000
0000
1000
,  // measure 87
0000
0000
0000
0001
,  // measure 88
0000
0000
0000
1001
,  // measure 89
0000
0000
0000
0000
0000
0000
0000
0000
0000
0000
0000
0000
0000
0000
0000
0000
0000
0000
0000
0000
0000
0000
0000
0000
0000
0000
0000
0000
0000
0000
0000
0000
0000
0000
0000
0000
0000
0000
0000
0000
0000
0000
0000
0000
0000
0000
0000
0000
0000
0000
0000
0000
0000
0000
0000
0000
0000
0010
0000
0000
0000
0000
0000
0000
,  // measure 90
0000
0000
0000
0000
0000
0000
0000
0000
0000
0000
0000
0000
0000
0000
0000
0000
0000
0000
0000
0000
0000
0000
0000
0000
0000
0000
0000
0000
0000
0000
0000
0000
0000
0000
0000
0000
0000
0000
0000
0000
0000
0000
0000
0000
0000
0000
0000
0000
0000
0000
0000
0000
0000
0000
0000
0000
0000
0100
0000
0000
0000
0000
0000
0000
,  // measure 91
0000
0000
0000
0000
,  // measure 92
0000
0000
0000
0000
0000
0000
0000
0000
0000
0000
0000
0010
0000
0000
0000
0000
0000
0000
0000
0000
0000
0000
0000
0000
0000
0000
0000
0000
0000
0000
0000
0000
0000
0000
0000
0000
0000
0000
0000
0000
0000
0000
0000
0000
0000
0000
0000
0000
0000
0000
0000
0000
0000
0000
0000
0000
0000
0000
1000
0000
0000
0000
0000
0000
,  // measure 93
0000
0000
0000
0001
0000
0000
0000
0000
;
