#TITLE:Natural Flow;
#SUBTITLE:;
#ARTIST:SEGA;
#TITLETRANSLIT:;
#SUBTITLETRANSLIT:;
#ARTISTTRANSLIT:;
#CREDIT:;
#BANNER:;
#BACKGROUND:;
#LYRICSPATH:;
#CDTITLE:./CDTITLES/DanceDanceRevolution X.png;
#MUSIC:10.-Natural Flow.mp3;
#OFFSET:-0.052;
#SAMPLESTART:43.365;
#SAMPLELENGTH:15.000;
#SELECTABLE:YES;
#DISPLAYBPM:100.000;
#BPMS:0.000=100.000;
#STOPS:;
#BGCHANGES:;

//---------------dance-single - ----------------
#NOTES:
     dance-single:
     :
     Medium:
     5:
     0.297,0.322,0.191,0.287,0.000:
0000
0000
0000
0000
,
0000
0000
0000
0000
,
0000
0000
0002
0000
1003
0100
0000
0100
,
0010
0000
0200
0000
0310
0001
0000
0001
,
1000
0000
2000
0000
3001
0010
0000
0010
,
0100
0000
1001
0000
1001
0000
0000
1000
,
1001
0010
0100
0020
,
0032
2003
0000
3200
,
0000
2300
0000
3002
,
0023
0230
0000
0000
,
0000
0300
0010
0010
0001
0000
1000
0001
,
1001
0000
0100
0100
1000
0000
0010
0100
,
0110
0000
0001
0001
1000
0000
0100
1000
,
1100
0101
0000
0000
,
0000
0000
1000
0001
0100
0010
0100
0100
,
0100
0000
0001
0100
0010
1000
0010
0010
,
0010
0000
1000
0100
0001
0010
0100
0000
,
0110
0000
1001
0000
0110
0000
0010
0010
,
0110
1000
0100
0010
,
2001
0000
0000
3001
0001
0000
0001
0000
,
0010
1000
0100
0001
,
1200
0000
0000
1300
1000
0000
1000
0000
,
0010
0001
0100
1000
,
0210
0000
0000
0310
0010
0000
1000
0000
,
0100
0010
0001
1000
,
2001
0000
3001
0001
0000
0010
0010
0000
,
0100
0100
2000
0000
0000
0000
0000
0000
,
0000
3002
0000
0000
,
0000
2003
0000
3002
,
0000
0000
1003
0000
0001
0011
0000
1000
,
1100
0011
0001
2000
,
3200
0320
0000
0032
,
0000
2003
0000
3200
,
2300
0000
3010
0000
0110
0000
0000
0001
,
1001
0001
0001
1000
,
0200
0000
0000
0310
0010
0100
1000
0000
,
0001
1000
0010
0001
,
2000
0000
0000
3001
0001
0000
0010
0100
,
0001
0100
0010
0000
0100
0000
1000
0000
,
0200
0000
0000
0301
0001
1000
0100
0000
,
0010
0100
1000
0001
,
2000
0000
3100
0100
0000
0010
0010
0000
,
0001
0001
0000
0000
0000
0000
0000
0000
;

//---------------dance-single - ----------------
#NOTES:
     dance-single:
     :
     Easy:
     3:
     0.212,0.241,0.249,0.124,0.000:
0000
0000
0000
0000
,
0000
0000
0000
0000
,
0000
2000
0000
0000
,
0000
0000
3020
0000
,
0000
0000
0000
0030
,
0000
0110
1001
0000
,
1001
0001
1000
0010
,
0100
0020
0000
2030
,
0000
3002
0000
1003
,
1001
0020
0000
0000
,
0030
0001
0001
1000
,
1100
0010
0010
0001
,
0011
0100
0100
1000
,
1001
1001
0000
0000
,
0000
0001
1000
0100
,
0001
0101
0001
0100
,
1000
0110
0010
1000
,
0010
1001
0100
0100
,
1001
0010
0010
0010
,
0010
0100
0101
0001
,
0101
0100
0100
0100
,
0100
0010
1010
0010
,
1010
1000
1000
1000
,
1000
0001
1001
0001
,
1001
0001
0001
0001
,
0001
0200
0300
0020
,
0030
1001
0000
0000
,
0000
1001
0000
0000
,
0000
1001
0000
0110
,
0000
1001
0000
0000
,
0000
1000
0100
0001
,
0100
2000
0000
3002
,
0000
2003
3000
0001
,
0010
0220
0000
0000
,
0000
0330
0001
0000
0001
0000
0100
0000
,
1000
0000
0100
0001
,
0010
0100
1000
0010
,
0001
0000
0010
0010
,
0010
1000
0001
0100
,
0010
0000
0100
0010
,
1000
0001
0010
0100
,
1000
1001
0000
0000
,
1001
0000
0000
0000
;

//---------------dance-single - ----------------
#NOTES:
     dance-single:
     :
     Hard:
     7:
     0.394,0.423,0.335,0.239,0.010:
0000
0000
0000
0000
,
0000
0000
0000
0000
,
0000
0000
1000
0100
0010
0001
0000
0001
,
1001
0000
0001
0010
0100
1000
0000
1000
,
1001
0000
0001
0100
1000
0100
0000
0010
,
0011
0000
1001
0000
1001
0000
0000
0010
,
0010
0010
1001
0000
1000
0000
0200
0000
,
0320
0032
0000
0203
,
0000
0320
0000
2030
,
3200
0000
1300
0001
1000
0001
1000
0001
,
0110
0000
1000
0100
0001
0100
0010
0010
,
0100
0000
1000
0001
0100
1000
0100
0100
,
0010
0000
1000
0010
0100
0001
1000
0001
,
1000
0000
1001
0000
0000
0100
0110
0000
,
1000
0000
0001
0010
0100
0000
0010
0000
0001
0000
1000
0000
0010
0000
0100
0000
,
0101
0000
0001
0010
1000
0010
0001
1000
,
1001
0000
0001
1000
0100
1000
0001
0100
,
1001
0000
0101
0001
1010
1000
0100
0101
,
1001
0000
1000
0100
0010
0001
1000
0100
,
0020
0000
0000
0031
0100
0100
0010
0010
,
1000
1000
0001
0010
0100
1000
0001
0010
,
0200
0000
0000
1300
0010
0010
1000
1000
,
0001
0001
1000
0010
0100
0001
1000
0010
,
0200
0000
0000
0301
0100
0100
0010
0010
,
1000
1000
0001
0100
1000
0100
0001
0010
,
0100
0000
0011
0011
0000
0110
0110
0000
,
1100
1001
2000
0000
0000
0000
0000
0000
,
0000
3200
0000
0000
,
0000
0302
0000
0023
,
0000
0030
0110
0000
1100
1100
0000
1001
,
0110
0000
0001
0010
0100
0000
0000
0000
1000
0000
0000
0000
0200
0000
0000
0000
,
0320
0032
0000
2003
,
0000
3020
0000
0230
,
0302
0000
1003
0000
1001
0000
0000
1001
,
1001
0000
1000
0100
1000
0010
0100
0001
,
0200
0000
0000
0310
1000
0100
0001
0100
,
0010
0001
1000
0001
0100
0001
0100
0010
,
2000
0000
0000
3001
0100
1000
0100
0010
,
1000
0001
1000
0010
0100
0010
1000
0010
,
2000
0000
0000
3001
1000
0010
0001
0010
,
0100
0001
1000
0100
0010
0001
1000
0100
,
2000
0000
3001
1001
0000
1001
1001
0000
,
0110
1001
0000
0000
0000
0000
0000
0000
;

//---------------dance-double - ----------------
#NOTES:
     dance-double:
     :
     Hard:
     8:
     0.432,0.443,0.383,0.172,0.120: // measure 1
00000000
00000000
00000000
00000000
,  // measure 2
00000000
00000000
00000000
00000000
,  // measure 3
00000000
00000000
00000000
00000000
00010000
00000000
00000000
00001000
00010000
00000000
00001000
00000000
00000000
00000000
00010000
00000000
,  // measure 4
01000000
00000000
00000000
00000000
10000000
00000000
00000000
00100000
01000000
00000000
00010000
00000000
00000000
00000000
00100000
00000000
,  // measure 5
00001000
00000000
00000000
00000000
00010000
00000000
00000000
00010000
00001000
00000000
00000010
00000000
00000000
00000000
00000100
00000000
,  // measure 6
00000110
00000000
00000011
00000000
00001100
00000000
00000000
00010100
,  // measure 7
00011000
01001000
01010000
00000000
01000000
00000000
20000000
00000000
,  // measure 8
30200000
00320000
00000000
02030000
,  // measure 9
00000000
03020000
00000000
20030000
,  // measure 10
30200000
00000000
01300000
00010000
10000000
00010000
01000000
00011000
,  // measure 11
00011000
00001000
00010000
00000100
00001000
00000001
00001000
00000100
,  // measure 12
00000110
00000000
00001000
00010000
01000000
00100000
00010000
10000000
,  // measure 13
11000000
00000000
10000000
01000000
00010000
01000000
10000000
01000000
,  // measure 14
00010000
00001000
00011000
00000000
00000000
00011000
00001100
00000000
,  // measure 15
00001000
00000000
00000001
00001000
00000001
00000000
00000001
00000000
00000100
00000000
00000100
00000000
00000010
00000100
00000010
00001000
,  // measure 16
00000010
00000000
00000100
00000001
00000010
00001000
00011000
01010000
,  // measure 17
10010000
00000000
10000000
00100000
01000000
00010000
10000000
01000000
,  // measure 18
00010000
00000000
00011000
00010000
00010000
00001000
00011000
00001000
,  // measure 19
00011000
00000000
00001000
01000000
00100000
10000000
01000000
00100000
,  // measure 20
00020000
00000000
00000000
00000000
00000000
00000000
00000000
00000000
00000000
10030000
00000000
00010000
01000000
00000000
00100000
10000000
00000000
00000000
00010000
00000000
00000000
10000000
00000000
00000000
,  // measure 21
01000000
00010000
00001000
00000100
00000010
00001000
00000001
00000100
,  // measure 22
00000020
00000000
00000000
00000000
00000000
00000000
00000000
00000000
00000000
00000130
00000000
00000001
00001000
00000000
00000100
00000010
00000000
00000000
00000001
00000000
00000000
00000010
00000000
00000000
,  // measure 23
00000100
00001000
00000001
00000100
00001000
00010000
01000000
10000000
,  // measure 24
02000000
00000000
00000000
00000000
00000000
00000000
00000000
00000000
00000000
13000000
00000000
00100000
10000000
00000000
00010000
01000000
00000000
00000000
00010000
00000000
00000000
01000000
00000000
00000000
,  // measure 25
00100000
10000000
00010000
01000000
00100000
10000000
01000000
00010000
,  // measure 26
00001000
00000000
00011000
00110000
00000000
00011000
00001100
00000000
,  // measure 27
00011000
00000000
00000000
00011000
00000000
00000000
00000100
00000000
00000000
00000000
00000000
00001000
00000000
00000000
00000000
00000001
00000000
00000000
00000000
00000000
00000010
00000000
00000000
00000000
,  // measure 28
00000001
00000000
00000000
00001000
00000000
00000000
01000000
00000000
00000000
00000000
00000000
10000000
00000000
00000000
00000000
01000000
00000000
00000000
00000000
00000000
00010000
00000000
00000000
00000000
,  // measure 29
01000000
00000000
00000000
10000000
00000000
00000000
00100000
00000000
00000000
00000000
00000000
00010000
00000000
00000000
00000000
00001000
00000000
00000000
00000000
00000000
00000100
00000000
00000000
00000000
,  // measure 30
00000010
00001000
00000001
00000000
00001010
00001001
00000000
00000110
,  // measure 31
00001001
00000000
00000001
00000010
00000100
00000000
00000000
00000000
00000100
00000000
00000000
00000000
00020000
00000000
00000000
00000000
,  // measure 32
02030000
03200000
00000000
02300000
,  // measure 33
00000000
23000000
00000000
30010000
,  // measure 34
10000000
00000000
00110000
00000000
00011000
00000000
00000000
00011000
,  // measure 35
00010010
00000000
00000010
00000100
00000001
00001000
00000010
00000100
,  // measure 36
00002000
00000000
00000000
00000000
00000000
00000000
00000000
00000000
00000000
00013000
00000000
01000000
00100000
00000000
00010000
10000000
00000000
00000000
00010000
00000000
00000000
10000000
00000000
00000000
,  // measure 37
01000000
00100000
00010000
01000000
00100000
10000000
01000000
00010000
,  // measure 38
00002000
00000000
00000000
00000000
00000000
00000000
00000000
00000000
00000000
00013000
00000000
00001000
00010000
00000000
00001000
00010000
00000000
00000000
00001000
00000000
00000000
00000100
00000000
00000000
,  // measure 39
00000010
00001000
00000001
00000010
00000100
00001000
00000001
00000010
,  // measure 40
00000200
00000000
00000000
00000000
00000000
00000000
00000000
00000000
00000000
00001300
00000000
00000010
00000100
00000000
00000001
00001000
00000000
00000000
00000100
00000000
00000000
00010000
00000000
00000000
,  // measure 41
00001000
00010000
01000000
10000000
00100000
01000000
00010000
10000000
,  // measure 42
01000000
00000000
00110000
00011000
00000000
00011000
00001100
00000000
,  // measure 43
00001100
00000110
00000000
00000000
00000000
00000000
00000000
00000000
;

//---------------dance-couple - ----------------
#NOTES:
     dance-couple:
     :
     Hard:
     2:
     0.164,0.243,0.048,0.134,0.000:
00000000
00000000
00000000
00000000
,
10000000
00000000
00000000
00000000
,
00010000
00000000
00000000
00000000
,
00100000
00000000
00000000
00000000
,
01000000
00000000
00000000
00000000
,
10000000
00000000
00000000
00000000
,
00010000
00000000
00000000
00000000
,
00100000
00000000
00000000
00000000
,
02000000
00000000
00000000
00000000
,
03100000
00100000
00000000
00100000
,
00010000
00010000
00000000
00010000
,
10000000
10000000
00000000
10000000
,
00010000
10000000
00010000
10000000
,
01000000
00000000
00000000
00000000
,
00000000
00000000
00000000
00000000
,
01000000
00000000
00000000
00000000
,
00000000
00000000
00000000
00000000
,
01000000
00000000
00000000
00000000
,
00000000
00000000
00000000
00000000
,
01000000
00000000
00000000
00000000
,
00000000
00000000
00000000
00000000
,
00100000
10000000
00100000
00000000
,
01000000
00010000
01000000
00000000
,
00010000
10000000
01000000
10000000
,
00010000
01000000
00100000
10000000
,
20020000
00000000
30030000
00000000
,
20020000
00000000
30030000
00000000
,
01000000
01000000
01000000
00000000
,
00100000
00100000
00100000
00000000
,
02200000
00000000
03300000
00000000
,
02200000
00000000
03300000
00000000
,
00020000
00000000
00000000
00000000
,
00030000
00000000
00000000
00000000
,
10000000
10000000
00100000
00100000
,
01000000
01000000
00010000
00010000
,
10000000
10000000
01000000
01000000
,
00010000
00010000
01000000
01000000
,
10000000
10000000
00100000
00100000
,
01000000
01000000
00010000
00010000
,
00010000
00100000
01000000
10000000
,
01000000
10000000
00010000
01000000
,
00200000
00000000
00000000
00000000
,
00000000
00000000
00000000
00300000
,
01000000
10000000
01000000
00100000
,
00010000
00100000
00010000
10000000
,
00020000
00000000
00000000
00000000
,
00000000
00000000
00000000
00030000
,
00100000
00010000
10000000
00010000
,
00100000
10000000
00100000
00010000
,
20020000
00000000
00000000
00000000
,
00000000
00000000
00000000
30030000
;
