#TITLE:Mr. Firefighter;
#SUBTITLE:;
#ARTIST:Spooky Banana;
#TITLETRANSLIT:;
#SUBTITLETRANSLIT:;
#ARTISTTRANSLIT:;
#CREDIT:;
#BANNER:;
#BACKGROUND:;
#LYRICSPATH:;
#CDTITLE:;
#MUSIC:Mr. Firefighter.mp3;
#OFFSET:-3.070;
#SAMPLESTART:45.420;
#SAMPLELENGTH:12.170;
#SELECTABLE:YES;
#BPMS:0.000=157.840,144.000=105.227,176.000=157.840;
#STOPS:;
#BGCHANGES:;

//---------------dance-single - ----------------
#NOTES:
     dance-single:
     :
     Hard:
     7:
     0.543,0.507,0.218,0.082,0.113:
1000
0100
1000
0001
0010
0001
0100
0000
,
0001
1000
0010
0000
0100
0001
1000
0000
,
0010
1000
0100
1000
0001
0010
0001
0100
,
0010
1000
0100
0010
0100
0010
0001
0000
,
1001
1000
0010
0000
0100
0001
1000
0000
,
0001
0010
0001
1000
0100
1000
0001
0000
,
0100
0000
0001
0000
1000
0010
0100
0000
,
0010
1000
0100
0010
0100
0010
0011
0000
,
2001
0000
0010
0000
0001
0001
3001
0000
,
1000
0010
1000
0000
0001
0100
0001
0000
,
1000
0010
0001
0010
,
1000
0001
0100
0000
0010
0100
0001
0000
,
1000
0010
1000
0000
0001
0010
0000
0010
,
0001
0000
1000
0000
0100
0010
0100
1000
,
0001
0000
0000
0000
1000
0000
0000
0001
0000
0000
0100
0000
0001
0000
0001
0000
,
1000
0010
1000
0010
0100
0001
1000
0002
,
0000
0010
1000
0100
,
1000
0000
0103
0000
0001
0100
0101
0000
,
2000
0010
0001
0100
,
0001
0000
3100
0000
1000
0001
1001
0000
,
1000
0100
1000
0000
0001
0010
0000
0000
,
0001
1000
0001
0000
1000
0010
0000
0000
,
0101
1001
1100
0011
,
0001
1000
0001
0100
0010
0100
0001
0000
,
1000
1000
1010
0000
0001
0001
0011
0000
,
1000
0010
0100
0001
0100
0100
0110
0000
,
0010
1000
0100
0010
0100
0010
0001
1000
,
0001
0100
0010
0100
0000
0000
0000
1001
,
0000
1000
0100
0000
0010
0001
0100
0001
,
0000
0100
0001
0000
1000
0010
0100
0010
,
0000
0010
0100
0000
0001
1000
0100
0010
,
0000
0100
0010
0001
1000
0001
0100
0000
,
0101
0000
1001
0000
1000
0001
1000
0100
,
0000
0010
0001
0000
0001
0100
0001
1000
,
0000
0010
0100
0000
0010
0000
1000
0100
,
0000
0010
0001
0100
0010
0100
0110
0000
,
1010
0000
1000
0000
0001
0000
0010
0000
0000
0000
0100
0000
,
0010
0000
0000
0000
0001
0000
0010
0000
0001
0000
1000
0000
,
0010
0000
0000
0010
1000
0000
0001
0000
1000
0000
0001
0000
,
0100
0000
0000
0000
0100
0010
0100
0010
1000
0000
0001
0000
,
1001
0000
0000
0100
0001
0000
2000
0000
0000
0000
3010
0000
,
0100
0000
0010
0100
0001
0000
1000
0000
0100
0000
0100
0000
,
0020
0000
0100
0000
0100
0000
0032
0000
0100
0000
0100
0000
,
2000
0000
0000
0000
0000
0000
0000
0000
0000
0000
3003
0000
,
1000
0100
0010
0001
0010
0001
0100
0010
,
0000
0010
0100
0000
0001
0002
0003
0000
,
1000
0100
0010
0001
0100
0010
1000
0001
,
0000
1000
0001
0100
0010
0020
0030
0000
,
1000
0010
0100
0001
1000
0010
1000
0100
,
0000
0010
0001
0000
1000
0001
0000
1001
,
0000
1000
0100
0000
0010
0001
0100
0010
,
0000
0010
0100
0000
0001
1000
0100
1000
,
0000
0001
0100
0000
0001
1000
0010
1000
,
0000
0001
0010
0000
0001
1000
0100
1000
,
0001
0000
0101
0000
1000
0001
1000
0100
,
0000
0010
0100
0000
0010
0001
0010
0001
,
0000
1000
0010
0000
0100
0001
1000
0100
,
0000
0010
0001
0100
0001
1000
0010
0100
,
0000
0010
0100
0000
0010
0000
1000
0001
,
0000
0001
1000
0000
0001
0010
0001
1000
,
0000
0010
0100
0000
0001
0000
1000
0100
,
0000
0010
0001
0100
0001
1000
0100
0010
,
0110
0000
1001
0000
1000
0010
0100
0110
,
0000
0010
1000
0000
0001
1000
0100
1000
,
0000
0001
0010
0000
0001
0000
1000
0100
,
0000
0010
0001
1000
0100
0010
0011
0000
;

//---------------dance-single - ----------------
#NOTES:
     dance-single:
     :
     Medium:
     6:
     0.438,0.417,0.091,0.063,0.086:
1000
0000
0001
0000
0100
0010
0100
0000
,
0010
1000
0010
0000
1000
0000
0001
0000
,
1000
0000
0100
0000
0010
0001
0010
0000
,
0001
1000
0001
0000
1100
0000
0011
0000
,
1001
1000
0010
0100
,
0001
0100
0001
0000
1000
0100
1000
0000
,
0001
0010
0100
0010
,
0001
0000
1000
0000
0001
1000
0001
0000
,
1001
0000
1000
0100
,
0010
0001
0100
0010
,
1000
0000
0001
0000
0100
0001
0100
0000
,
0001
1000
0001
0000
1000
0100
1000
0000
,
0100
0010
0001
0000
0010
0000
0001
0000
,
1000
0000
0010
0000
0100
0001
0100
0000
,
0001
1000
0100
0010
,
0100
0010
0100
0000
0010
0001
1000
0001
,
0000
1000
0010
0100
,
0001
0000
1000
0000
0100
0100
0100
0000
,
0010
0001
0100
1000
,
0100
0000
0001
0000
1000
1000
1000
0000
,
0001
0100
0000
0000
0100
0010
0000
0000
,
0010
1000
0000
0000
1000
0100
0000
0000
,
0020
0001
0100
0031
,
1000
0000
0001
0000
0100
0001
0100
0000
,
0010
0010
0010
0000
1000
1000
1000
0000
,
0001
0001
0001
0000
0100
0100
0100
0000
,
0010
1000
0000
0001
0100
0001
0000
1000
,
0100
0000
0010
0000
0001
0000
1000
0001
,
0000
0001
1000
0000
0010
0000
0100
0001
,
0000
0001
1000
0000
0100
0000
0010
0001
,
0000
0001
0010
0000
0001
0000
1000
0000
,
0010
0000
0100
0000
0001
0100
0001
0000
,
0101
0000
1001
0000
1000
0000
0100
0010
,
0000
0010
0100
0000
0010
0000
0001
1000
,
0000
0001
1000
0000
0001
0000
1000
0010
,
0000
0100
0001
0000
1000
0010
1000
0000
,
0001
0000
0000
0000
0001
0000
1000
0000
0000
0000
1000
0000
,
0100
0000
0000
0000
0010
0000
0001
0000
1000
0000
0001
0000
,
0100
0000
0000
0000
0010
0000
1000
0000
0000
0000
1000
0000
,
0001
0000
0000
0000
1000
0000
0100
0000
0010
0000
0001
0000
,
0100
0000
0000
0000
0010
0000
0010
0000
0000
0000
1000
0000
,
1000
0000
0000
0000
0001
0000
0001
0000
1000
0000
0100
0000
,
0010
0000
0100
0000
1000
0000
0100
0000
0010
0000
0001
0000
,
2002
0000
0000
0000
0000
0000
0000
0000
0000
0000
3003
0000
,
1000
0001
1000
0000
0001
0000
0100
0000
,
0010
0100
0001
0000
2000
0200
3300
0000
,
0010
0001
0010
0000
0001
0000
1000
0000
,
0010
0100
0001
0000
2000
0002
3003
0000
,
1000
0100
0010
0000
0100
0000
0010
0001
,
0000
0001
1000
0000
0001
0100
0010
1000
,
0000
1000
0100
0000
0010
0000
0100
1000
,
0000
1000
0001
0000
0100
0000
0001
0010
,
0000
0010
0001
0000
0100
0000
0010
0100
,
0000
0100
0001
0000
1000
0010
1000
0000
,
0101
0000
1001
0000
1000
0000
0001
0100
,
0000
0100
0001
0000
1000
0000
0100
0010
,
0000
0100
0010
0000
0100
0000
1000
0100
,
0000
0010
0001
0000
1000
0001
1000
0001
,
0000
0000
0000
0001
0100
0000
0100
0010
,
0000
0000
0010
1000
0100
0000
1000
0100
,
0000
0000
1000
0000
0001
0000
0001
1000
,
0000
0001
1000
0000
0001
0100
0001
0100
,
0001
0000
1010
0000
1000
0000
0100
0010
,
0000
0010
0100
0000
0010
0000
0001
1000
,
0000
0001
1000
0000
0001
0000
0100
0001
,
0000
1000
0010
1000
0010
0100
0001
0000
;

//---------------dance-single - ----------------
#NOTES:
     dance-single:
     :
     Easy:
     4:
     0.302,0.328,0.118,0.073,0.000:
1000
0100
0010
0001
,
1000
0001
0100
0100
,
0100
0001
1000
0100
,
0010
0100
0010
0010
,
0010
0001
1000
0010
,
0100
0001
1000
1000
,
1000
0100
0010
0001
,
1000
0001
2002
3003
,
1000
0001
0100
0000
,
0001
1000
0100
0010
,
0001
0000
1000
0000
,
0001
0100
0001
0100
,
0010
0100
0010
0000
,
1000
0001
1000
0000
,
0001
0010
0100
1000
,
0100
0010
0001
1000
,
0001
0000
0100
0000
,
0010
0100
0001
1000
,
0100
0000
1000
0000
,
0001
1000
0001
0100
,
0110
0000
1001
0000
,
1010
0000
0101
0000
,
0001
0010
0001
0010
,
0100
1000
0100
1000
,
0001
0000
1000
0000
,
0100
0010
0100
0010
,
0001
0000
1000
0000
,
0010
0000
0100
0000
0001
0000
0000
1001
,
0000
1000
0100
0010
,
0001
0100
0010
0100
,
0001
0000
1000
0100
,
0010
0001
0100
0010
,
0100
0100
0000
0010
,
1000
0010
0100
0001
,
1000
0100
0010
0001
,
1000
0001
2002
3003
,
1000
0000
0100
0000
,
1000
0000
0000
0000
,
0001
0000
0100
0000
,
0001
0000
0000
0000
,
1000
0000
0010
0000
,
0100
0000
0001
0000
,
1000
0000
0100
0000
,
0220
0000
0330
0000
,
0010
0001
1000
0001
,
0100
0001
2000
3000
,
0001
1000
0010
1000
,
0100
1000
0020
0030
,
0100
0001
1000
0100
,
0010
0000
0100
0000
1000
0000
0000
1001
,
0000
0001
0100
0010
,
0100
0001
1000
0000
,
0001
1000
0100
0000
,
1000
0001
0100
0000
,
0001
0010
0100
0010
,
0100
1000
0001
0000
,
1000
0010
1000
0000
,
0001
0000
0100
0000
0001
0000
0000
1001
,
0000
1000
0100
0010
,
0001
0010
0001
0000
,
1000
0010
0100
0001
,
1000
0100
1000
0000
,
1001
1001
0001
0100
,
0010
0100
0001
1000
,
0100
0010
0001
1000
,
0010
0010
0100
0110
;

//---------------dance-single - ----------------
#NOTES:
     dance-single:
     :
     Beginner:
     1:
     0.140,0.179,0.063,0.000,0.000:
1000
0000
0100
0000
,
1000
0000
0001
0000
,
0100
0000
0010
0000
,
0100
0000
0001
0000
,
1001
0000
0000
0000
,
1000
0000
0100
0000
,
1000
0000
0001
0000
,
0010
0000
0100
0000
,
0110
0000
0000
0000
,
0010
0000
0000
0000
,
0100
0000
0010
0000
,
0100
0000
1000
0000
,
0001
0000
0000
0000
,
1000
0000
0000
0000
,
0001
0000
1000
0000
,
0001
0000
1000
0000
,
0100
0000
0010
0000
,
0001
0000
0000
0000
,
1000
0000
0001
0000
,
1000
0000
0000
0000
,
1001
0000
0001
0000
,
1000
0000
1000
0000
,
0100
0000
0010
0000
,
0100
0000
0010
0000
,
0100
0000
1000
0000
,
0001
0000
0100
0000
,
0001
0000
1000
0000
,
1001
0000
0000
0000
,
0110
0000
0000
0000
,
0010
0000
0000
0000
,
1000
0000
0000
0000
,
0001
0000
0000
0000
,
1001
0000
1000
0000
,
1000
0000
0000
0000
,
0001
0000
0000
0000
,
0100
0000
0000
0000
,
0010
0000
0010
0000
,
0010
0000
0000
0000
,
0100
0000
0100
0000
,
0100
0000
0000
0000
,
0001
0000
0001
0000
,
0001
0000
0000
0000
,
1000
0000
1000
0000
,
1000
0000
0000
0000
,
0001
0000
1000
0000
,
0001
0000
0000
0000
,
1000
0000
0100
0000
,
1000
0000
0000
0000
,
0001
0000
0010
0000
,
0001
0000
0000
0000
,
0010
0000
0100
0000
,
0001
0000
1000
0000
,
0001
0000
0000
0000
,
1000
0000
0000
0000
,
0001
0000
0010
0000
,
0100
0000
1000
0000
,
0100
0000
0000
0000
,
1000
0000
0000
0000
,
1001
0000
0000
0000
,
0001
0000
0000
0000
,
0100
0000
0000
0000
,
0010
0000
0100
0000
,
0001
0000
0000
0000
,
1000
0000
0000
0000
,
0100
0000
0000
0000
,
1000
0000
0001
0001
;

//---------------dance-double - ----------------
#NOTES:
     dance-double:
     :
     Hard:
     8:
     0.596,0.537,0.372,0.009,0.127: // measure 1
10000000
00100000
10000000
00000000
00010000
00100000
00010000
00000000
,  // measure 2
00100000
00001000
00010000
00001000
00000100
00001000
00010000
00000000
,  // measure 3
00000100
00001000
00000100
00000000
00000010
00000001
00000100
00000001
,  // measure 4
00001000
00000010
00001000
00000100
00001000
00000100
00010000
00000000
,  // measure 5
00011000
00001000
00100000
00000000
00010000
01000000
00010000
00000000
,  // measure 6
01000000
00001000
00010000
00001000
01000000
00001000
00100000
00000000
,  // measure 7
00001000
00010000
00000100
00000000
00000010
00000000
00000100
00000000
,  // measure 8
00010000
00000000
00001000
00000000
00010000
00001000
01001000
00000000
,  // measure 9
01010000
00000000
00010000
00000000
10000000
00010000
01000000
00000000
,  // measure 10
00010000
00100000
00001000
00100000
00001000
00010000
00000100
00000000
,  // measure 11
00001100
00000000
00000011
00000000
00000001
00001000
00000001
00000000
,  // measure 12
00001000
00000100
00010000
00001000
01000000
00010000
01000000
00000000
,  // measure 13
00010000
10000000
01000000
00000000
00100000
01000000
00100000
00010000
,  // measure 14
00100000
00000000
00001000
00100000
00000000
00100000
00001000
00010000
,  // measure 15
00000100
00000000
00000000
00000000
00010000
00000000
00000000
00010000
00000100
00000000
00001000
00000000
00000100
00000000
00000010
00000000
,  // measure 16
00000100
00001000
00000100
00010000
00000010
00000001
00000010
00001000
,  // measure 17
00001010
00000000
00001100
00000000
00001000
00000100
00010000
00000000
,  // measure 18
00001000
00010000
00001000
01000000
00010000
10000000
01000000
00000000
,  // measure 19
00100000
00010000
00100000
00001000
00000100
00001000
00010000
00000100
,  // measure 20
00001000
00000100
00000010
00000001
00001000
00001000
00001000
00000000
,  // measure 21
00000100
00000100
00010100
00000000
00001000
00001000
00011000
00000000
,  // measure 22
00000010
00000010
00010010
00000000
00010000
00010000
00011000
00000000
,  // measure 23
00101000
01010000
10100000
10010000
,  // measure 24
00100000
00001000
00010000
00000100
00000010
00000010
00000110
00000000
,  // measure 25
00000010
00000001
00001001
00000000
00001000
00000100
00010100
00000000
,  // measure 26
00010000
00001000
01000000
00001000
00100000
00100000
01100000
00000000
,  // measure 27
00100000
00010000
10000000
00000000
00010000
10000000
00010000
01000000
,  // measure 28
00010000
00100000
00001000
00010000
00000000
00001000
00010000
00010100
,  // measure 29
00000000
00000100
00001000
00000000
00000001
00000010
00000001
00001000
,  // measure 30
00000000
00001000
00000100
00010000
00000000
00011000
00000000
01001000
,  // measure 31
00000000
01000000
00010000
10000000
01000000
00100000
00010000
00100000
,  // measure 32
00000000
00010000
00100000
00001000
00010000
00000100
00001100
00000000
,  // measure 33
00000011
00000000
00001001
00000000
00001000
00000010
00000001
00000010
,  // measure 34
00000000
00000100
00000010
00000000
00000010
00001000
00000100
00010000
,  // measure 35
00000000
00010000
00001000
00000000
00001000
01000000
00010000
01000000
,  // measure 36
00000000
00100000
10000000
01000000
00100000
00010000
00110000
00000000
,  // measure 37
00101000
00000000
00000000
00001000
00010000
00000000
00001000
00000000
00010000
00000000
00000100
00000000
,  // measure 38
00001000
00000000
00000000
00000100
00000010
00000000
00000001
00000000
00000010
00000000
00000001
00000000
,  // measure 39
00001000
00000000
00000000
00000000
00001000
00000000
00000100
00000000
00010000
00000000
00001000
00000000
,  // measure 40
00010000
00000000
00000000
00001000
00100000
00001000
00100000
00010000
00100000
00010000
10000000
00000000
,  // measure 41
10010000
00000000
00000000
10000000
01000000
00000000
10000000
00000000
00000000
00010000
00100000
00000000
,  // measure 42
00010000
00000000
00100000
00001000
00100000
00000000
00001000
00000000
00010000
00000000
00000100
00000000
,  // measure 43
00001100
00000000
00000000
00001000
00000010
00000000
00001000
00000000
00000001
00000000
00000100
00000000
,  // measure 44
00000102
00000000
00000010
00000000
00000010
00000000
00000000
00000000
00001000
00000000
00001003
00000000
,  // measure 45
00001000
00000100
00010000
00001000
00010000
01000000
00010000
00001000
,  // measure 46
00000000
00010000
00000100
00010000
00001000
00100000
00101000
00000000
,  // measure 47
00010000
00000100
00000010
00000001
00000100
00000010
00010000
00001000
,  // measure 48
00000000
00001000
01000000
00100000
10000000
01000000
01100000
00000000
,  // measure 49
00100000
00001000
00010000
00001000
00000100
00001000
00010000
00000100
,  // measure 50
00000000
00001000
00000100
00001000
00000100
00000010
00000001
00001001
,  // measure 51
00000000
00000001
00001000
00000000
00000100
00001000
00000100
00010000
,  // measure 52
00000000
00010000
00001000
00000000
00001000
01000000
00010000
01000000
,  // measure 53
00000000
00010000
10000000
00000000
01000000
00100000
00010000
00100000
,  // measure 54
00000000
00001000
00010000
00001000
00100000
00010000
10000000
00000000
,  // measure 55
10010000
00000000
01010000
00000000
01000000
00001000
00100000
00001000
,  // measure 56
00000000
00010000
00000100
00000000
00000010
00000001
00001000
00000001
,  // measure 57
00000100
00000000
00000010
00000000
00001000
00000100
00001000
00000100
,  // measure 58
00000000
00010000
00001000
00010000
00001000
01000000
00010000
01010000
,  // measure 59
00000000
00010000
10000000
00000000
01000000
00100000
00010000
00100000
,  // measure 60
00000000
00010000
00100000
00000000
00001000
00010000
00001000
00010000
,  // measure 61
00000000
00000100
00001000
00000000
00000100
00000010
00000001
00000010
,  // measure 62
00000000
00000001
00001000
00000010
00000100
00000010
00001010
00000000
,  // measure 63
00001100
00000000
00010100
00000000
00010000
00001000
01000000
01010000
,  // measure 64
00000000
00010000
10000000
01000000
00100000
00010000
00100000
00001000
,  // measure 65
00000000
00010000
00000100
00000000
00001000
00000100
00000010
00000001
,  // measure 66
00000000
00000100
00000010
00010000
00000100
00010000
00011000
00000000
;

//---------------dance-double - ----------------
#NOTES:
     dance-double:
     :
     Medium:
     6:
     0.439,0.417,0.154,0.063,0.073: // measure 1
10000000
01000000
00100000
01000000
,  // measure 2
00100000
00000000
00010000
00000000
00100000
00001000
00100000
00000000
,  // measure 3
00001000
00010000
00000100
00000010
,  // measure 4
00000100
00000000
00010000
00000000
00001000
00010000
00001000
00000000
,  // measure 5
00101000
00100000
00010000
01000000
,  // measure 6
00100000
00000000
10000000
00000000
00010000
01000000
00010000
00000000
,  // measure 7
00100000
00010000
00100000
00000000
00001000
00010000
00000100
00000000
,  // measure 8
00001000
00000000
00000100
00000000
00000010
00000010
00000010
00000000
,  // measure 9
00000210
00000000
00001000
00000000
,  // measure 10
00000001
00001000
00000001
00001300
,  // measure 11
00001000
00000100
00010000
00001000
,  // measure 12
00100000
00000000
00010000
00000000
10000000
00010000
10000000
00000000
,  // measure 13
02010000
00000000
00100000
00000000
,  // measure 14
00010000
10000000
00010000
13000000
,  // measure 15
00100000
00000000
10000000
00000000
00010000
10000000
00010000
00000000
,  // measure 16
00100000
00001000
00100000
00000000
00001000
00010000
00000000
00010000
,  // measure 17
00000100
00000000
00000010
00000000
00000100
00001000
00000100
00000000
,  // measure 18
00010000
00001000
00010000
00000000
00001000
01000000
00001000
00000000
,  // measure 19
01000000
00000000
00100000
00000000
01000000
00010000
01000000
00000000
,  // measure 20
00010000
00100000
00010000
00000000
00100000
00001000
00100000
00000000
,  // measure 21
00001000
00100000
00000000
00000000
00100000
00001000
00000000
00000000
,  // measure 22
00001000
00010000
00001000
00000000
00011000
00000000
00010100
00000000
,  // measure 23
00001100
00000011
00001001
00001000
,  // measure 24
00000010
00001000
00000010
00000000
00010000
00000100
00010000
00000000
,  // measure 25
00001000
00001000
00001000
00000000
01000000
01000000
01000000
00000000
,  // measure 26
00100000
10000000
01000000
00000000
00100000
00010000
01000000
00000000
,  // measure 27
00010000
00000000
00100000
00000000
00001000
00010000
00001000
00000000
,  // measure 28
00010000
00000100
00010000
00000100
00000000
00000000
00000000
00001100
,  // measure 29
00000000
00001000
00000001
00000000
00001000
00000000
00000010
00001000
,  // measure 30
00000000
00001000
00000100
00000000
00010000
00000000
00001000
00100000
,  // measure 31
00000000
00100000
00001000
00000000
00100000
00000000
00010000
10000000
,  // measure 32
00000000
10000000
00010000
00000000
10000000
01000000
10000000
00000000
,  // measure 33
00010000
00000000
00100000
00000000
00001000
00000000
00010000
00001000
,  // measure 34
00000000
00001000
00010000
00000000
00000100
00000000
00001000
00000100
,  // measure 35
00000000
00000100
00000010
00000000
00000100
00000000
00001000
00000100
,  // measure 36
00000000
00000010
00000001
00000000
00001000
00000001
00001000
00000000
,  // measure 37
00000200
00000000
00000000
00000000
00010000
00000000
00020300
00000000
00000000
00000000
00001000
00000000
,  // measure 38
00032000
00000000
00000000
00000000
00000000
00000000
00103000
00000000
00001000
00000000
00100000
00000000
,  // measure 39
00010000
00000000
00000000
00000000
00010000
00000000
10000000
00000000
00000000
00000000
10000000
00000000
,  // measure 40
00010000
00000000
00000000
00000000
00100000
00000000
00010000
00000000
00100000
00000000
00001000
00000000
,  // measure 41
00010000
00000000
00000000
00000000
00010000
00000000
00000100
00000000
00000000
00000000
00000100
00000000
,  // measure 42
00000010
00000000
00000000
00000000
00000001
00000000
00000010
00000000
00000001
00000000
00001000
00000000
,  // measure 43
00000010
00000000
00000000
00000000
00001000
00000000
00000100
00000000
00000000
00000000
00010000
00000000
,  // measure 44
00022000
00000000
00000000
00000000
00000000
00000000
00000000
00000000
00000000
00000000
00033000
00000000
,  // measure 45
00001000
00000000
01000000
00000000
00010000
01000000
00010000
00000000
,  // measure 46
10000000
01000000
10000000
00000000
00010000
00100000
00000000
00000000
,  // measure 47
00010000
00000000
01000000
00000000
00100000
01000000
00100000
00000000
,  // measure 48
01000000
00001000
01000000
00000000
00001000
00010000
00000000
00000000
,  // measure 49
00000100
00000000
00000010
00000000
00000001
00001000
00000001
00000000
,  // measure 50
00001000
00000010
00001000
00000000
00000100
00010000
00000000
00011000
,  // measure 51
00000000
00001000
00100000
00000000
00010000
00000000
00100000
00010000
,  // measure 52
00000000
00010000
10000000
00000000
00100000
01000000
00100000
01000000
,  // measure 53
00000000
00010000
00100000
00000000
00010000
00000000
00100000
00001000
,  // measure 54
00000000
00001000
00010000
00000000
00000100
00001000
00000100
00000000
,  // measure 55
00000011
00000000
00001001
00000000
00001000
00000000
00000100
00010000
,  // measure 56
00000000
00010000
00001000
00000000
00100000
00000000
00010000
01000000
,  // measure 57
00000000
00010000
01000000
00000000
00010000
00000000
10000000
01000000
,  // measure 58
00000000
00100000
00010000
00000000
00100000
00001000
00100000
00001000
,  // measure 59
00000000
00000000
00011000
00000000
00010000
00000000
00000100
00001000
,  // measure 60
00000000
00000000
00000100
00000000
00000010
00000000
00000001
00000010
,  // measure 61
00000000
00000001
00000010
00000000
00000001
00000000
00001000
00000010
,  // measure 62
00000000
00000010
00001000
00000000
00000100
00001000
00000100
00000000
,  // measure 63
00001100
00000000
00010100
00000000
00001000
00000000
00100000
00001000
,  // measure 64
00000000
00001000
00100000
00000000
00010000
00000000
01000000
00100000
,  // measure 65
00000000
01000000
00100000
00000000
10000000
00000000
00010000
00100000
,  // measure 66
00000000
00100000
00001000
00000000
00010000
00001000
00011000
00000000
;

//---------------dance-double - ----------------
#NOTES:
     dance-double:
     :
     Easy:
     4:
     0.301,0.358,0.209,0.073,0.000: // measure 1
10000000
01000000
00100000
00010000
,  // measure 2
00001000
00010000
00100000
00000000
,  // measure 3
00001000
00010000
00001000
00010000
,  // measure 4
00000100
00000010
00000001
00000000
,  // measure 5
00001001
00000001
00001000
00000100
,  // measure 6
00010000
00001000
00010000
00000000
,  // measure 7
00001000
01000000
00010000
10000000
,  // measure 8
00100000
01000000
02200000
03300000
,  // measure 9
10010000
00000000
10000000
00000000
,  // measure 10
01000000
00000000
00100000
00000000
,  // measure 11
00001000
00010000
00001000
00000000
,  // measure 12
00010000
00000100
00010000
00000000
,  // measure 13
00000100
00000000
00000010
00000000
,  // measure 14
00000001
00000000
00001000
00000000
,  // measure 15
00000010
00001000
00000010
00010000
,  // measure 16
00001000
00010000
00001000
01000000
,  // measure 17
01010000
00000000
10010000
00000000
,  // measure 18
11000000
00000000
00100000
00010000
,  // measure 19
00110000
00000000
00101000
00000000
,  // measure 20
00011000
00000000
00010000
00000100
,  // measure 21
00001000
00001000
00000001
00000001
,  // measure 22
00000100
00000100
00000010
00000010
,  // measure 23
00000100
00000001
00002002
00003003
,  // measure 24
00000001
00000100
00000010
00001000
,  // measure 25
00001100
00000000
00010100
00000000
,  // measure 26
00010000
00001000
01001000
00000000
,  // measure 27
01000000
00010000
10000000
00100000
,  // measure 28
10000000
00000000
01000000
00000000
00100000
00000000
00000000
01100000
,  // measure 29
00000000
01000000
00100000
00010000
,  // measure 30
00100000
00001000
00010000
00000000
,  // measure 31
00001000
00010000
00001000
00000000
,  // measure 32
00010000
00000100
00010000
00000000
,  // measure 33
00002200
00003300
00001000
00000010
,  // measure 34
00000100
00000001
00001000
00000000
,  // measure 35
00000010
00001000
00000010
00000000
,  // measure 36
00001000
00000100
00001000
00000000
,  // measure 37
00000100
00000000
00010000
00000000
,  // measure 38
00011000
00000000
00000000
00000000
,  // measure 39
00001000
00000000
01000000
00000000
,  // measure 40
01010000
00000000
00000000
00000000
,  // measure 41
00010000
00000000
10000000
00000000
,  // measure 42
01000000
00000000
00100000
00000000
,  // measure 43
01000000
00000000
10000000
00000000
,  // measure 44
20020000
00000000
30030000
00000000
,  // measure 45
10000000
00010000
00100000
00000000
,  // measure 46
00010000
00100000
00001000
00000000
,  // measure 47
00001000
00010000
00000100
00000000
,  // measure 48
00001000
00000001
00000100
00000000
,  // measure 49
00000001
00000100
00000010
00001000
,  // measure 50
00000100
00000000
00010000
00000000
00001000
00000000
00000000
00011000
,  // measure 51
00000000
00000000
00010000
00001000
,  // measure 52
00010000
00000100
00001000
00000000
,  // measure 53
00000100
00000010
00000001
00000010
,  // measure 54
00000001
00001000
00000010
00000000
,  // measure 55
00001000
00000010
00010000
00001000
,  // measure 56
00100000
00001000
01000000
00100000
,  // measure 57
01000000
00000000
00100000
10000000
,  // measure 58
00010000
00000000
10000000
00000000
01000000
00000000
00000000
11000000
,  // measure 59
00000000
10000000
00010000
00100000
,  // measure 60
00001000
00010000
00001000
00010000
,  // measure 61
00000100
00000000
00000010
00000100
,  // measure 62
00001000
00000100
00010000
00001000
,  // measure 63
00011000
00011000
00000000
00001000
,  // measure 64
00100000
00001000
00100000
00010000
,  // measure 65
10000000
00010000
10000000
00100000
,  // measure 66
01000000
00010000
10000000
10010000
;
