#TITLE:Move It Groove It;
#SUBTITLE:;
#ARTIST:KaW Feat. Sam I Am;
#TITLETRANSLIT:;
#SUBTITLETRANSLIT:;
#ARTISTTRANSLIT:;
#CREDIT:;
#BANNER:bn.png;
#BACKGROUND:bg.png;
#LYRICSPATH:;
#CDTITLE:;
#MUSIC:[Pro (Encore Pack)] KaW feat Sam I Am Move It Groove It.mp3;
#OFFSET:-0.160;
#SAMPLESTART:77.260;
#SAMPLELENGTH:12.000;
#SELECTABLE:YES;
#BPMS:0.000=112.000;
#STOPS:;
#BGCHANGES:;

//---------------dance-single - PANDYX----------------
#NOTES:
     dance-single:
     PANDYX:
     Hard:
     8:
     0.528,0.606,0.440,0.094,0.234: // measure 1
0000
0000
0000
0000
,  // measure 2
0000
0000
0000
0000
,  // measure 3
0101
1010
0000
0000
0000
0000
0000
0000
,  // measure 4
1000
0000
0000
0000
0001
0000
1000
0001
0020
0000
0000
0000
0031
0000
0000
0000
,  // measure 5
0001
1000
0001
0100
0010
0100
1001
0000
,  // measure 6
0001
0100
1000
0100
0001
0010
1100
0000
,  // measure 7
1000
0001
1000
0010
1000
0100
1000
0001
,  // measure 8
1001
1000
1010
1000
0011
0001
1100
1001
,  // measure 9
0000
0000
1000
0000
0000
0001
0000
0000
0100
0000
0000
0010
0000
0000
0010
1000
,  // measure 10
0000
0000
0010
0000
0000
0100
0000
0000
0010
0000
0000
1000
0000
0000
0001
1000
,  // measure 11
0000
0000
0001
0000
0000
0100
0000
0000
0010
0000
0000
1000
0000
0000
0100
1000
,  // measure 12
0100
0000
1000
0000
0001
0000
0100
0000
0010
1000
0000
1001
0000
0000
0000
0000
,  // measure 13
1000
0000
0001
0000
0100
0000
0001
0000
0010
0000
0001
0000
0100
0000
0001
1000
,  // measure 14
0100
0000
1000
0000
0001
0000
0100
0000
0001
0000
0010
0000
0011
0000
0001
0010
,  // measure 15
0001
0000
0010
0000
0001
0000
0100
0000
0010
0000
1000
0000
1001
0000
0001
1000
,  // measure 16
0001
0000
1000
0000
0000
0000
1000
0100
1000
0000
1000
0000
0100
0000
0100
0000
,  // measure 17
1000
0001
0100
0001
0010
0011
1001
0000
,  // measure 18
0001
0100
0001
0010
0001
1000
1100
0000
,  // measure 19
1000
0000
0001
0000
0001
0000
0010
0000
0001
0000
0100
0000
1010
0000
1000
0001
,  // measure 20
0100
0000
0001
0000
0100
0000
0001
0010
0001
0000
1000
0100
1000
0000
1000
0000
,  // measure 21
1001
0101
0000
0001
0001
0000
0000
0000
,  // measure 22
0110
1100
0000
1000
1000
0000
0000
0000
,  // measure 23
0101
0011
0000
0001
0001
0000
0000
0000
,  // measure 24
1001
1001
0000
0000
0100
0100
0000
0000
,  // measure 25
0010
1000
0100
0010
0001
0100
0001
0001
,  // measure 26
0100
0010
0010
1000
0100
1000
1001
1000
,  // measure 27
0001
0000
0010
0000
0100
0000
0010
0000
0010
0000
0001
0100
0000
0000
0010
1000
,  // measure 28
0001
0000
0010
0000
0001
0000
1000
0000
0001
0000
0100
0010
0000
0000
0100
0000
,  // measure 29
1001
1000
0001
0010
0001
0100
0010
0000
,  // measure 30
0010
1000
0001
0010
0001
0100
0010
0000
,  // measure 31
1000
0100
0001
0100
1000
0100
1001
0000
,  // measure 32
0001
0000
0001
0000
1000
0000
0001
0000
0100
0000
0010
0000
1000
0000
0001
1000
,  // measure 33
0001
0001
0100
0001
0100
0001
0010
0001
,  // measure 34
0100
0010
1000
0010
0100
0001
0010
0001
,  // measure 35
0100
0010
1000
0100
1000
0010
0100
0001
,  // measure 36
0101
0000
1100
0000
1100
0110
0011
0000
,  // measure 37
1000
0001
0100
0001
0010
0001
0101
0000
,  // measure 38
1000
0010
1000
0100
1000
0010
1010
0000
,  // measure 39
1000
0001
0100
0001
1000
0010
1001
0000
,  // measure 40
1000
0100
0000
1100
0000
0000
0000
0000
0001
0100
0000
0101
0000
0000
0000
0000
,  // measure 41
0002
0013
0020
0031
0002
0103
0101
0000
,  // measure 42
0020
1030
0020
0130
0020
1030
1010
0000
,  // measure 43
2000
3100
0200
1300
2000
3001
1100
0000
,  // measure 44
1000
0001
0000
0101
0000
0000
0000
0000
0001
1000
0000
0110
0000
0000
0000
0000
,  // measure 45
0010
0100
0001
1000
0001
1000
0100
0010
0001
0010
0100
0000
0011
0000
0000
0000
,  // measure 46
0001
1000
0001
0100
0010
1000
0100
0010
0001
0100
0010
0000
1001
0000
0000
0000
,  // measure 47
1000
0001
0100
0001
0010
0001
0100
0010
1000
0100
1000
0000
0101
0000
0000
0000
,  // measure 48
0001
1000
0000
1001
0000
0000
0000
0000
0100
0001
0000
0001
0010
0000
0001
0000
,  // measure 49
1100
0000
0000
0000
;

//---------------dance-single - PANDYX----------------
#NOTES:
     dance-single:
     PANDYX:
     Challenge:
     9:
     0.701,0.741,0.383,0.131,0.809: // measure 1
0000
0000
0000
0000
,  // measure 2
0000
0000
0000
0000
,  // measure 3
0101
1100
0000
0000
0000
0000
0000
0000
,  // measure 4
1000
0000
0001
0000
0010
0000
0001
0010
0200
0000
0000
0000
0000
0000
0000
0000
,  // measure 5
1300
0100
1000
0001
0010
0000
0010
0001
0000
0001
0100
0000
1001
0000
0000
0000
,  // measure 6
0001
0000
0100
0000
0010
0000
0010
1000
0000
1000
0000
1000
0010
0000
0000
0000
,  // measure 7
1000
0000
0001
0100
0001
0000
1000
0100
1000
0000
0001
0100
0000
0010
1000
0000
,  // measure 8
1001
0000
1000
0001
0100
0000
0001
0010
0001
0000
0001
0100
0000
0010
1000
0001
,  // measure 9
1000
0000
0001
0000
0010
0100
0000
0100
0010
0000
0010
0100
0000
0000
0010
0001
,  // measure 10
1000
0000
1000
0000
0001
1000
0000
1000
0001
0000
0001
0100
0000
0010
0100
0000
,  // measure 11
0010
0000
0100
0000
0010
1000
0000
1000
0100
0000
0010
0001
0000
0000
1000
0010
,  // measure 12
0100
0000
0010
1000
0001
0000
0001
1000
0001
0100
0000
0010
0000
0000
0000
0000
,  // measure 13
1000
0001
0100
0001
0010
0001
0100
0001
0010
0001
1000
0000
1001
0000
0000
0000
,  // measure 14
0010
1000
0100
0010
0001
1000
0001
0010
0100
1000
0100
0000
0110
0000
0000
0000
,  // measure 15
0001
1000
0010
1000
0100
1000
0010
1000
0100
1000
0010
0000
1001
0000
1000
0001
,  // measure 16
0200
0000
0001
0000
0301
0000
0001
0010
0002
0000
1003
0001
0100
0020
2000
3030
,  // measure 17
1000
0100
0010
0001
1000
0100
0010
0001
1000
0100
0010
0000
0011
0000
0000
0000
,  // measure 18
0001
0010
0100
1000
0001
0010
0100
1000
0001
0010
0100
0000
1001
0000
0000
0000
,  // measure 19
0001
1000
0001
0010
0001
0100
0010
1000
0100
1000
0010
0000
1001
0000
0000
0000
,  // measure 20
0001
0001
0000
0101
0000
0000
0000
0000
1000
1000
0000
1010
0000
0000
0000
0000
,  // measure 21
1000
0000
1100
0000
1000
0100
0000
0001
0010
0000
0001
0100
0000
0100
0010
0000
,  // measure 22
1000
0010
0000
1000
0001
0000
1000
0000
0001
0000
0010
0001
0000
0000
0001
0000
,  // measure 23
1100
0000
0001
0000
1010
0000
1000
0001
0010
0000
0001
0100
0000
0000
0010
0000
,  // measure 24
1001
0000
0100
0000
1001
0000
0010
1000
0001
0000
0001
0010
0000
0000
0001
0000
,  // measure 25
1000
0000
0001
0000
0100
0000
0001
0000
0010
0000
0001
0100
0000
0000
0010
0000
,  // measure 26
0010
0000
1000
0000
0001
0000
0010
0001
0100
0000
0010
1000
0000
0000
1000
0000
,  // measure 27
0001
0000
0010
0000
0100
0000
0010
0000
0011
0000
0001
0100
0000
0000
0010
1000
,  // measure 28
0001
0000
1000
0000
1001
0000
0110
0000
0010
0000
1000
0100
0000
0000
1000
0000
,  // measure 29
0001
0100
0001
0010
0001
0100
0010
1000
0100
1000
0001
0000
0001
0010
0000
0000
,  // measure 30
0001
0000
0001
0100
0010
0000
0010
1000
0000
1000
0100
0000
0010
0001
0000
0000
,  // measure 31
0001
0000
0100
0000
1000
0000
0010
0000
0001
0000
0000
1001
0000
0000
0000
1000
,  // measure 32
0100
1000
0010
0000
0101
0000
1010
0000
1000
0000
0001
0010
0000
0000
0001
1000
,  // measure 33
0100
0000
1000
0000
1001
0000
0001
0100
0010
0000
0010
1000
0000
0000
1000
0000
,  // measure 34
1001
0000
1100
0000
0001
0010
0001
0100
0010
0000
0010
1000
0000
0000
1000
0000
,  // measure 35
1001
0000
0101
0000
0001
0000
1000
0001
1000
0000
1000
0100
0000
1100
0000
0000
,  // measure 36
1000
0100
0000
0001
0010
0000
0011
0000
0001
0100
0010
1000
0001
0000
1001
0000
,  // measure 37
1000
0001
0100
0001
0010
0001
0100
0010
1000
0100
1000
0000
1001
0000
0000
0000
,  // measure 38
0001
1000
0010
1000
0100
1000
0010
0100
0001
0010
0001
0000
1001
0000
0000
0000
,  // measure 39
0010
0001
1000
0001
0100
0001
1000
0100
0010
0001
1000
0000
0110
0000
0000
0000
,  // measure 40
0100
0100
0000
1001
0000
0000
0000
0000
0010
0010
0000
1001
0000
0000
0000
0000
,  // measure 41
1000
0000
0000
0000
0000
0000
0001
0000
0000
0100
0000
0000
0010
0000
0000
0000
0000
0000
0010
0000
0000
1000
0000
0000
0001
0000
0000
0000
0000
0000
0010
0000
0000
0001
0000
0000
0010
0000
0000
0000
0000
0000
1000
0000
0001
0000
0100
0000
,  // measure 42
0002
0000
0000
0013
0000
0000
2000
0000
0000
3100
0000
0000
0002
0000
0000
0103
0000
0000
0020
0000
0000
0130
0010
1000
,  // measure 43
0002
0000
0000
0013
0000
0000
2000
0000
0000
3100
0000
0000
0002
0000
0000
0103
0000
0000
0001
0000
0000
1000
0001
0010
,  // measure 44
0002
0000
0000
0000
0000
0000
0013
0000
0000
0000
0000
0000
0000
0000
0000
0000
0000
0000
0001
0000
0100
0000
0010
0000
2000
0000
0000
0000
0000
0000
3100
0000
0000
0000
0000
0000
1000
0000
0000
0001
0000
0000
0100
0000
0000
0000
0000
0000
,  // measure 45
0100
0000
0000
0001
0000
0000
0100
0000
0000
0001
0000
0000
0010
0000
0000
0001
0000
0000
0100
0000
0000
0001
0000
0000
0010
0000
0000
0001
0000
0000
1000
0000
0000
0000
0000
0000
1001
0000
0000
0000
0000
0000
1000
0000
0001
0000
1000
0000
,  // measure 46
0001
0000
0000
1000
0000
0000
0100
0000
0000
0010
0000
0000
0001
0000
0000
1000
0000
0000
0001
0000
0000
0010
0000
0000
0100
0000
0000
1000
0000
0000
0100
0000
0000
0000
0000
0000
0110
0000
0000
0000
0000
0000
1000
0000
0100
0000
0010
0000
,  // measure 47
0001
0000
0000
1000
0000
0000
0010
0000
0000
1000
0000
0000
0100
0000
0000
1000
0000
0000
0010
0000
0000
1000
0000
0000
0100
0000
0000
1000
0000
0000
0010
0000
0000
0000
0000
0000
1001
0000
0000
0000
0000
0000
1000
0000
0100
0000
1000
0000
,  // measure 48
0100
1000
0000
1001
0000
0001
0000
1000
0001
1000
0000
0001
0010
0000
0001
0000
,  // measure 49
1010
0000
0000
0000
;

//---------------dance-single - PANDYX----------------
#NOTES:
     dance-single:
     PANDYX:
     Medium:
     5:
     0.299,0.292,0.168,0.019,0.000: // measure 1
0000
0000
0000
0000
,  // measure 2
0000
0000
0000
0000
,  // measure 3
0001
0001
0000
0000
0000
0000
0000
0000
,  // measure 4
1000
0001
0202
0303
,  // measure 5
0001
0100
0010
1001
,  // measure 6
0001
0100
0010
0101
,  // measure 7
0001
0000
0100
0000
0010
0000
1000
0100
,  // measure 8
1000
1000
0001
0001
,  // measure 9
1001
0000
0100
0000
0010
0100
0010
0000
,  // measure 10
1000
0000
0010
0000
0100
0010
1000
0000
,  // measure 11
1010
0000
0101
0000
0001
0100
0001
0000
,  // measure 12
0100
0000
0001
0000
0010
0001
0100
0000
,  // measure 13
0001
0000
0100
0000
0010
0000
1000
0010
,  // measure 14
0100
0000
0010
0000
1000
0000
0100
1000
,  // measure 15
0010
0000
0100
0000
0001
0000
0010
0001
,  // measure 16
0100
0101
0001
0110
,  // measure 17
0010
0000
0100
0000
0100
0010
1001
0000
,  // measure 18
0001
0000
0100
0000
0010
1000
0100
0000
,  // measure 19
1000
0000
0100
0000
1000
0100
0010
0000
,  // measure 20
0010
0001
0100
0000
0100
0010
1000
0000
,  // measure 21
0010
0010
0000
0000
0000
0000
0000
0000
,  // measure 22
0100
0100
0000
0000
0000
0000
0000
0000
,  // measure 23
0001
0001
0000
0000
0000
0000
0000
0000
,  // measure 24
1000
1000
0000
0000
0001
0001
0000
0000
,  // measure 25
1000
0001
0100
0001
,  // measure 26
0010
0001
0100
0110
,  // measure 27
0010
0100
0001
1000
,  // measure 28
0010
1000
0100
1000
,  // measure 29
1010
0000
0010
0000
0100
0001
0010
0000
,  // measure 30
0010
0000
0001
0000
0001
0100
0010
0000
,  // measure 31
0010
1000
0100
1000
,  // measure 32
0010
0000
0100
0000
0010
1000
0001
0000
,  // measure 33
1000
0000
1001
0000
0001
0100
0010
0000
,  // measure 34
1000
0000
0010
0000
0100
0010
1000
0000
,  // measure 35
0001
0000
1000
0000
1000
0001
0100
0000
,  // measure 36
0101
0000
1010
0000
,  // measure 37
0010
0000
0100
0000
0010
0100
0010
0000
,  // measure 38
0100
0000
0010
0000
1000
0100
1000
0000
,  // measure 39
0100
0000
1000
0000
0100
0010
0001
0000
,  // measure 40
0101
0000
0110
0000
,  // measure 41
1001
0000
1000
0000
0001
1000
0001
0000
,  // measure 42
0100
0000
0001
0000
0010
0001
0010
0000
,  // measure 43
0001
0000
0100
0000
0010
1000
0010
0000
,  // measure 44
1000
0010
0100
0000
0100
0010
1000
0000
,  // measure 45
0001
0000
1000
0000
0001
1000
0001
0000
,  // measure 46
0100
0000
0001
0000
0100
0001
0100
0000
,  // measure 47
0010
0000
0100
0000
0010
0100
0010
0000
,  // measure 48
0010
1000
0100
0000
0100
1000
0010
0000
,  // measure 49
1001
0000
0000
0000
;

//---------------dance-single - PANDYX----------------
#NOTES:
     dance-single:
     PANDYX:
     Easy:
     2:
     0.171,0.247,0.168,0.103,0.000: // measure 1
0000
0000
0000
0000
,  // measure 2
0000
0000
0000
0000
,  // measure 3
1001
0000
0000
0000
,  // measure 4
0001
1000
0200
0300
,  // measure 5
1000
0000
0100
0000
,  // measure 6
1000
0010
0100
0001
,  // measure 7
1000
0000
0001
0000
,  // measure 8
0101
0000
0110
0000
,  // measure 9
1001
0000
0001
0000
,  // measure 10
1000
0000
0001
0000
,  // measure 11
0100
0000
0001
0000
,  // measure 12
0010
0001
0100
0010
,  // measure 13
0110
0000
0000
0000
,  // measure 14
1010
0000
0000
0000
,  // measure 15
1100
0000
0000
0000
,  // measure 16
1000
0000
0100
0000
,  // measure 17
0011
0000
0000
0000
,  // measure 18
0101
0000
0000
0000
,  // measure 19
1001
0000
0000
0000
,  // measure 20
1000
0000
0100
0000
,  // measure 21
1000
0000
0000
0000
,  // measure 22
0001
0000
0000
0000
,  // measure 23
0010
0000
0000
0000
,  // measure 24
0100
0000
1000
0000
,  // measure 25
0010
0100
0001
0000
,  // measure 26
0001
0100
0010
0110
,  // measure 27
0010
0100
0010
1000
,  // measure 28
0001
0000
0001
0000
,  // measure 29
1001
0001
1000
0000
,  // measure 30
1000
0001
0100
0000
,  // measure 31
0100
0001
0010
0000
,  // measure 32
0010
0000
0001
0000
,  // measure 33
0100
0010
1000
0100
,  // measure 34
1000
0010
0100
0000
,  // measure 35
0100
0000
0010
0000
,  // measure 36
1000
0000
0001
0000
,  // measure 37
1000
1000
1000
1001
,  // measure 38
0001
0001
0001
1001
,  // measure 39
0001
0001
0001
0101
,  // measure 40
0101
0000
1010
0000
,  // measure 41
0020
0000
0000
0030
,  // measure 42
0200
0000
0000
0300
,  // measure 43
0002
0000
0000
0003
,  // measure 44
2000
3000
2000
3000
,  // measure 45
0002
0000
0000
0003
,  // measure 46
2000
0000
0000
3000
,  // measure 47
0200
0000
0000
0300
,  // measure 48
2000
3000
0020
0030
,  // measure 49
1001
0000
0000
0000
;

//---------------dance-single - PANDYX----------------
#NOTES:
     dance-single:
     PANDYX:
     Beginner:
     1:
     0.096,0.180,0.150,0.000,0.000: // measure 1
0000
0000
0000
0000
,  // measure 2
0000
0000
0000
0000
,  // measure 3
0000
0000
0000
0000
,  // measure 4
0000
0000
0000
0000
,  // measure 5
0001
0000
0000
0000
,  // measure 6
1000
0000
0000
0000
,  // measure 7
0001
0000
0000
0000
,  // measure 8
0100
0000
0010
0010
,  // measure 9
0010
0000
0000
0000
,  // measure 10
0100
0000
0000
0000
,  // measure 11
1000
0000
0000
0000
,  // measure 12
0001
0000
0000
0000
,  // measure 13
0110
0000
0000
0000
,  // measure 14
0010
0000
0000
0000
,  // measure 15
1000
0000
0000
0000
,  // measure 16
0001
0000
0001
0000
,  // measure 17
1001
0000
0000
0000
,  // measure 18
0010
0000
0000
0000
,  // measure 19
0100
0000
0000
0000
,  // measure 20
1000
0000
0001
0000
,  // measure 21
1001
0000
0000
0000
,  // measure 22
0010
0000
0000
0000
,  // measure 23
0010
0000
0000
0000
,  // measure 24
0100
0000
0100
0000
,  // measure 25
0100
0000
0000
0000
,  // measure 26
0010
0000
0000
0000
,  // measure 27
1000
0000
0000
0000
,  // measure 28
0001
0000
0001
0000
,  // measure 29
1001
0000
0000
0000
,  // measure 30
0110
0000
0000
0000
,  // measure 31
0110
0000
0000
0000
,  // measure 32
1001
0000
1001
0000
,  // measure 33
1001
0000
0000
0000
,  // measure 34
0001
0000
0000
0000
,  // measure 35
1000
0000
0000
0000
,  // measure 36
0010
0000
0010
0000
,  // measure 37
0100
0000
0000
0000
,  // measure 38
0010
0000
0000
0000
,  // measure 39
1000
0000
0000
0000
,  // measure 40
0001
0000
0001
0000
,  // measure 41
1001
0000
0000
0000
,  // measure 42
1001
0000
0000
0000
,  // measure 43
1001
0000
0000
0000
,  // measure 44
0100
0000
0010
0000
,  // measure 45
0110
0000
0000
0000
,  // measure 46
0110
0000
0000
0000
,  // measure 47
0110
0000
0000
0000
,  // measure 48
0010
0000
0100
0000
,  // measure 49
1001
0000
0000
0000
;
