#TITLE:Moonlight;
#SUBTITLE:;
#ARTIST:BanYa;
#TITLETRANSLIT:;
#SUBTITLETRANSLIT:;
#ARTISTTRANSLIT:;
#CREDIT:;
#BANNER:Moonlight-banner.png;
#BACKGROUND:Moonlight-bg.png;
#LYRICSPATH:;
#CDTITLE:;
#MUSIC:Moonlight.mp3;
#OFFSET:-0.173;
#SAMPLESTART:33.333;
#SAMPLELENGTH:11.820;
#SELECTABLE:YES;
#BPMS:0.000=180.000,128.000=90.000,164.000=135.000,170.000=179.999;
#STOPS:;
#BGCHANGES:;

//---------------dance-single - ----------------
#NOTES:
     dance-single:
     :
     Easy:
     4:
     0.349,0.414,0.361,0.166,0.020:
0000
0000
0000
0000
,
0000
0000
0000
0000
,
0000
0000
0000
0000
,
0000
0000
0000
0000
,
0000
0000
0000
0000
,
1000
1000
0001
0001
,
0100
0100
0010
0110
,
0100
0100
0001
0001
,
1000
1000
0100
0110
,
0010
0010
0001
0001
,
1000
1000
0001
1001
,
0001
0100
0010
1010
,
1000
0100
0010
0011
,
0001
0200
0010
0000
,
0010
0000
0310
0000
,
1000
0200
0010
0000
,
0010
0000
0310
0000
,
0100
1100
0001
0101
,
0110
0110
0110
0000
,
0000
0000
0000
0000
,
1000
0000
0100
0000
,
0010
0000
0011
0011
,
0010
0000
0001
0000
,
0100
0000
0110
0110
,
0010
0000
1000
0000
,
0100
0000
0110
1001
,
0001
0100
1000
0100
,
0001
1000
0010
0010
,
1000
0100
0001
0100
,
1000
0010
0100
0001
,
0020
0000
0000
0000
,
0000
0130
1000
0100
,
0010
0000
0002
0000
0000
0000
0103
0010
,
1000
0000
0200
0000
0000
0000
0310
0001
,
0010
0100
1000
0010
,
0200
0000
0020
0330
,
0010
0100
0001
0010
,
0002
0000
0200
0303
,
0010
1000
0100
1000
,
0020
0000
0200
0330
,
0002
0000
0203
0000
,
1300
0000
0000
0100
0000
0000
0001
0000
0000
0010
0000
0000
0100
0000
0000
1000
,
0000
0000
1000
0000
0000
0001
0000
0000
0001
0000
0000
0000
0100
0000
0000
0000
,
0001
1000
0001
0010
,
0001
1001
1000
0100
,
1000
0001
1000
0010
,
1000
1010
1000
0010
,
0100
0001
1000
0010
,
0100
0101
0001
0010
,
0100
1100
0001
0010
,
0100
1100
1000
0000
,
0100
0000
0010
0001
,
0100
0010
0110
0000
,
0100
0000
0010
1000
,
0100
0010
0011
0000
,
0001
0000
0100
0010
,
0100
0001
1001
0000
,
1000
0000
0100
1000
,
0010
1010
1000
0101
,
1000
0101
1000
0110
,
1000
0110
1000
1010
,
1000
1010
0100
1001
,
0100
1001
0220
0000
,
0000
0330
0110
0000
,
0110
0000
0220
0000
,
0000
0330
0000
0000
;

//---------------dance-single - ----------------
#NOTES:
     dance-single:
     :
     Medium:
     7:
     0.533,0.544,0.342,0.489,0.039:
0000
0000
0000
0000
,
0000
0000
0000
0000
,
1000
0001
1000
0001
,
0100
0100
0010
0010
,
0220
0000
0000
0330
,
1000
0001
0100
0000
0001
1000
0100
0000
,
0010
0001
0010
0000
1100
0000
1100
0000
,
0001
1000
0100
0000
1000
0001
0100
0000
,
0010
1000
0010
0000
0101
0000
0101
0000
,
0001
1000
0100
1000
0001
0000
0001
0000
,
1000
0001
0100
0001
1000
0000
1001
0000
,
1000
0010
0100
0001
1000
0000
1001
0000
,
1000
0010
0100
0001
1000
0000
1001
0000
,
1000
0100
0010
0000
0001
0000
0010
0000
,
0001
0100
0010
0100
0001
0000
0101
0000
,
0100
0010
1000
0000
0100
0000
1000
0000
,
0100
0010
0001
0100
0010
0000
0110
0000
,
2000
3002
2003
3002
,
1003
0001
1000
0001
1000
0000
0000
0000
,
0010
0010
0010
0010
,
0110
0000
0000
0000
0101
0000
0000
1001
,
0000
1100
1001
1001
,
1100
0000
0000
0000
1001
0000
0000
1010
,
0000
0110
0101
0101
,
1001
0000
0000
0000
0011
0000
0000
1100
,
0000
1100
1002
0003
,
0001
0100
0001
0000
0100
0000
0010
0000
,
1000
0010
1000
0000
0100
0000
0010
0000
,
0100
1000
0100
0000
1000
0000
0010
0000
,
0100
0001
0100
0000
0001
0000
0010
0000
,
0200
0000
0000
0000
,
0000
1300
0001
0010
,
0200
0000
2300
0000
0000
0000
3010
0001
,
0200
0000
2300
0000
3000
0000
0001
1000
,
0002
0023
0230
2300
,
3002
0000
0000
0013
0220
0000
0330
0000
,
0020
0032
0203
2300
,
3020
0000
0000
0031
0002
0000
0003
0000
,
0200
0320
0230
0302
,
2003
0000
0000
0000
,
3200
0000
0320
0000
,
0031
0000
0000
0000
0000
0000
0100
0000
0000
0000
0000
0000
0010
0000
0000
0000
0000
0000
1000
0000
0000
0000
0000
0000
0100
0000
0000
0010
0000
0000
0001
0000
,
0000
0100
0000
0000
0010
0000
0000
1000
0000
0000
0100
0000
0000
0010
0000
0000
0001
0000
0000
0000
1000
0000
0000
0000
0001
0000
0000
0000
0000
0000
0000
0000
,
0001
0100
1000
0000
0100
0001
0100
0010
,
0100
0000
0110
0000
0010
1000
0100
0000
,
1000
0001
1000
0000
0100
0010
0100
0010
,
0001
0000
1001
0000
1000
0100
1000
0100
,
0010
0001
0010
0001
1000
0001
1000
0001
,
1000
0000
1001
0000
0001
0100
0001
0100
,
0010
0000
0110
0000
0010
1000
0010
1000
,
0001
0000
1001
0000
0001
0100
0001
0000
,
0100
1000
0100
0000
1000
0010
1000
0000
,
0010
0001
0010
0000
0001
0100
0001
0000
,
0100
0010
0100
0000
0010
1000
0010
0000
,
1000
0001
1000
0000
0100
0001
0100
0000
,
0001
0010
0001
0000
0010
1000
0010
0000
,
1000
0100
1000
0000
0100
0010
0100
0000
,
0010
0100
0010
0000
0010
0001
0010
0000
,
0001
1000
0001
0000
0200
0000
0320
0000
,
0230
0320
0032
2003
,
3002
2003
3020
0230
,
0320
0230
2300
3002
,
2003
0000
3002
0000
1003
0100
1000
0100
,
1000
0100
1000
0010
1000
0000
0000
0000
,
1001
0000
0202
0000
,
0000
0000
0303
0000
;

//---------------dance-single - ----------------
#NOTES:
     dance-single:
     :
     Hard:
     9:
     0.691,0.928,0.215,0.147,0.303:
0000
0000
0000
0000
,
0000
0000
0000
0000
,
0001
0000
1000
0000
0100
0010
0100
0000
,
0010
0001
0100
0010
1000
0100
1000
0010
,
0200
0000
0000
0300
,
0001
0100
0001
0100
0001
1000
0001
1000
,
0001
0010
0001
0010
0001
0011
0011
0000
,
1000
0100
1000
0100
1000
0001
1000
0001
,
1000
0010
1000
0010
1000
1010
1010
0000
,
0001
0100
1000
0100
0001
0010
1000
0010
,
0001
0100
0010
1000
0100
1100
1100
0000
,
0100
0010
0001
0100
0010
1000
1000
1000
,
0100
0010
0001
0100
0010
1000
1000
1000
,
0100
0010
0100
0010
0001
0010
0001
0010
,
0001
0100
0001
0100
0010
1000
0100
0010
,
0100
1000
0100
1000
0100
1000
0001
1000
,
0001
1000
0010
1000
0010
0100
0001
0010
,
0100
0000
0000
1000
0100
0000
0000
0010
0001
0000
0000
0100
0010
0000
0000
1000
,
0001
1000
0001
1000
1001
0000
0000
0000
,
0200
0320
0230
0320
,
0031
0100
0000
0100
1000
0000
1000
0010
,
0000
0010
0001
0100
0010
0000
0110
0000
,
0010
1000
0000
1000
0100
0000
0100
0001
,
0000
0001
0010
0100
0010
0000
0110
0000
,
0010
0001
0000
0001
0100
0000
0100
1000
,
0000
0000
1000
0000
0010
0000
0100
0000
0001
1000
0001
1000
0001
0000
0010
0000
,
0100
1000
0001
1000
0100
0100
0010
0000
,
0010
0001
1000
0001
0100
0100
0010
0000
,
0010
1000
0100
0010
0100
0100
1000
0000
,
1000
0010
0100
0001
0010
0010
0002
0000
,
0200
0000
0000
0000
,
0303
1000
0001
0100
,
0010
1000
0010
0000
0100
0001
0000
0010
0000
0100
1000
0000
0010
0010
0010
0000
,
0100
0001
0100
0000
0001
0010
0000
0001
0000
1000
0100
0000
1000
1000
1000
0000
,
0001
1000
0100
0000
1000
0100
0010
0000
0100
0010
0001
0000
0010
0001
0100
0000
,
0220
0000
0330
1100
0202
0000
0000
0303
,
0100
0010
0100
0000
0010
1000
0000
0100
0000
0100
0010
0000
0001
0001
0001
0000
,
0010
0100
0010
0000
0100
1000
0000
0010
0000
0100
0001
0000
0100
0100
0100
0000
,
0010
1000
0100
0000
0001
0100
1000
0000
0010
0100
0001
0000
0010
1000
0010
0000
,
0001
0100
0010
1000
0100
0010
0100
1000
0010
0100
0001
0010
0001
1000
0010
0100
,
0002
0000
0203
0000
,
0310
0000
0000
0000
0000
0000
1000
0000
0000
0000
0000
0000
0100
0000
0000
0000
0000
0000
1000
0000
0000
0000
0000
0000
0010
0000
0000
0100
0000
0000
0001
0000
,
0000
1000
0000
0000
0100
0000
0000
0010
0000
0000
0001
0000
0000
0100
0000
0000
0010
0000
0000
0000
1000
0000
0000
0000
0100
0000
0000
0000
0100
0000
0000
0000
,
1000
0010
0100
0100
0001
0010
0100
0100
,
1000
0001
1001
0000
0010
0100
0001
0001
,
0010
0100
1000
1000
0010
0100
0001
0001
,
1000
0100
1100
0000
0010
0001
0100
1000
,
0100
0010
0100
0001
0010
1000
0010
0100
,
0010
0011
0011
0000
0010
0100
1000
0010
,
0100
0001
0001
0001
0010
0100
1000
0010
,
0100
0001
0001
0001
1000
0100
0001
0100
,
1000
0010
1000
0100
1000
0010
0001
0010
,
1000
0100
1000
1000
0001
0100
1000
0100
,
0001
0100
0010
0001
0010
1000
0010
0100
,
0010
1000
0100
0100
0010
0001
0010
1000
,
0010
0100
0010
0001
0100
1000
0100
0001
,
0010
0100
1000
1000
0100
0001
0100
1000
,
0100
0001
0100
0010
0100
1000
0100
0010
,
0100
0000
1000
0000
0010
0000
0001
0000
0010
0000
0000
0010
1000
0000
0000
1000
,
0100
0000
0000
0100
0010
0000
0000
0000
0110
0000
0000
0010
0001
0000
0000
0001
,
0100
0000
0000
0100
0010
0000
0000
0000
0110
0000
0000
0010
1000
0000
0000
0100
,
0010
0000
0000
0001
0100
0000
0000
0000
0110
0000
0000
0100
0001
0000
0000
0010
,
0100
0000
0000
1000
0010
0000
0000
0000
1000
0000
0100
0000
0001
0000
1000
0000
,
0010
0001
0100
1000
0011
0000
0000
0000
,
1001
0000
2020
0000
,
0000
0000
3030
0000
;

//---------------dance-double - ----------------
#NOTES:
     dance-double:
     :
     Challenge:
     1:
     0.265,0.264,0.049,0.020,0.078: // measure 1
00000000
00000000
00000000
00000000
,  // measure 2
00000000
00000000
00000000
00000000
,  // measure 3
01000000
00000000
00010000
00000000
00001000
00000100
00001000
00000000
,  // measure 4
00010000
00010000
00000100
00000100
,  // measure 5
00000020
00000000
00000000
00000030
,  // measure 6
00000001
00000100
00001000
00000000
00010000
01000000
10000000
00000000
,  // measure 7
00100000
01000000
00001000
00010000
01000000
00100000
01100000
00000000
,  // measure 8
10000000
01000000
00010000
00000000
00001000
00000100
00000001
00000000
,  // measure 9
00000010
00000100
00010000
00001000
00000100
00000010
00000110
00000000
,  // measure 10
00000010
00000100
00001000
00010000
00100000
01000000
10000000
01000000
,  // measure 11
00010000
10000000
01000000
00100000
00010000
01000000
01010000
00000000
,  // measure 12
00010000
01000000
00001000
00010000
00000010
00001000
00001000
00001000
,  // measure 13
00000010
00010000
00001000
00100000
01000000
00010000
00010000
00010000
,  // measure 14
01000000
10000000
00100000
01000000
00010000
01000000
00001000
00010000
,  // measure 15
00000010
00001000
00000001
00000100
00000001
00000010
00000001
00000100
,  // measure 16
00001000
00000100
00000001
00000010
00000001
00001000
00000100
00010000
,  // measure 17
00001000
00100000
00010000
10000000
01000000
10000000
00100000
00010000
,  // measure 18
00100000
00000000
00000000
10000000
00100000
00000000
00000000
00100000
00010000
00000000
00000000
00010000
00001000
00000000
00000000
00001000
,  // measure 19
00000010
00000001
00000100
00000010
00001000
00000000
00000000
00000000
,  // measure 20
00000010
00000010
00000010
00000010
,  // measure 21
00001000
00000010
00000000
00010000
00000010
00000000
00100000
00000010
,  // measure 22
00000000
00100000
00001000
00010000
00100000
00000000
01100000
00000000
,  // measure 23
00010000
01000000
00000000
00001000
01000000
00000000
00000100
01000000
,  // measure 24
00000000
00000100
00001000
00000001
00000010
00000000
00000110
00000000
,  // measure 25
00000010
00000100
00000000
00001000
00000100
00000000
00010000
00001000
,  // measure 26
00000000
00010000
00100000
00010000
00001000
00000010
00001000
00010000
,  // measure 27
00100000
00000000
00000000
10000000
01000000
00000000
00000000
00100000
00010000
00000000
00000000
01000000
00100000
00000000
00000000
00000000
,  // measure 28
10000000
00000000
00000000
01000000
00010000
00000000
00000000
00010000
00001000
00000000
00000000
00001000
00000100
00000000
00000000
00000000
,  // measure 29
00000100
00000000
00000000
00000001
00000010
00000000
00000000
00000100
00001000
00000000
00000000
00000010
00000100
00000000
00000000
00000000
,  // measure 30
00000001
00000000
00000000
00000010
00001000
00000000
00000000
00001000
00010000
00000000
00000000
00010000
00100000
00000000
00000000
00000000
,  // measure 31
20000000
00000000
00000000
00000000
,  // measure 32
30000000
00100000
01000000
00010000
;
