#TITLE:Groundhog;
#SUBTITLE:(Beat Juggle);
#ARTIST:Noisia;
#TITLETRANSLIT:;
#SUBTITLETRANSLIT:;
#ARTISTTRANSLIT:;
#CREDIT:;
#BANNER:;
#BACKGROUND:;
#LYRICSPATH:;
#CDTITLE:;
#MUSIC:Groundhog (Beat Juggle).mp3;
#OFFSET:-7.140;
#SAMPLESTART:14.220;
#SAMPLELENGTH:14.220;
#SELECTABLE:YES;
#BPMS:0.000=135.000;
#STOPS:;
#BGCHANGES:;

//---------------dance-single - ----------------
#NOTES:
     dance-single:
     :
     Hard:
     9:
     0.633,0.675,0.493,0.216,0.510: // measure 1
1001
1000
0100
0010
,  // measure 2
0100
0010
0001
1000
,  // measure 3
0101
0000
0000
0001
1000
0000
0000
0000
1100
0000
0000
1000
0001
0000
0000
0000
,  // measure 4
0011
1100
2002
3003
,  // measure 5
1000
0000
0100
0000
0001
0000
0100
0000
0010
0000
0001
0000
0000
1000
0000
0000
,  // measure 6
0001
0100
0010
0100
0001
1000
1100
0000
,  // measure 7
0001
0000
1000
0000
0010
0000
0100
0001
1000
0000
0100
0000
0000
0010
0000
0000
,  // measure 8
0100
0010
0001
0100
0010
1000
1001
0000
,  // measure 9
1000
0000
0001
0100
0001
0000
1000
0000
0010
0000
0100
0000
0000
1001
0000
0000
,  // measure 10
1000
0000
0100
0010
0001
0000
0001
0010
0100
0000
0010
0000
0011
0000
0000
0000
,  // measure 11
0001
0000
1000
0010
0100
0000
0001
0000
1000
0000
0100
0000
0000
0011
0000
0000
,  // measure 12
1100
0000
0000
1010
0000
0000
0101
0000
0000
0011
0000
0000
1001
0000
0000
0000
,  // measure 13
1000
0000
0001
0100
0001
0100
0010
0000
1000
0000
0100
0000
0000
0011
0000
0000
,  // measure 14
1100
0000
1000
0000
0001
0000
0100
0000
0010
0100
0001
0000
1010
0000
0000
0000
,  // measure 15
1000
0000
0001
0010
0001
0000
1000
0010
1000
0000
0001
0000
0000
0101
0000
0000
,  // measure 16
1001
0000
1000
0001
1000
0001
0100
0000
0010
0000
1000
0000
1100
0000
0000
0000
,  // measure 17
1000
0000
0001
1000
0100
0000
0010
0000
0100
1000
0001
0000
0000
1010
0000
0000
,  // measure 18
0101
0000
0001
1000
0001
0000
0100
0010
0100
0000
0001
0000
1001
0000
0000
0000
,  // measure 19
1000
0000
0100
0010
0001
1000
0001
0000
1000
0000
0010
0000
0000
0101
0000
0000
,  // measure 20
1001
0000
0000
1100
0000
0000
0011
0000
0000
0110
0000
0000
1001
0000
0000
0000
,  // measure 21
2010
0000
0000
0002
0000
0000
0000
0000
,  // measure 22
0000
0000
0000
3003
,  // measure 23
0210
0000
0000
0000
0000
0000
0000
0020
0000
0000
0000
0000
0000
0000
0000
0000
,  // measure 24
0000
0000
0000
0330
,  // measure 25
2010
0000
0001
0000
,  // measure 26
0100
0000
0010
0000
,  // measure 27
3002
0000
0203
0000
,  // measure 28
0310
0100
0110
1001
,  // measure 29
1000
0000
0001
0100
0001
0000
1000
0000
0100
0000
0010
0100
0000
0010
0100
0000
,  // measure 30
1000
0000
0010
0100
0010
0000
0100
0000
0101
0000
0000
2002
0000
0000
3003
0000
,  // measure 31
1000
0000
0001
0100
0010
0000
0100
0000
2002
0000
0000
0000
0000
0000
3003
0000
,  // measure 32
1000
0000
0100
0010
0001
0000
1000
0000
0001
0000
0000
0100
0000
0000
0110
0000
,  // measure 33
0010
0000
1000
0100
0010
0000
0100
0000
1000
0000
0010
0100
0000
0000
1001
0000
,  // measure 34
1000
0000
0001
0100
0001
0000
1000
0000
0220
0000
0000
0000
0330
0000
0000
0000
,  // measure 35
0010
0000
0001
0000
1000
0000
0010
0000
0100
0000
0001
0100
0001
0100
0001
0000
,  // measure 36
1000
0000
0010
0100
0001
0000
1000
0000
0200
0000
0000
2000
0000
0000
3300
0000
,  // measure 37
0000
0010
0001
0010
0000
0001
1000
0001
0000
1000
0010
1000
0000
0010
0100
0010
,  // measure 38
0100
0101
0001
0011
,  // measure 39
0001
1000
0100
1000
0000
0001
0010
0001
0000
0100
0010
0100
0000
0010
1000
0010
,  // measure 40
0100
0101
0001
1001
,  // measure 41
0001
0010
0001
0010
0100
0010
0100
0010
0001
0010
0001
0010
0100
0010
0100
0010
,  // measure 42
0001
1000
1001
0001
0100
0010
1010
0000
,  // measure 43
1000
0001
1000
0001
1000
0001
1000
0001
1000
0001
1000
0001
1000
0001
1000
0002
,  // measure 44
2000
0000
0000
3003
,  // measure 45
1000
0000
0001
1000
0001
0000
1000
0000
0010
0000
0000
0100
0000
0000
0001
0001
,  // measure 46
0000
1000
0001
1000
0010
0000
0100
0000
0001
0000
0000
1000
0000
0000
0100
0100
,  // measure 47
0000
0000
0010
0001
0000
0000
1000
0000
0001
0000
0000
1000
0000
0000
0010
0010
,  // measure 48
0000
0100
0010
0100
0001
0000
1000
0000
0100
0000
0000
0010
0000
0000
0001
0010
,  // measure 49
0001
0000
1000
0100
0010
0000
0100
0000
0010
0000
0000
0001
0000
0000
1000
0000
,  // measure 50
0010
0000
1000
0000
0001
0000
0100
0000
0010
0000
0000
0010
0000
0000
0100
0100
,  // measure 51
0000
0000
0001
0100
0001
0000
1000
0000
0010
0000
0000
0100
0000
0000
0001
0000
,  // measure 52
1000
0100
0010
0001
0100
0010
1000
0001
,  // measure 53
1001
0000
1000
0200
0010
0310
0100
1000
,  // measure 54
0001
0000
0000
0000
1000
0000
0020
0000
0030
0100
0010
0100
0010
0000
1000
0000
,  // measure 55
1001
0000
0001
0200
0010
0310
0001
0100
,  // measure 56
0001
0000
1000
0100
1000
0000
0002
0000
0003
1000
0010
1000
0001
0000
1000
0000
,  // measure 57
1001
0000
0000
1000
0000
0000
1100
0000
0000
0100
0000
0000
0010
0000
0001
0000
1000
0000
0001
0000
0000
1000
0000
0000
,  // measure 58
1010
0000
0010
0200
0020
0000
0330
0000
1000
0010
1000
0001
0100
0000
0001
0000
,  // measure 59
1001
0000
0100
0010
0000
0000
0000
0000
0011
0000
0100
1000
0000
0000
0000
0000
,  // measure 60
0001
0100
0001
0100
0010
1000
0010
1000
0001
0010
0001
0010
0100
0000
1100
0000
,  // measure 61
1001
0000
0000
0000
;

//---------------dance-single - ----------------
#NOTES:
     dance-single:
     :
     Medium:
     7:
     0.438,0.441,0.242,0.277,0.095: // measure 1
1001
1000
0010
0100
,  // measure 2
0001
1000
0100
0010
,  // measure 3
0110
0100
1100
1000
,  // measure 4
1001
0011
0202
0303
,  // measure 5
1001
0000
0000
0000
1000
0000
0100
0000
0000
0000
0010
0000
0000
0001
0000
0000
,  // measure 6
1000
0000
0001
0100
0000
0010
0110
0000
,  // measure 7
0100
0000
0010
0000
1000
0000
0001
0000
0000
0000
1000
0000
0000
0001
0000
0000
,  // measure 8
1000
0100
0010
0001
0000
1000
1001
0000
,  // measure 9
0001
0000
0000
0000
1000
0000
0100
0000
0000
0000
0010
0000
0000
0100
0000
0000
,  // measure 10
1000
0000
0100
0010
0000
0001
1001
0000
,  // measure 11
1000
0000
0001
0000
1000
0000
0000
0000
0100
0000
0010
0000
0000
0100
0000
0000
,  // measure 12
1000
0000
0000
0100
0000
0000
0010
0000
0000
0001
0000
0000
1001
0000
0000
0000
,  // measure 13
1010
0000
0000
0000
0001
0000
0100
0000
0000
0000
0001
0000
0000
0100
0000
0000
,  // measure 14
0001
0000
1000
0100
0000
0100
0110
0000
,  // measure 15
0010
0000
0001
0000
1000
0000
0001
0000
0000
0000
1000
0000
0000
0001
0000
0000
,  // measure 16
0100
0010
0100
0001
0000
1000
1100
0000
,  // measure 17
0011
0000
0000
0000
0001
0000
1000
0000
0000
0000
0001
0000
0000
1000
0000
0000
,  // measure 18
0001
0000
0100
0010
0000
0100
0110
0000
,  // measure 19
0010
0000
1000
0000
0001
0000
0000
0000
1000
0000
0001
0000
0000
0001
0000
0000
,  // measure 20
0001
0000
0000
1000
0000
0000
0001
0000
0000
1000
0000
0000
0010
0000
0000
0000
,  // measure 21
0120
0000
0000
0200
0000
0000
0000
0000
,  // measure 22
0000
0000
0000
0330
,  // measure 23
2002
0000
0000
0000
,  // measure 24
0000
0000
0000
3003
,  // measure 25
2020
0000
0000
0000
,  // measure 26
0000
0000
0000
3030
,  // measure 27
0202
0303
0022
0033
,  // measure 28
1100
0011
2002
3003
,  // measure 29
1000
0000
0100
0000
1000
0000
0000
0000
0001
0000
0000
0100
0000
0000
0001
0000
,  // measure 30
0100
0000
0010
0000
0100
0000
0010
0000
1000
0000
0000
1001
0000
0000
0000
0000
,  // measure 31
1000
0100
0010
0001
2000
0000
0000
3001
,  // measure 32
1000
0000
0010
0000
0100
0000
0001
0000
0200
0000
0000
0310
0000
0000
0000
0000
,  // measure 33
0010
0000
0010
0000
0010
0000
0000
0000
1000
0000
0000
1000
0000
0000
1000
0000
,  // measure 34
0001
1000
0001
1000
0200
0000
0300
0000
,  // measure 35
0010
0001
1000
0010
0200
0000
0000
0310
,  // measure 36
0100
0000
0010
0000
1000
0000
0001
0000
1000
0000
0000
1001
0000
0000
0000
0000
,  // measure 37
1000
0100
0010
0001
,  // measure 38
1000
0010
1000
0001
1000
0100
1000
0000
,  // measure 39
0001
0010
0100
1000
,  // measure 40
0001
0010
0001
0100
0001
1000
0001
0000
,  // measure 41
1000
0010
1000
0000
0001
0100
0001
0000
,  // measure 42
1000
0010
0001
0010
1000
0010
0100
0000
,  // measure 43
0220
0000
0000
0030
,  // measure 44
0002
0000
0000
0303
,  // measure 45
1000
0000
0100
0000
0010
0000
0001
0000
1000
0000
0000
0001
0000
0000
1000
0000
,  // measure 46
0001
0000
0010
0000
0001
0000
0000
0000
1000
0000
0000
0010
0000
0000
1000
0000
,  // measure 47
0001
0000
0010
0000
0001
0000
1000
0000
0100
0000
0000
0100
0000
0000
0100
0000
,  // measure 48
1000
0000
0100
0000
0010
0000
0001
0000
0100
0000
0000
0010
0000
0000
0100
0000
,  // measure 49
0001
1000
0001
0100
0001
0000
0000
1000
,  // measure 50
0100
0010
0001
0100
0010
0000
0000
0100
,  // measure 51
0001
0000
1000
0000
0100
0000
0010
0000
0100
0000
0000
0010
0000
0000
0001
0000
,  // measure 52
1000
0010
1000
0001
1000
0010
1000
0100
,  // measure 53
1000
0000
0001
0020
0000
0000
0130
0010
,  // measure 54
0100
0000
0010
0002
0000
0000
1003
0001
,  // measure 55
1000
0000
0010
0200
0000
0000
0301
0100
,  // measure 56
0001
1000
0100
2000
0000
0000
0001
3001
,  // measure 57
0001
1000
2002
0000
3003
0000
0001
0100
,  // measure 58
0010
0100
0002
0000
1000
1000
1003
0001
,  // measure 59
2000
0020
3030
0000
0200
0020
0330
0000
,  // measure 60
1000
0100
0010
0001
1000
0100
0010
0010
,  // measure 61
0010
0000
0000
0000
;

//---------------dance-single - ----------------
#NOTES:
     dance-single:
     :
     Easy:
     3:
     0.246,0.337,0.095,0.182,0.000: // measure 1
1002
0000
0000
0000
,  // measure 2
2003
0000
3200
0000
,  // measure 3
0320
0000
0000
0000
,  // measure 4
0200
0000
0000
0330
,  // measure 5
0010
0000
0001
1000
,  // measure 6
0001
0000
1000
0010
,  // measure 7
0100
0000
0001
1000
,  // measure 8
0100
0000
0010
0100
,  // measure 9
0010
0000
0001
0001
,  // measure 10
0001
0000
1000
1000
,  // measure 11
1000
0000
0010
0100
,  // measure 12
0220
0000
0000
0330
,  // measure 13
1001
0000
1000
0100
,  // measure 14
1000
0000
0001
0000
,  // measure 15
1000
0000
0001
0010
,  // measure 16
0001
1000
0100
0010
,  // measure 17
0100
0000
0010
0001
,  // measure 18
1000
0000
0001
0000
,  // measure 19
1000
0000
0010
0100
,  // measure 20
0220
0000
0000
0330
,  // measure 21
2002
0000
0000
0000
,  // measure 22
0000
0000
0000
3003
,  // measure 23
0220
0000
0000
0000
,  // measure 24
0000
0000
0000
0330
,  // measure 25
2020
0000
0000
0000
,  // measure 26
0000
0000
0000
3030
,  // measure 27
0202
0303
2002
3003
,  // measure 28
1000
0100
0010
0001
,  // measure 29
1000
0010
0100
0001
,  // measure 30
1000
0001
1000
0000
,  // measure 31
0001
0010
0001
0000
,  // measure 32
1000
0010
1000
0000
,  // measure 33
0001
1000
0010
0100
,  // measure 34
0001
1000
0001
0000
,  // measure 35
1000
0100
0010
0000
,  // measure 36
0010
0100
1000
0000
,  // measure 37
0001
1000
0001
0100
,  // measure 38
0001
0010
0001
0100
,  // measure 39
0010
0100
0010
1000
,  // measure 40
0010
0100
0010
1000
,  // measure 41
0100
1000
0100
0010
,  // measure 42
0001
0010
0001
1000
,  // measure 43
0002
0000
0000
0000
,  // measure 44
2000
0000
0000
3003
,  // measure 45
1000
0100
0010
0100
,  // measure 46
0010
0001
0100
0000
,  // measure 47
0100
0010
1000
0001
,  // measure 48
1000
0100
0010
0000
,  // measure 49
0010
0001
0100
0001
,  // measure 50
1000
0010
0100
0000
,  // measure 51
0010
0100
0001
1000
,  // measure 52
0100
0010
0001
1000
,  // measure 53
1001
0001
0000
1000
,  // measure 54
0100
0010
0000
0100
,  // measure 55
0010
0001
0000
0010
,  // measure 56
0001
1000
0000
0001
,  // measure 57
1000
0010
0010
0010
,  // measure 58
0100
0001
0001
0001
,  // measure 59
1000
0100
0010
0001
,  // measure 60
1000
0010
0100
0001
,  // measure 61
1001
0000
0000
0000
;

//---------------dance-single - ----------------
#NOTES:
     dance-single:
     :
     Beginner:
     2:
     0.133,0.156,0.087,0.000,0.000: // measure 1
1001
0000
0000
0000
,  // measure 2
0000
0000
0000
0000
,  // measure 3
0110
0000
0100
0000
,  // measure 4
0010
0000
0000
0000
,  // measure 5
1001
0000
0000
0000
,  // measure 6
1000
0000
0000
0000
,  // measure 7
0100
0000
0000
0000
,  // measure 8
0010
0000
0000
0000
,  // measure 9
0001
0000
1000
0000
,  // measure 10
0001
0000
0000
0000
,  // measure 11
0100
0000
0010
0000
,  // measure 12
0100
0000
0000
0000
,  // measure 13
0110
0000
0010
0000
,  // measure 14
0100
0000
0001
0000
,  // measure 15
1000
0000
0001
0000
,  // measure 16
1000
0000
0000
0000
,  // measure 17
0001
0000
0010
0000
,  // measure 18
0001
0000
1000
0000
,  // measure 19
0100
0000
1000
0000
,  // measure 20
0001
0000
0000
0000
,  // measure 21
1001
0000
0000
0000
,  // measure 22
0000
0000
0000
0000
,  // measure 23
0110
0000
0000
0000
,  // measure 24
0000
0000
0000
0000
,  // measure 25
1001
0000
0000
0000
,  // measure 26
0000
0000
0000
0000
,  // measure 27
1001
0000
1000
0000
,  // measure 28
0100
0000
0010
0000
,  // measure 29
0001
0000
0001
0000
,  // measure 30
1000
0000
0010
0000
,  // measure 31
0100
0000
0100
0000
,  // measure 32
0010
0000
0010
0000
,  // measure 33
0100
0000
0001
0000
,  // measure 34
1000
0000
0100
0000
,  // measure 35
1000
0000
1000
0000
,  // measure 36
0001
0000
0001
0000
,  // measure 37
1000
0000
0000
0000
,  // measure 38
0001
0001
0001
0001
,  // measure 39
0001
0000
0000
0000
,  // measure 40
0100
0100
0100
0100
,  // measure 41
0100
0000
0000
0000
,  // measure 42
0010
0010
0010
0010
,  // measure 43
0010
0000
0000
0000
,  // measure 44
0000
0000
0000
0000
,  // measure 45
0100
0000
0001
0000
,  // measure 46
1000
0000
0001
0000
,  // measure 47
1000
0000
0001
0000
,  // measure 48
0010
0000
0001
0000
,  // measure 49
1000
0000
0100
0000
,  // measure 50
0010
0000
0100
0000
,  // measure 51
1000
0000
0001
0000
,  // measure 52
1000
0000
0010
0000
,  // measure 53
0110
0000
0010
0000
,  // measure 54
0100
0000
0000
0000
,  // measure 55
0001
0000
1000
0000
,  // measure 56
0100
0000
0000
0000
,  // measure 57
1000
0000
0100
0000
,  // measure 58
0010
0000
0001
0000
,  // measure 59
1000
0000
0001
0000
,  // measure 60
1000
0000
0010
0000
,  // measure 61
0110
0000
0000
0000
;
