#TITLE:Tunak Tunak Tun;
#SUBTITLE:;
#ARTIST:Daler Mehndi;
#TITLETRANSLIT:;
#SUBTITLETRANSLIT:;
#ARTISTTRANSLIT:;
#CREDIT:;
#BANNER:bn.png;
#BACKGROUND:bg.png;
#LYRICSPATH:;
#CDTITLE:;
#MUSIC:Tunak Tunak Tun.mp3;
#OFFSET:-0.040;
#SAMPLESTART:58.880;
#SAMPLELENGTH:12.000;
#SELECTABLE:YES;
#BPMS:0.000=150.080;
#STOPS:;
#BGCHANGES:0.000=BGV.avi=1.000=0=0=1,
99999=-nosongbg-=1.000=0=0=0 // don't automatically add -songbackground-
;

//---------------dance-single - ----------------
#NOTES:
     dance-single:
     :
     Hard:
     8:
     0.438,0.583,0.169,0.053,0.267:
0000
0000
0000
0000
,
0000
0000
0000
0000
,
0000
0000
0000
0000
,
0000
0000
0000
0000
,
0001
0000
0000
0010
0000
0000
0001
0000
0100
0000
0000
0010
0000
0000
0100
0000
,
0001
0000
0000
0010
0000
0000
0001
0000
1000
0000
1000
0000
1000
0000
0000
0000
,
1000
0000
0000
0100
0000
0000
1000
0000
0010
0000
0000
0100
0000
0000
0010
0000
,
1000
0000
0000
0100
0000
0000
1000
0000
0001
0000
0001
0000
0001
0000
0000
0000
,
1000
0000
0000
0001
0000
0000
0100
0000
0001
0000
0000
0010
0000
0000
0001
0000
,
0100
0000
0000
0010
0000
0000
0100
0000
0010
0000
0010
0000
0010
0000
0000
0000
,
0100
0010
1000
0001
,
0010
0010
0001
0010
,
0001
0100
0001
0010
,
0001
0100
0010
1000
,
0100
1000
0000
1000
0100
0000
1000
0001
,
0010
0000
0001
0000
0100
0000
0010
1000
,
0001
0000
0010
0000
0011
0000
0001
0100
,
0010
0000
0100
0000
0010
1000
0001
0010
,
0001
0010
0001
0100
,
0001
0010
0001
0100
,
0010
0010
0010
0100
,
0010
1000
0100
1000
,
0010
0100
0000
0100
0010
0000
0010
1000
,
0001
0000
0001
0000
1001
0000
1000
0001
,
0100
0000
0010
0000
0110
0000
0010
1000
,
0001
0010
0001
0100
0010
0100
0000
0101
,
0000
0001
1000
0010
2000
0000
0000
0000
,
0000
0000
0000
0000
,
0000
0000
0000
3000
,
1000
0000
0000
0001
0000
0000
0010
0000
0001
0000
0000
0100
0000
0000
0010
0000
,
0100
0000
0000
0010
0000
0000
1000
0000
0001
0000
0000
1000
0100
0000
1000
0000
,
0001
0000
0000
1000
0000
0000
0001
0000
0010
0000
0000
0001
0000
0000
0010
0000
,
0001
0000
0000
0100
0000
0000
0010
0000
0100
0000
0100
0000
0100
0000
0000
0000
,
0001
0000
0000
0010
0100
0000
0000
1000
0100
0000
0000
0100
0010
0000
0000
0010
,
0001
0000
0000
0001
0100
0000
0000
0100
0010
0000
0010
0000
0010
0000
0000
0010
,
0100
0000
0000
0010
1000
0000
0000
1000
0100
0000
0000
1000
0001
0000
0000
0001
,
0010
0000
0000
0001
0100
0000
0000
0010
0100
0000
0010
0000
1000
0000
0001
0000
,
0010
0000
0001
0000
,
0001
0100
0010
0000
,
0100
0000
0010
0000
0010
1000
0001
0000
,
1000
0001
0100
0000
,
0100
0000
0000
0000
0101
1010
0000
0000
,
0000
0000
0000
0000
1100
0011
0000
0000
,
0000
0000
0000
0000
0100
1001
0000
0000
,
0000
0000
0000
0000
0110
0101
0000
0000
,
1000
0001
0100
0000
,
0011
0000
0000
1100
0000
0000
1001
0000
0000
0000
0101
0000
1010
0000
0000
0000
,
1000
0001
0010
0001
,
0100
0000
0001
0000
0010
0010
0010
0000
,
0001
0000
0000
0010
0000
0000
0001
0000
0100
0000
0000
0010
0000
0000
0100
0000
,
0010
0000
0000
1000
0000
0000
0010
0000
1010
0000
1100
0000
1010
0000
0000
0100
,
1000
0000
0000
1000
0010
0000
0000
0010
0100
0000
0000
0100
0010
0000
0000
0010
,
1000
0000
0000
1000
0001
0000
0000
0001
0010
0000
0000
0010
0001
0000
0000
0001
,
0100
0000
0000
0100
0010
0000
0000
0010
1000
0000
0000
1000
0100
0000
0000
0100
,
0010
0000
0000
0010
0001
0000
0000
0001
0100
0000
0001
0000
0010
0000
0000
0000
,
0001
0010
0001
0100
,
0010
0000
1000
0010
2000
0000
3000
0000
,
1000
0100
1000
0010
,
0100
0010
1000
0001
0020
0000
0030
0000
,
0001
0010
0001
0100
,
0001
0000
1000
0001
0200
0000
0300
0000
,
0001
0100
0010
1000
,
0001
0010
0100
1000
0002
0000
0003
0000
,
0000
0000
1000
0000
0000
0001
0000
0000
0010
0000
0000
0001
0000
0000
0100
0000
,
0000
0000
0010
0000
0000
1000
0000
0000
0001
0000
0000
0010
0000
0000
0001
0000
,
1000
0000
0001
0000
0000
0010
0000
0000
0001
0000
0000
0100
0000
0000
0010
0000
,
1000
0100
1000
0100
0000
0000
0001
0010
0001
0010
0000
0000
0001
1000
0001
0100
,
0020
0000
0000
0000
,
0000
0000
0000
0000
,
0030
0000
0000
0000
;

//---------------dance-single - ----------------
#NOTES:
     dance-single:
     :
     Medium:
     5:
     0.276,0.429,0.107,0.027,0.004:
0000
0000
0000
0000
,
0000
0000
0000
0000
,
0000
0000
0000
0000
,
0000
0000
0000
0000
,
0001
1000
0001
1000
,
0001
0000
1000
0000
0001
0100
0001
0000
,
0001
0100
0010
0100
,
0010
0000
1000
0000
0010
1000
0010
0000
,
1000
0010
0100
0010
,
1000
0000
0001
0000
0010
0001
0010
0000
,
0001
0000
0001
0000
,
0001
0010
0001
0100
,
0010
0000
0100
0000
,
0010
1000
0100
1000
,
0010
0000
1000
0000
,
1000
0010
0100
0010
,
1000
0000
0010
0000
,
0010
1000
0001
0010
,
0001
0000
0100
0000
,
0001
0010
0001
0100
,
0010
0000
1000
0000
,
1000
0010
0100
0010
,
1000
0001
0010
0001
,
0010
0000
0001
0100
0001
0000
0100
0000
,
0010
0100
0010
1000
,
0010
0100
0010
1000
,
0000
0002
0200
0000
,
0000
0000
0000
0000
,
0000
0000
0303
0000
,
0001
0000
0001
0000
,
0001
0000
0000
0000
1000
0001
1000
0000
,
1000
1000
0001
0001
,
1000
0000
0001
0000
1000
0001
1000
0000
,
0101
0100
0110
0010
,
1010
0000
1000
0000
0010
1000
0010
0000
,
1100
0100
0101
0001
,
0011
0000
1000
0000
0100
1000
0100
0000
,
1000
0000
0001
0000
,
1000
0000
0001
0000
,
0100
0000
0001
0000
,
0010
0000
0001
0000
,
0100
0000
0000
0000
0001
0001
0000
0000
,
0000
0000
0000
0000
0100
0100
0000
0000
,
0000
0000
0000
0000
0010
0010
0000
0000
,
0000
0000
0000
0000
1000
1000
0000
0000
,
1000
0000
0001
0000
,
1000
0000
0000
0001
0000
0000
0010
0000
0000
0000
0001
0000
1001
0000
0000
0000
,
0000
0000
0000
0000
,
0000
0000
0000
0000
,
1001
0001
0100
0001
,
0010
0000
0001
0000
0100
0010
1000
0000
,
0010
0100
0010
1000
,
0100
0000
1000
0000
0010
0100
0010
0000
,
0100
0100
0010
0010
,
1000
0000
0001
0000
1000
0001
1000
0000
,
0001
0100
0010
1000
,
0100
1000
0010
0000
,
0010
1000
0010
0100
,
0010
1000
0001
0000
,
0001
1000
0001
0100
,
0001
0010
0001
0000
,
0001
0010
0001
0100
,
0010
1000
0100
0000
,
1000
0000
0000
0000
,
1001
0000
0000
0000
,
0101
0000
0000
0000
,
0101
0000
0000
1100
0000
0000
0001
0100
,
0020
0000
0000
0000
,
0000
0000
0000
0000
,
0030
0000
0000
0000
;

//---------------dance-single - ----------------
#NOTES:
     dance-single:
     :
     Easy:
     3:
     0.202,0.276,0.062,0.027,0.000:
0000
0000
0000
0000
,
0000
0000
0000
0000
,
0000
0000
0000
0000
,
0000
0000
0000
0000
,
0001
0000
0001
0000
,
0001
0000
0001
1000
,
0100
0000
0100
0000
,
0100
0000
0100
1000
,
0100
0000
0100
0000
,
0100
0000
0100
1000
,
0010
0000
0010
0000
,
0010
0100
0010
1000
,
0001
0000
1000
0000
,
0001
1000
0100
1000
,
0010
0000
0010
0000
,
0010
1000
0100
1000
,
0010
0000
0100
0000
,
0100
0010
1000
0001
,
0000
0001
0000
0001
,
0000
0001
1000
0001
,
0100
0000
0001
0000
,
0001
0010
0001
0100
,
0010
0000
1000
0000
,
0010
1000
0100
0000
,
1000
0000
0100
0000
,
1000
0010
0100
0001
,
0000
0001
0200
0000
,
0000
0000
0000
0000
,
0000
0000
0300
0000
,
0001
0000
0001
0000
,
0001
0000
0001
0001
,
0101
0000
0100
0000
,
0010
0000
0010
1000
,
0010
1000
0010
0100
,
0010
1000
0100
1000
,
1000
0010
0100
0001
,
0010
0001
0100
0010
,
0100
0000
0000
0000
,
0000
0000
0000
0000
,
0010
0000
0000
0000
,
0000
0000
0000
0000
,
0000
0000
0000
0000
1000
0001
0000
0000
,
0000
0000
0000
0000
1000
0001
0000
0000
,
0000
0000
0000
0000
0001
1000
0000
0000
,
0000
0000
0000
0000
0001
1000
0000
0000
,
0001
0000
1000
0000
,
1001
0000
0000
0000
,
0100
0000
0100
0000
,
0100
0000
0100
0100
,
0110
0000
0010
0000
,
0100
0000
0010
1000
,
0100
0000
1000
0000
,
0010
0000
0100
0001
,
0010
0000
0001
0000
,
0010
0000
0010
0001
,
0100
0000
0010
0000
,
0100
0010
1000
0000
,
1000
0000
0010
0000
,
1000
0010
0100
0000
,
0100
0000
0010
0000
,
0010
1000
0001
0000
,
0001
0000
1000
0000
,
1000
0001
0100
0000
,
0101
0000
0000
0000
,
0110
0000
0000
0000
,
1010
0000
0000
0000
,
1000
0000
0000
0100
0000
0000
1000
0000
,
2002
0000
0000
0000
,
0000
0000
0000
0000
,
3003
0000
0000
0000
;

//---------------dance-single - ----------------
#NOTES:
     dance-single:
     :
     Beginner:
     1:
     0.070,0.119,0.044,0.000,0.000: // measure 1
0000
0000
0000
0000
,  // measure 2
0000
0000
0000
0000
,  // measure 3
0000
0000
0000
0000
,  // measure 4
0000
0000
0000
0000
,  // measure 5
0001
0000
0000
0000
,  // measure 6
0000
0000
0000
0000
,  // measure 7
1000
0000
0000
0000
,  // measure 8
0000
0000
0000
0000
,  // measure 9
0001
0000
0000
0000
,  // measure 10
0000
0000
0000
0000
,  // measure 11
0100
0000
0000
0000
,  // measure 12
0100
0000
0000
0000
,  // measure 13
0010
0000
0000
0000
,  // measure 14
0100
0000
0000
0000
,  // measure 15
1001
0000
0000
0000
,  // measure 16
0001
0000
0000
0000
,  // measure 17
1000
0000
0000
0000
,  // measure 18
0010
0000
0000
0000
,  // measure 19
0100
0000
0000
0000
,  // measure 20
0010
0000
0000
0000
,  // measure 21
1000
0000
0000
0000
,  // measure 22
0001
0000
0000
0000
,  // measure 23
0100
0000
0000
0000
,  // measure 24
0100
0000
0000
0000
,  // measure 25
0010
0000
0000
0000
,  // measure 26
1000
0000
0000
0000
,  // measure 27
0000
0010
0010
0000
,  // measure 28
0000
0000
0000
0000
,  // measure 29
0000
0000
0000
0000
,  // measure 30
0100
0000
0000
0000
,  // measure 31
0000
0000
0000
0000
,  // measure 32
1001
0000
0000
0000
,  // measure 33
0000
0000
0000
0000
,  // measure 34
0010
0000
0000
0000
,  // measure 35
1000
0000
0000
0000
,  // measure 36
0001
0000
0000
0000
,  // measure 37
0100
0000
0000
0000
,  // measure 38
0110
0000
0000
0000
,  // measure 39
0000
0000
0000
0000
,  // measure 40
1001
0000
0000
0000
,  // measure 41
0000
0000
0000
0000
,  // measure 42
0000
0000
0010
0000
,  // measure 43
0000
0000
0010
0000
,  // measure 44
0000
0000
0100
0000
,  // measure 45
0000
0000
0100
0000
,  // measure 46
0010
0000
0000
0000
,  // measure 47
1001
0000
0000
0000
,  // measure 48
0010
0000
0000
0000
,  // measure 49
0000
0000
0000
0000
,  // measure 50
0100
0000
0000
0000
,  // measure 51
0000
0000
0000
0000
,  // measure 52
0001
0000
0000
0000
,  // measure 53
0000
0000
0000
0000
,  // measure 54
1000
0000
0000
0000
,  // measure 55
0000
0000
0000
0000
,  // measure 56
0010
0000
0000
0000
,  // measure 57
0000
0000
0000
0000
,  // measure 58
0100
0000
0000
0000
,  // measure 59
0000
0000
0000
0000
,  // measure 60
0001
0000
0000
0000
,  // measure 61
0000
0000
0000
0000
,  // measure 62
1000
0000
0000
0000
,  // measure 63
0000
0000
0000
0000
,  // measure 64
0010
0000
0000
0000
,  // measure 65
0100
0000
0000
0000
,  // measure 66
0010
0000
0000
0000
,  // measure 67
1000
0000
0000
0001
0000
0000
1000
0000
,  // measure 68
0001
0000
0000
0000
;
