#TITLE:SeduccĂ­on;
#SUBTITLE:;
#ARTIST:Thalia;
#TITLETRANSLIT:Seduccion;
#SUBTITLETRANSLIT:;
#ARTISTTRANSLIT:;
#GENRE:;
#CREDIT:;
#BANNER:Seduccion.png;
#BACKGROUND:Seduccion-BG.png;
#LYRICSPATH:;
#CDTITLE:.CDTitlesSpyHunter29 Originals.png;
#MUSIC:Seduccion.mp3;
#OFFSET:-0.133405;
#SAMPLESTART:36.918003;
#SAMPLELENGTH:12.000000;
#SELECTABLE:YES;
#BPMS:0.000000=130.000000;
#STOPS:;
#DELAYS:;
#TIMESIGNATURES:0.000000=4=4
;
#BGCHANGES:;
#KEYSOUNDS:;
#ATTACKS:;

//---------------dance-single - BEGINNER----------------
#NOTES:
     dance-single:
     BEGINNER:
     Beginner:
     1:
     0.125,0.153,0.000,0.029,0.000: // measure 1
0000
0000
0000
0000
,  // measure 2
0000
0000
0000
0000
,  // measure 3
0000
0000
0000
0000
,  // measure 4
0000
0000
0000
0000
,  // measure 5
0001
0000
0000
0000
,  // measure 6
0001
0001
0001
0000
,  // measure 7
1000
0000
0000
0000
,  // measure 8
1000
1000
1000
0000
,  // measure 9
0001
0000
0000
0000
,  // measure 10
1000
1000
1000
0000
,  // measure 11
1000
0000
0000
0000
,  // measure 12
0001
0001
0001
0000
,  // measure 13
0010
0000
0010
0000
,  // measure 14
0100
0000
0100
0000
,  // measure 15
0010
0010
0010
0000
,  // measure 16
0100
0100
0100
0000
,  // measure 17
0001
0000
1000
0000
,  // measure 18
0001
0000
1000
0000
,  // measure 19
0010
0010
0010
0000
,  // measure 20
0100
0100
0100
0000
,  // measure 21
0010
0000
0010
0000
,  // measure 22
0100
0000
0100
0000
,  // measure 23
0001
0000
0001
0000
,  // measure 24
1000
0000
1000
0000
,  // measure 25
0001
0000
1000
0000
,  // measure 26
0010
0000
1000
0000
,  // measure 27
0001
0000
0100
0000
,  // measure 28
0001
0000
1000
0000
,  // measure 29
0100
0000
0100
0000
,  // measure 30
0010
0000
0010
0000
,  // measure 31
0001
0000
1000
0000
,  // measure 32
0001
0000
1000
0000
,  // measure 33
0010
0000
1000
0000
,  // measure 34
0010
0000
0100
0000
,  // measure 35
0001
0000
0100
0000
,  // measure 36
0010
0000
1000
0000
,  // measure 37
0100
0000
0000
0000
,  // measure 38
0100
0000
0010
0000
,  // measure 39
0100
0000
0000
0000
,  // measure 40
0010
0000
0100
0000
,  // measure 41
0010
0000
0000
0000
,  // measure 42
1000
0000
0001
0000
,  // measure 43
1000
0000
0000
0000
,  // measure 44
0001
0000
0000
0000
,  // measure 45
2000
0000
0000
0000
,  // measure 46
3000
0000
0000
0000
,  // measure 47
0000
0000
0000
0000
,  // measure 48
1000
1000
1000
0000
,  // measure 49
0002
0000
0000
0000
,  // measure 50
0003
0000
0000
0000
,  // measure 51
0001
0000
0000
0000
,  // measure 52
1000
0000
0001
0000
,  // measure 53
2000
0000
0000
0000
,  // measure 54
3000
0000
0000
0000
;

//---------------dance-single - BASIC----------------
#NOTES:
     dance-single:
     BASIC:
     Easy:
     2:
     0.198,0.211,0.000,0.211,0.000: // measure 1
0000
0000
0000
0000
,  // measure 2
0000
0000
0000
0000
,  // measure 3
0000
0000
0000
0000
,  // measure 4
0000
0000
0000
0000
,  // measure 5
1000
0001
1000
0000
,  // measure 6
0001
0100
0001
0000
,  // measure 7
1000
0000
2000
3000
,  // measure 8
0001
0000
0002
0003
,  // measure 9
0010
0001
0010
0000
,  // measure 10
0100
1000
0100
0000
,  // measure 11
0010
0000
0020
0030
,  // measure 12
0100
0000
0200
0300
,  // measure 13
0010
1000
0100
0000
,  // measure 14
0010
0001
0100
0000
,  // measure 15
1000
0000
0002
0003
,  // measure 16
0001
0000
2000
3000
,  // measure 17
0001
0100
0002
0003
,  // measure 18
1000
0010
2000
3000
,  // measure 19
0100
0000
0010
0000
,  // measure 20
0001
0000
0100
0000
,  // measure 21
0010
0100
0010
0000
,  // measure 22
1000
0001
1000
0000
,  // measure 23
0001
0000
0100
0000
,  // measure 24
1000
0001
0100
0000
,  // measure 25
0010
1000
0010
0000
,  // measure 26
0100
0001
0100
0000
,  // measure 27
0010
0000
0100
0000
,  // measure 28
0100
0000
0010
0000
,  // measure 29
1000
0010
1000
0000
,  // measure 30
0100
1000
0100
0000
,  // measure 31
0010
0000
0001
0000
,  // measure 32
0100
0010
1000
0000
,  // measure 33
0010
1000
0100
0000
,  // measure 34
0010
0001
0100
0000
,  // measure 35
0001
0000
1000
0002
,  // measure 36
0000
0000
0003
0000
,  // measure 37
1000
0000
0100
0000
,  // measure 38
1000
0000
0001
0100
,  // measure 39
0001
0000
0100
0000
,  // measure 40
0010
0000
1000
0001
,  // measure 41
1000
0000
0100
0000
,  // measure 42
0010
0000
0001
0000
,  // measure 43
0010
0010
0010
0010
,  // measure 44
0100
0100
0100
0100
,  // measure 45
0020
0030
2000
3000
,  // measure 46
0020
0030
0002
0003
,  // measure 47
0020
0000
0030
0000
,  // measure 48
0001
0000
1000
0000
,  // measure 49
0200
0300
2000
3000
,  // measure 50
0200
0300
0002
0003
,  // measure 51
0200
0000
0300
0000
,  // measure 52
0100
0100
0100
0100
,  // measure 53
0020
0000
0030
0000
,  // measure 54
0200
0000
0300
0000
,  // measure 55
0020
0000
0000
0000
,  // measure 56
0030
0000
0000
0000
;

//---------------dance-single - DIFFICULT----------------
#NOTES:
     dance-single:
     DIFFICULT:
     Medium:
     5:
     0.394,0.370,0.298,0.346,0.000: // measure 1
0000
0000
0000
0000
,  // measure 2
0000
0000
0000
0000
,  // measure 3
0000
0000
0000
0000
,  // measure 4
0000
0000
0000
0000
,  // measure 5
0010
0100
1000
0010
,  // measure 6
1000
0100
0001
0100
1000
0000
0001
0000
,  // measure 7
0100
0010
1000
0000
1010
0000
1000
0000
,  // measure 8
0100
0010
0001
0000
0011
0000
0001
0000
,  // measure 9
0010
0001
0100
0010
,  // measure 10
1000
0001
0100
0010
0100
0000
0001
0000
,  // measure 11
1000
0100
1000
0000
1010
0000
1000
0000
,  // measure 12
0001
0100
0001
0000
0011
0000
0001
0000
,  // measure 13
0002
0100
1003
0010
,  // measure 14
2000
0100
0002
3003
,  // measure 15
0010
0100
0010
0000
0002
0000
0103
0000
,  // measure 16
0010
0100
0010
0000
2000
0000
3100
0000
,  // measure 17
0002
0010
0200
0303
,  // measure 18
2000
0010
0200
3300
,  // measure 19
0010
0100
1000
0000
0200
0000
0310
0000
,  // measure 20
0001
0100
0010
0000
2000
0000
3100
0000
,  // measure 21
1100
1001
0011
0001
,  // measure 22
0101
0110
1010
1000
,  // measure 23
0010
1000
0000
0100
0001
0000
1000
0000
,  // measure 24
0100
0010
0001
0000
0010
0100
1000
0000
,  // measure 25
1001
0101
0110
1000
,  // measure 26
1001
0011
1100
1000
,  // measure 27
0001
0100
1000
0100
0002
0000
1003
0000
,  // measure 28
1000
0010
0001
0010
2000
0000
3001
0000
,  // measure 29
0101
0011
1001
1000
,  // measure 30
1100
1010
0110
1000
,  // measure 31
0100
1000
0000
0010
0001
0000
0100
0000
,  // measure 32
0010
0100
0010
0000
1000
0001
1000
0000
,  // measure 33
1010
1100
0110
1000
,  // measure 34
0101
0011
1001
0100
,  // measure 35
0010
0001
1000
0100
0020
0000
0031
0000
,  // measure 36
1000
0100
0010
0001
,  // measure 37
0200
0000
0300
0001
0200
0000
0300
0000
,  // measure 38
0020
0000
0030
1000
0010
0000
1010
0000
,  // measure 39
0200
0000
0300
0001
2000
0000
3000
0000
,  // measure 40
0200
0000
0300
0010
0001
0000
0110
0000
,  // measure 41
1000
0000
0001
0100
0001
0000
1000
0000
,  // measure 42
0010
0000
1000
0100
1000
0000
0001
0000
,  // measure 43
0010
0001
0100
0001
0010
0000
0001
0000
,  // measure 44
1000
0100
1000
0010
1000
0000
0100
0000
,  // measure 45
0002
0000
0100
0000
2000
0000
3000
0003
,  // measure 46
2000
0100
0002
3003
,  // measure 47
0220
0000
0330
0000
,  // measure 48
1000
0010
1000
0001
0010
0001
1000
0000
,  // measure 49
0002
0010
2000
3003
,  // measure 50
2000
0010
0002
3003
,  // measure 51
0010
0001
1000
0100
2000
0000
3001
0000
,  // measure 52
0100
0001
1000
0010
,  // measure 53
0200
0000
0020
0330
,  // measure 54
2000
0000
0002
3003
,  // measure 55
0200
0000
0000
0000
,  // measure 56
0300
0000
0000
0000
;

//---------------dance-single - EXPERT----------------
#NOTES:
     dance-single:
     EXPERT:
     Hard:
     6:
     0.445,0.423,0.202,0.308,0.000: // measure 1
0000
0000
0000
0000
,  // measure 2
0000
0000
0000
0000
,  // measure 3
0000
0000
0000
0000
,  // measure 4
0000
0000
0000
0000
,  // measure 5
0010
0001
0010
0001
,  // measure 6
1000
0100
1000
0100
0010
0000
0001
0000
,  // measure 7
0100
0010
0100
0010
2000
0000
3100
0000
,  // measure 8
0010
0100
0010
0100
0020
0000
0031
0000
,  // measure 9
0101
0010
1100
0010
,  // measure 10
0001
0100
0010
1000
0100
0000
0010
0000
,  // measure 11
0001
0100
0010
1000
0002
0000
0013
0000
,  // measure 12
0001
0010
0100
1000
0010
1000
0100
0000
,  // measure 13
0102
0000
1000
0000
0013
0000
1000
0100
,  // measure 14
2000
0001
3010
0100
,  // measure 15
0001
0100
1000
0100
0002
0000
1003
0000
,  // measure 16
0010
0100
0010
0100
0001
1000
0001
0000
,  // measure 17
1000
0000
1100
0000
0010
0000
0001
0010
,  // measure 18
0001
0000
0101
0000
0100
0000
1000
0001
,  // measure 19
1000
0100
0010
0001
0020
0000
0130
0000
,  // measure 20
1000
0001
0100
0010
0100
0001
1000
0000
,  // measure 21
1010
0000
0110
0000
0101
0000
0001
1000
,  // measure 22
0001
0100
0001
0000
1000
0000
0100
2000
,  // measure 23
0000
3100
0000
0010
0001
0000
1000
0100
,  // measure 24
0010
0001
0100
0001
0010
0001
0100
0000
,  // measure 25
1010
0000
1100
0000
0101
0000
0100
0001
,  // measure 26
0100
0010
0100
0000
0001
0000
1000
0000
,  // measure 27
0001
0100
0010
1000
0020
0000
0130
0010
,  // measure 28
1000
0100
0010
0001
0100
0100
0100
0000
,  // measure 29
1010
0000
0101
0000
1001
0000
0100
0010
,  // measure 30
1000
0100
0010
0000
1001
0000
0010
0002
,  // measure 31
0000
1003
0000
0001
0010
0000
0100
1000
,  // measure 32
0010
1000
0001
0100
0010
0100
0001
0000
,  // measure 33
0101
0000
0110
0000
1100
0000
1000
0100
,  // measure 34
0001
0100
1000
0000
0100
0000
0001
1000
,  // measure 35
0010
1000
0001
0010
0001
0000
0100
0000
,  // measure 36
0002
0203
0320
2030
,  // measure 37
3001
0000
1000
0100
1000
0000
0001
0100
,  // measure 38
0001
0000
1000
0100
0010
0000
0120
0000
,  // measure 39
0031
0000
0100
0010
1000
0000
0001
0010
,  // measure 40
0100
1000
0001
0010
0001
1000
0100
0010
,  // measure 41
1001
0000
0001
0010
0100
0000
1000
0010
,  // measure 42
0200
0000
0301
0100
0020
0000
0130
0001
,  // measure 43
1000
0010
0100
0001
1000
0000
0001
0010
,  // measure 44
0001
1000
0100
0010
0001
1000
0100
0000
,  // measure 45
2000
0100
0002
3003
,  // measure 46
0002
0100
2000
3003
,  // measure 47
0020
0000
0000
0030
,  // measure 48
0100
0001
0100
0010
1000
0010
0100
0000
,  // measure 49
2000
0010
0002
3003
,  // measure 50
0002
0100
2000
3003
,  // measure 51
0001
0010
0100
1000
0200
0000
0310
0000
,  // measure 52
0001
0001
1000
1000
0010
0010
0100
0100
,  // measure 53
1002
0000
2003
0000
,  // measure 54
3020
0000
0230
0000
,  // measure 55
0302
0000
0000
0000
,  // measure 56
0003
0000
0000
0000
;
