#TITLE:Rosa Helikopter;
#SUBTITLE:;
#ARTIST:Peaches;
#TITLETRANSLIT:;
#SUBTITLETRANSLIT:;
#ARTISTTRANSLIT:;
#CREDIT:;
#BANNER:sandstormar.png;
#BACKGROUND:sandstormar-bg.png;
#LYRICSPATH:;
#CDTITLE:;
#MUSIC:Rosa helikopter.ogg;
#OFFSET:0.076;
#SAMPLESTART:56.280;
#SAMPLELENGTH:12.000;
#SELECTABLE:YES;
#BPMS:0.000=151.610;
#STOPS:97.500=1.187
,159.000=0.792
;
#BGCHANGES:;

//---------------dance-single - Copied from----------------
#NOTES:
     dance-single:
     Copied from:
     Hard:
     10:
     0.703,0.952,0.220,0.527,0.383:
0000
0000
0000
0000
0000
0000
0000
0002
,
0000
0200
0000
0020
0000
2000
0000
0000
,
3333
0000
1000
0100
0010
0000
0001
0002
,
0000
0200
0000
0020
0000
0000
0333
0000
,
0000
0000
0010
0100
0001
0000
1000
0002
,
0000
0200
0000
0020
0000
1333
0000
0000
,
0000
0000
1000
0100
0010
0001
0010
0200
,
0000
1300
0000
2000
0000
0000
3100
0200
,
0000
0000
0310
0001
0010
0000
0001
1100
,
0000
0110
0000
0011
0000
2002
0000
0000
,
3003
0000
0001
0010
0200
0000
1300
0020
,
0000
2030
0000
3002
0000
0000
0000
0000
,
0000
0000
0000
0000
0103
0000
0010
0000
1000
0001
0100
0010
1000
0010
0100
0001
,
0100
0001
1000
0010
1000
0010
0100
0001
1000
0010
0100
0001
0100
0010
1000
0010
,
0100
0001
0100
0010
1000
0100
0010
0100
1000
0100
0010
0001
0100
0001
1000
0010
,
1000
0001
0100
0010
1000
0100
1000
0100
1000
0000
0000
0000
0100
0000
2000
0000
,
0000
0000
3001
0010
0100
0000
1000
0010
,
0100
0001
0100
0020
0000
0100
0000
1030
,
0100
1000
0010
0200
0000
0001
0000
0301
,
0010
0100
1000
0002
0000
0100
0000
0103
,
0010
1000
0010
0200
0000
0010
0000
0310
,
0100
0001
0010
0200
0000
1000
0000
1300
,
0010
1000
0010
2000
0000
0001
0000
3001
,
0010
0000
0100
0000
1000
0000
0010
0000
0000
0000
0100
0000
0001
0010
0001
0000
,
0010
0100
0010
0000
0100
1000
0100
0000
0000
0000
0000
0000
1001
0000
0000
0000
,
1000
0100
0010
0001
0010
0100
1000
0000
,
0010
0100
0001
0100
0010
1000
0000
0100
,
0010
0000
0001
0000
1000
0010
0100
0001
0010
0000
0000
0000
0000
0000
0000
0000
,
0000
0000
0000
0000
0100
1000
0010
0100
0010
0000
1000
0000
0000
0000
0000
0000
,
0001
0000
0010
0100
1000
0100
0020
0000
,
0031
0000
0012
0000
0013
0100
0100
0010
,
0001
0000
0100
0000
0010
1000
0001
0010
0100
0000
1000
0000
0010
0000
0100
0000
,
0001
0000
0100
0000
0010
1000
0010
0100
0001
0000
1000
0000
0010
0000
0100
0000
,
0001
1000
0010
0100
0001
1000
0002
0000
,
0013
0100
1000
0010
0100
0002
0000
0013
,
0100
0000
1000
0000
0001
1000
0010
0100
0001
0000
0100
0000
0010
0000
1000
0000
,
0001
0000
0100
0000
0001
0100
0010
1000
0100
0000
0010
0000
0001
0000
0010
0000
,
0001
1000
0010
1000
0001
1000
0010
1000
0001
1000
0010
0100
0001
1000
0001
0100
,
0001
0100
0010
1000
0010
0100
0001
0100
0010
1000
0100
0010
0100
1000
0010
1000
,
0001
0100
0010
1000
0010
0100
0001
0010
0001
1000
0001
0100
0001
0000
0000
0000
,
0010
0100
1000
0000
0001
0200
0000
0002
,
0000
0020
0000
1333
0000
0000
0000
0000
,
0001
0100
0020
0000
1030
0020
0000
0230
,
0000
0302
0000
0000
0000
0000
0000
0003
,
0001
0010
0200
0000
1300
0200
0000
0320
,
0000
0001
0000
0032
0000
0000
0000
0000
,
1003
0010
0100
0001
0100
0002
0000
2003
,
0000
3020
0000
0000
1030
0002
0000
0000
,
0013
0100
2000
3000
1001
0200
0000
0310
,
0110
0200
0000
0310
0110
0000
0000
0000
,
1100
1000
0100
0000
1000
0020
0000
0230
,
0000
0302
0000
0000
0000
0000
0000
0000
,
0013
0001
0010
0000
0100
2000
0000
3020
,
0000
0230
0000
0320
0000
0000
0000
0000
,
1030
0000
0100
0000
0010
0001
0010
0001
0010
0100
1000
0100
0010
0001
0100
0010
,
1000
0010
0100
0001
0100
0010
1000
0010
0100
0001
0010
0100
0010
0001
0100
0010
,
1000
0001
0010
0001
0010
0000
0000
0000
0100
0000
1000
0000
0010
0000
0100
0000
,
0001
0011
0000
0110
0000
1100
0100
0010
,
0001
0011
0000
0110
0000
1100
1000
0010
,
1000
0110
0000
0110
0000
0110
0100
0001
,
0010
0011
0000
0110
0000
1100
1000
0100
,
0010
0001
0000
0010
0000
0100
1000
0010
,
0100
0001
0000
0100
0000
0010
1000
0010
,
0100
0000
0001
0000
0000
0000
0010
0000
0100
0010
0100
0000
0010
0100
1000
0000
,
1000
0001
1001
0000
0000
0000
0000
0000
0000
0000
0000
0000
0000
0000
0000
0000
;

//---------------dance-single - ----------------
#NOTES:
     dance-single:
     :
     Medium:
     7:
     0.542,0.522,0.038,0.498,0.000: // measure 1
0000
0000
0000
0000
0000
0000
0000
2000
,  // measure 2
0000
3200
0000
0320
0000
0032
0000
0003
,  // measure 3
0000
0000
1000
0100
0010
0000
0100
2000
,  // measure 4
0000
3200
0000
0320
0000
0000
0030
0000
,  // measure 5
0000
0000
0001
0100
0010
0000
1000
0002
,  // measure 6
0000
0203
0000
0320
0000
1030
0000
0000
,  // measure 7
0000
0000
1000
0100
0010
0001
0010
0200
,  // measure 8
0000
1300
0000
2000
0000
0000
3100
0200
,  // measure 9
0000
0000
0310
0001
0010
0000
0001
1000
,  // measure 10
0000
0100
0000
1000
0000
2002
0000
0000
,  // measure 11
3003
0000
0001
0010
0200
0000
1300
0020
,  // measure 12
0000
2030
0000
3002
0000
0000
0000
0000
,  // measure 13
0000
0000
0103
0010
1000
0100
1000
0100
,  // measure 14
0010
0001
0100
0001
0100
0010
1000
0010
,  // measure 15
0100
0001
0010
0100
1000
0001
0010
0100
,  // measure 16
0010
0001
1000
0100
1000
0000
0100
2000
,  // measure 17
0000
0000
3001
0010
0100
0000
1000
0010
,  // measure 18
0100
0001
0100
0010
0000
1000
0000
1000
,  // measure 19
0100
1000
0010
0100
0000
0001
0000
0001
,  // measure 20
0010
0100
1000
0001
0000
0100
0000
0100
,  // measure 21
0010
1000
0010
0100
0000
0010
0000
0010
,  // measure 22
0100
0001
0010
0001
0000
1000
0000
1000
,  // measure 23
0010
1000
0010
1000
0000
0001
0000
0001
,  // measure 24
0010
0100
1000
0001
0000
1000
0010
1000
,  // measure 25
0010
0010
0100
0001
0000
0000
1001
0000
,  // measure 26
1000
0010
0100
0001
0100
0001
1000
0000
,  // measure 27
0010
0100
0001
0100
0010
1000
0000
0100
,  // measure 28
0010
0001
1000
0100
0001
0000
0000
0000
,  // measure 29
0000
0000
0001
0100
1000
0010
0000
0000
,  // measure 30
0001
0000
0010
0100
1000
0100
2000
0000
,  // measure 31
3010
2010
3010
0100
,  // measure 32
0001
0000
1000
0100
0001
0000
0100
0000
,  // measure 33
1000
0000
0001
0100
1000
0100
0001
0010
,  // measure 34
0001
1000
0010
0100
0001
1000
0002
0000
,  // measure 35
0013
0100
1000
0001
0010
0200
0000
1300
,  // measure 36
0100
1000
0001
0100
1000
0000
0000
0000
,  // measure 37
0000
0000
1000
0100
0001
0000
0000
0000
,  // measure 38
1000
0010
1000
0100
0010
0001
0010
0100
,  // measure 39
1000
0010
0100
0001
0100
0010
1000
0010
,  // measure 40
0100
0001
0010
0100
1000
0001
0001
0000
,  // measure 41
0010
0100
1000
0000
0001
0200
0000
0302
,  // measure 42
0000
0023
0000
0130
0000
0000
0000
0000
,  // measure 43
1000
0100
0020
0000
0031
0020
0000
0230
,  // measure 44
0000
2300
0000
0000
0000
0000
0000
0000
,  // measure 45
3001
0010
0200
0000
1300
0200
0000
0320
,  // measure 46
0000
0001
0000
0032
0000
0000
0000
0000
,  // measure 47
1003
0010
0100
0001
0100
0002
0000
2003
,  // measure 48
0000
3200
0000
0000
0310
0002
0000
0000
,  // measure 49
0013
0100
0200
0000
0310
0002
0000
0203
,  // measure 50
0000
0320
0000
2030
0000
3000
0000
0000
,  // measure 51
0100
0010
0002
0000
0013
0020
0000
0230
,  // measure 52
0000
2300
0000
0000
0000
0000
0000
0000
,  // measure 53
3010
0010
0100
0000
0001
0200
0000
0302
,  // measure 54
0000
2003
0000
3020
0000
0030
0000
0000
,  // measure 55
1000
0100
0010
0001
0010
1000
0010
0100
,  // measure 56
1000
0001
0100
1000
0100
0010
1000
0100
,  // measure 57
0010
0010
0001
0000
0100
0010
1000
0010
,  // measure 58
0100
0001
0000
1000
0000
0100
0010
0001
,  // measure 59
0010
0100
0000
1000
0000
0100
0010
0001
,  // measure 60
1000
0010
0000
0100
0000
0001
0010
0100
,  // measure 61
1000
0010
0000
0100
0000
0001
0010
0100
,  // measure 62
0010
0100
0000
0010
0000
0001
1000
0010
,  // measure 63
0100
0001
0000
0100
0000
0010
1000
0010
,  // measure 64
0100
0001
0000
1000
0100
0010
0001
0001
,  // measure 65
1000
1001
0000
0000
0000
0000
0000
0000
;

//---------------dance-single - ----------------
#NOTES:
     dance-single:
     :
     Easy:
     4:
     0.276,0.276,0.029,0.038,0.000:
0000
0000
0000
0000
0000
0000
0000
1000
,
0000
0100
0000
0010
0000
0002
0000
0000
,
0000
0000
0013
0000
0100
0000
0000
1000
,
0000
0010
0000
0100
0000
0000
0000
0000
,
0000
0000
0001
0000
0010
0000
0000
0100
,
0000
1000
0000
0010
0000
0200
0000
0000
,
0000
0000
0301
0000
0010
0000
0000
0100
,
0000
0100
0000
2000
0000
0000
0000
3020
,
0000
0000
0000
0000
0000
0000
0000
0130
,
0000
0001
0000
1000
0000
0010
0000
0000
,
0000
0000
0100
0000
0001
0000
0000
0001
,
0000
0010
0000
0100
0000
0000
0000
0000
,
0000
1000
0100
0010
,
0001
0010
0100
1000
,
0010
0100
0001
0010
,
0100
1000
1100
0000
,
0000
0000
0001
0010
,
0100
0000
0000
0100
0000
1000
0000
0000
,
0010
0000
0000
0100
0000
0001
0000
0000
,
0100
0000
0000
0010
0000
1000
0000
0000
,
0010
0000
0000
0100
0000
0001
0000
0000
,
1000
0000
0000
0010
0000
0100
0000
0000
,
0001
0000
0000
1000
0000
0001
0000
0000
,
0010
0000
0000
0100
0000
0000
1000
0000
,
0100
0010
0000
0001
,
0010
0100
1000
0010
,
0100
0001
0010
0100
,
1000
0100
0010
0001
,
0010
0001
0100
0010
,
1000
0010
0100
0001
,
0010
0100
1000
0010
,
0100
0001
0100
0000
,
0000
0010
1000
0000
,
0100
1000
0010
0100
,
0001
0010
0100
1000
,
0010
0100
0001
0000
,
0000
0100
0001
0010
,
0100
1000
0001
0010
,
0100
1000
0010
0100
,
0001
0010
0001
0011
,
0000
0000
1000
0000
0000
0100
0000
0100
,
0000
0100
0000
0100
0000
0000
0000
0000
,
0010
0000
0001
0000
0000
0100
0000
0100
,
0000
0100
0000
0000
0000
0000
0000
0000
,
0010
0000
1000
0000
0000
0100
0000
0100
,
0000
0100
0000
0100
0000
0000
0000
0000
,
0010
0000
0001
0000
0000
0010
0000
0010
,
0000
0010
0000
0000
0000
0100
0000
0000
,
1000
0000
0010
0000
0000
0100
0000
0100
,
0000
0100
0000
0100
0000
0000
0000
0000
,
0001
0000
0010
0000
0000
0100
0000
0100
,
0000
0100
0000
0000
0000
0000
0000
0000
,
1000
0000
0100
0000
0000
0010
0000
0010
,
0000
0010
0000
0010
0000
0000
0000
0000
,
0001
0000
0100
0000
0000
0010
0000
0010
,
0000
0010
0000
0000
0000
1000
0000
0000
,
0000
0001
0010
0100
,
0000
1000
0000
1000
0000
0000
0010
0000
,
0000
0100
0000
0100
0000
0000
0001
0000
,
0000
0010
0000
0010
0000
0000
0100
0000
,
0000
1000
0000
1000
0000
0000
0010
0000
,
0000
0100
0000
0100
0000
0000
0001
0000
,
0000
0010
0000
0010
0000
0000
0100
0000
,
0000
1000
0000
0000
1000
0000
0001
0000
,
1001
0000
0000
0000
;
