#TITLE:Komplikasi (Cape Deh);
#SUBTITLE:;
#ARTIST:Project Pop;
#TITLETRANSLIT:;
#SUBTITLETRANSLIT:;
#ARTISTTRANSLIT:;
#CREDIT:348;
#BANNER:Komplikasi (Cape Deh) Banner.png;
#BACKGROUND:Komplikasi (Cape Deh) Background.png;
#LYRICSPATH:;
#CDTITLE:;
#MUSIC:Komplikasi (Cape Deh).mp3;
#OFFSET:-1.959;
#SAMPLESTART:21.100;
#SAMPLELENGTH:15.000;
#SELECTABLE:YES;
#BPMS:0.000=100.000,48.000=200.000;
#STOPS:;
#BGCHANGES:;

//---------------dance-single - ----------------
#NOTES:
     dance-single:
     :
     Beginner:
     1:
     0.097,0.236,0.009,0.000,0.000:
0000
0000
0000
0000
,
0000
0000
0000
0000
,
0000
0000
0000
0000
,
0000
0000
0000
0000
,
1000
0000
0000
0000
,
1000
0000
0000
0000
,
0001
0000
0000
0000
,
0001
0000
0000
0000
,
0100
0000
0100
0100
,
0010
0000
0010
0010
,
0100
0000
0010
0000
,
0100
0000
0010
0000
,
1000
0000
0000
0000
,
0000
0000
0000
0000
,
1000
0000
0000
0000
,
0000
0000
0000
0000
,
0100
0000
0000
0000
,
0000
0000
0000
0000
,
0100
0000
0000
0000
,
0000
0000
0000
0000
,
0010
0000
0000
0000
,
0000
0000
0000
0000
,
0010
0000
0000
0000
,
0000
0000
0000
0000
,
0001
0000
0000
0000
,
0000
0000
0000
0000
,
0001
0000
0000
0000
,
0000
0000
0000
0000
,
1000
0000
0000
0000
,
1000
0000
0000
0000
,
0001
0000
0000
0000
,
0001
0000
0000
0000
,
0100
0000
0000
0000
,
0100
0000
0000
0000
,
0010
0000
0000
0000
,
0010
0000
0000
0000
,
0000
1000
0000
0001
,
0000
0000
0000
0000
,
0000
0001
0000
1000
,
0000
0000
0000
0000
,
0000
0010
0000
0100
,
0000
0000
0000
0000
,
0000
0100
0000
0010
,
0000
0000
0000
0000
,
1000
0000
0000
0000
,
0001
0000
0000
0000
,
0001
0000
0000
0000
,
1000
0000
0000
0000
,
0010
0000
0000
0000
,
0100
0000
0000
0000
,
0100
0000
0000
0000
,
0010
0000
0000
0000
,
1000
0000
0000
0000
,
0100
0000
1000
0000
,
0001
0000
0000
0000
,
0010
0000
0001
0000
,
0001
0000
0000
0000
,
1000
0000
0010
0000
,
1000
0000
0000
0000
,
0001
0000
0000
0000
,
0100
0000
0000
0000
,
0001
0000
0001
0000
,
1000
0000
0000
0000
,
0010
0000
0010
0000
,
1000
0000
0000
0000
,
0001
0000
0000
0000
,
0100
0000
0000
0000
,
0010
0000
0000
0000
,
1000
0000
1000
0000
,
0000
0000
0000
0000
,
0001
0000
0001
0000
,
0000
0000
0000
0000
,
0100
0000
0000
0000
,
0010
0000
0000
0000
,
0100
0000
0000
0000
,
0010
0000
0000
0000
,
1001
0000
0000
0000
;

//---------------dance-single - ----------------
#NOTES:
     dance-single:
     :
     Easy:
     4:
     0.248,0.303,0.142,0.204,0.000:
0000
0000
0000
0000
,
0000
0000
0000
0000
,
0000
0000
0000
0000
,
0000
0000
0000
0000
,
1000
0000
0100
0000
,
1000
0000
0100
0000
,
0010
0000
0001
0000
,
0010
0000
0001
0000
,
1000
0000
0001
0001
,
0100
0000
0010
0010
,
1000
0000
0100
0100
,
0020
0000
0031
0000
,
2000
0000
3001
0000
,
1000
0000
0000
0000
,
0002
0000
1003
0000
,
0001
0000
0000
0000
,
0200
0000
0310
0000
,
0100
0000
0000
0000
,
0001
0000
1000
0000
,
1001
0000
0000
0000
,
1000
0000
0001
0100
,
0001
0000
1100
0000
,
0001
0000
0100
0010
,
0100
0000
1010
0000
,
0100
0000
0001
1000
,
0010
0000
0110
0000
,
0100
0000
0010
0000
,
0220
0000
0330
0000
,
0000
1000
0000
1000
,
0000
0001
0000
0001
,
0000
1000
0000
1000
,
0000
0001
0000
0001
,
0000
0100
0000
0100
,
0000
0010
0000
0010
,
0000
0100
0000
0100
,
0000
0010
0000
0010
,
0000
1000
0000
0010
,
0000
0010
0000
0100
,
0000
0100
0000
0001
,
0000
0001
0000
1000
,
0000
0001
0000
1000
,
0000
1000
0000
0001
,
0000
0100
0000
0010
,
0000
0010
0000
0100
,
0002
0000
0103
0000
,
0020
0000
1030
0000
,
0001
1000
0100
0000
,
1000
0000
0101
0000
,
0020
0000
1030
0100
,
0010
0000
1001
0000
,
0100
0001
1000
0010
,
2000
0000
0000
3001
,
2000
0000
3000
0010
,
0200
0000
0300
0100
,
0020
0000
0030
1000
,
0002
0000
0003
1000
,
0001
1000
0000
0010
,
0100
0010
0000
1000
,
0011
0000
1100
0000
,
2002
0000
3003
0000
,
0001
0000
0010
0100
,
2000
0000
3001
0000
,
1000
0000
0100
0010
,
0002
0000
1003
0000
,
1010
0000
0101
0000
,
1000
0001
0100
0000
,
0010
1000
0001
0000
,
0200
0000
0310
0000
,
0001
0000
0010
0000
,
0011
0000
1000
0100
,
1000
0000
0100
0000
,
1100
0000
0001
0100
,
0010
0000
1000
0000
,
0110
0000
1001
0000
,
0200
0000
0302
0000
,
2003
0000
3020
0000
,
0130
0000
0000
0000
;

//---------------dance-single - ----------------
#NOTES:
     dance-single:
     :
     Medium:
     5:
     0.340,0.404,0.195,0.213,0.000: // measure 1
0000
0000
0000
0000
,  // measure 2
0000
0000
0000
0000
,  // measure 3
0000
0000
0000
0000
,  // measure 4
0000
0000
0000
0000
,  // measure 5
1000
0001
2000
3010
,  // measure 6
0010
0100
0020
0130
,  // measure 7
0100
0001
0100
0011
,  // measure 8
1000
0001
1001
0000
,  // measure 9
0100
0000
0001
0010
0001
0000
0100
0000
,  // measure 10
0010
0000
1000
0001
1000
0000
0010
0000
,  // measure 11
1000
0000
0010
0100
0010
0000
1000
0000
,  // measure 12
0001
0000
1000
0100
1000
0000
0001
0000
,  // measure 13
1100
0000
0001
0100
,  // measure 14
1000
0100
0001
0000
,  // measure 15
0101
0000
1000
0100
,  // measure 16
0001
0100
1000
0000
,  // measure 17
0110
0000
1001
0000
,  // measure 18
0100
0001
1000
0001
,  // measure 19
0200
0000
0302
0000
,  // measure 20
2000
0000
3003
0000
,  // measure 21
0101
0000
0011
0000
,  // measure 22
1000
0001
0010
0000
,  // measure 23
1100
0000
1010
0000
,  // measure 24
0001
1000
0010
0000
,  // measure 25
0100
0000
0001
0100
,  // measure 26
1000
0010
0001
0000
,  // measure 27
2000
0000
3020
0000
,  // measure 28
0200
0000
0330
0000
,  // measure 29
0000
0002
0000
1003
,  // measure 30
0000
1000
0100
0010
,  // measure 31
0000
0020
0000
0130
,  // measure 32
0000
0100
0010
0001
,  // measure 33
0000
2000
0000
3001
,  // measure 34
0000
0001
0100
0010
,  // measure 35
0000
0200
0000
0310
,  // measure 36
0000
0100
0010
1000
,  // measure 37
0000
0000
0001
0010
0001
0000
1000
0000
,  // measure 38
0000
0000
0001
0010
0001
0000
0100
0000
,  // measure 39
0000
0002
0000
0103
,  // measure 40
0000
2000
0000
3010
,  // measure 41
0000
0000
0100
0010
0100
0000
0001
0000
,  // measure 42
0000
0000
0100
0010
0100
0000
0010
0000
,  // measure 43
0000
0200
0000
0301
,  // measure 44
0000
0020
0000
1030
,  // measure 45
1000
0000
0000
0000
0100
0000
0000
1000
,  // measure 46
0001
0010
0001
0000
,  // measure 47
0010
0000
0000
0000
1000
0000
0000
0010
,  // measure 48
0001
1000
0100
0000
,  // measure 49
1000
0100
0010
0100
,  // measure 50
1000
0000
0000
0001
0000
0000
0100
0000
,  // measure 51
0010
0000
0000
1000
0000
0000
0001
0000
,  // measure 52
1000
0010
0100
0000
,  // measure 53
0001
0001
0001
0001
,  // measure 54
1000
0000
0000
0100
0000
0000
1100
0000
,  // measure 55
0010
0010
0010
0010
,  // measure 56
0100
0000
0000
0001
0000
0000
0101
0000
,  // measure 57
1000
0010
0001
0010
,  // measure 58
1000
0000
0000
0001
0100
0000
0010
0000
,  // measure 59
2000
3001
0002
1003
,  // measure 60
1000
0001
1001
0000
,  // measure 61
0100
0000
0001
0001
,  // measure 62
1100
0000
1001
0000
,  // measure 63
0010
0000
1000
1000
,  // measure 64
0011
0000
1001
0000
,  // measure 65
0100
0010
0010
1000
,  // measure 66
0002
0000
0000
2003
0000
0000
3010
0000
,  // measure 67
0110
0000
1001
0000
,  // measure 68
0220
0000
0330
0000
,  // measure 69
0001
0000
0000
0100
0001
0000
0000
1000
,  // measure 70
0010
1000
0001
0000
,  // measure 71
0100
0000
0000
0001
0010
0000
0000
0100
,  // measure 72
1000
0010
0100
0000
,  // measure 73
0002
0103
0200
0310
,  // measure 74
0010
0000
0000
1001
0000
0000
0100
0000
,  // measure 75
0001
0010
0100
1000
,  // measure 76
0001
0000
0000
0100
0010
0000
1000
0000
,  // measure 77
1001
0000
0000
0000
;

//---------------dance-single - ----------------
#NOTES:
     dance-single:
     :
     Hard:
     7:
     0.459,0.505,0.204,0.363,0.018: // measure 1
0000
0000
0000
0000
,  // measure 2
0000
0000
0000
0000
,  // measure 3
0000
0000
0000
0000
,  // measure 4
0000
0000
0000
0000
,  // measure 5
1000
0100
0020
0000
1030
0000
0011
0000
,  // measure 6
0001
0100
0010
0100
0001
0000
1010
0000
,  // measure 7
0001
0000
0100
0100
0100
0000
0010
1000
,  // measure 8
0010
1000
1001
0001
,  // measure 9
1000
0000
0010
0100
2000
0000
3100
0000
,  // measure 10
0001
0000
0100
0010
0020
0000
1030
0000
,  // measure 11
0001
0000
0100
1000
0010
0000
0001
0000
,  // measure 12
1010
0000
0101
0000
2002
0000
3003
0100
,  // measure 13
0100
0000
0001
1000
0001
0000
0100
0000
,  // measure 14
0012
0000
1003
0000
,  // measure 15
0001
0000
0100
0010
0100
0000
0001
0000
,  // measure 16
0210
0000
0301
0000
,  // measure 17
1000
0000
0001
0010
0001
0000
0010
0000
,  // measure 18
1002
0000
0103
0000
,  // measure 19
0110
0000
0000
0001
0100
0000
0000
0010
,  // measure 20
1000
0001
2002
3003
,  // measure 21
0100
0000
0010
0000
1000
0100
0010
0000
,  // measure 22
0100
2000
0002
3003
,  // measure 23
0100
0000
0001
0000
0010
0100
0010
0000
,  // measure 24
0001
0020
0200
0330
,  // measure 25
1000
0000
0100
0000
0001
0000
0100
1000
,  // measure 26
0100
0020
0031
1000
,  // measure 27
0001
0100
0010
1000
,  // measure 28
0200
0000
0000
1300
0001
0000
0100
0000
,  // measure 29
0020
1030
0100
2000
,  // measure 30
0000
3001
0010
0002
,  // measure 31
0000
0103
0001
1000
,  // measure 32
0001
0100
0010
0200
,  // measure 33
0000
0310
1000
0020
,  // measure 34
0000
0130
0001
0200
,  // measure 35
0000
0301
1000
0010
,  // measure 36
1000
0001
1000
0001
,  // measure 37
0100
0000
0010
1000
0010
0000
0100
0000
,  // measure 38
0010
0000
0100
0001
0100
0000
0010
0000
,  // measure 39
1000
0000
0001
0100
0010
0000
1000
0010
,  // measure 40
0100
0001
1000
0001
,  // measure 41
1000
0000
0001
0010
0001
0000
1000
0000
,  // measure 42
0001
0000
1000
0100
1000
0000
0001
0000
,  // measure 43
0100
0000
0001
0010
0100
0000
1000
0100
,  // measure 44
0010
0002
1000
1003
,  // measure 45
1000
0000
0001
0000
0001
0000
0010
0001
,  // measure 46
0010
0100
2200
3300
,  // measure 47
0010
0000
0100
0000
0001
0000
1000
0100
,  // measure 48
1000
0001
0202
0303
,  // measure 49
1000
0110
0001
0110
,  // measure 50
2000
0000
0000
3001
0010
0000
0001
0000
,  // measure 51
0100
0000
0001
0010
1000
0000
0010
0000
,  // measure 52
0002
0000
2003
3010
,  // measure 53
1000
0000
0000
0010
1000
0000
0000
0001
,  // measure 54
0100
0001
1100
0001
,  // measure 55
0100
0000
0000
0001
0100
0000
0000
0010
,  // measure 56
1000
0010
1001
0100
,  // measure 57
0001
0000
0000
1000
0001
0000
0000
0010
,  // measure 58
0100
1000
0011
0100
,  // measure 59
0001
0000
1000
0001
1000
0000
0001
0000
,  // measure 60
0200
0000
0320
0230
,  // measure 61
0000
0000
0301
1000
0010
0000
2000
0000
,  // measure 62
0000
0000
3010
1000
0001
0000
0020
0000
,  // measure 63
0000
0000
0130
1000
0001
0000
1000
0000
,  // measure 64
0010
0100
2002
3003
,  // measure 65
0100
0001
0010
1000
,  // measure 66
0010
0000
0001
0000
0100
0010
0100
0000
,  // measure 67
0001
0000
1000
0010
0100
0000
0100
0001
,  // measure 68
0010
0001
0220
0330
,  // measure 69
1000
0000
0001
0000
1000
0000
0010
1000
,  // measure 70
0010
0100
1010
0000
,  // measure 71
0100
0000
0001
0000
1000
0000
0010
0100
,  // measure 72
0010
1000
0101
0000
,  // measure 73
0001
0000
1000
0000
0001
0000
2000
0000
0000
3000
0000
0000
,  // measure 74
0010
0000
0100
0000
0010
0000
0200
0000
0000
0300
0000
0000
,  // measure 75
0001
0010
0100
1000
,  // measure 76
0100
0000
0010
0001
0010
0000
0100
0000
,  // measure 77
1001
0000
0000
0000
;

//---------------dance-single - ----------------
#NOTES:
     dance-single:
     :
     Challenge:
     9:
     0.634,0.842,0.496,0.390,0.106: // measure 1
0000
0000
0000
0000
,  // measure 2
0000
0000
0000
0000
,  // measure 3
0000
0000
0000
0000
,  // measure 4
0000
0000
0000
0000
0000
0000
0000
0001
,  // measure 5
1000
0000
0100
0000
0010
0000
0100
0000
1000
0000
0001
0010
0001
0000
0100
0000
,  // measure 6
0010
0000
0100
0000
0001
0000
1000
0000
0001
0000
1000
0100
0001
0100
1000
0000
,  // measure 7
0002
0000
0010
0000
0013
0000
0001
0000
2000
0000
3001
0100
0001
0000
0100
0000
,  // measure 8
0001
1100
1000
0011
1000
1001
0110
1001
,  // measure 9
0010
0000
0001
1000
0001
0000
0010
0001
0010
0000
0002
0000
1000
0000
1000
0000
,  // measure 10
1003
0000
0010
0100
0010
0000
0100
0001
0100
0000
0010
1000
0001
1000
0010
0000
,  // measure 11
1000
0000
0001
0010
0100
0000
1000
0000
0001
0100
0010
0000
1000
0000
0001
0000
,  // measure 12
0100
0000
0001
0010
0001
0000
1000
0000
0022
0000
0033
0000
1100
0000
0001
0010
,  // measure 13
0001
0000
1000
0100
1000
0000
0001
1000
,  // measure 14
0001
0000
0100
0010
0100
0000
1001
0000
,  // measure 15
0110
0000
0100
0001
0100
0000
0010
1000
,  // measure 16
0010
1100
0011
1001
,  // measure 17
0110
0000
0001
0100
1000
0000
1000
0100
,  // measure 18
0001
0000
1000
0100
0001
0100
1000
0000
,  // measure 19
0102
0013
2010
3100
,  // measure 20
1002
0100
2000
3003
,  // measure 21
0010
0000
0001
0010
0100
1000
0001
0000
,  // measure 22
1100
1010
2200
3300
,  // measure 23
0001
0000
0100
0001
1000
0010
0100
0000
,  // measure 24
0011
0101
0022
0033
,  // measure 25
1000
0000
0010
0100
0010
0000
0100
0000
,  // measure 26
0001
1000
0010
0100
0001
0000
0110
0000
,  // measure 27
1020
0130
0210
0301
,  // measure 28
0120
0000
0000
0100
0000
0000
1030
0000
,  // measure 29
0001
0000
0100
0001
2000
0000
3010
0000
,  // measure 30
0100
0000
0010
0100
2000
0000
3100
0000
,  // measure 31
0001
0000
1000
0100
0001
0000
0001
0100
,  // measure 32
1000
0011
0101
0110
,  // measure 33
0001
0000
0001
0010
0200
0000
0310
0000
,  // measure 34
0100
0000
0001
0100
2000
0000
0100
0000
,  // measure 35
3001
0000
0100
0010
0002
0000
0013
0100
,  // measure 36
0001
0110
1010
1100
,  // measure 37
0001
0000
0100
0001
1000
0001
0100
0000
,  // measure 38
0010
0000
1000
0100
0001
0100
1000
0000
,  // measure 39
0100
0000
0010
0001
1000
0100
1000
0000
,  // measure 40
0001
0011
1000
1100
,  // measure 41
1000
0000
0001
0010
1000
0010
0001
0000
,  // measure 42
0100
0000
0001
0010
0100
0010
0001
0000
,  // measure 43
1000
0000
0010
0100
0001
0100
0010
0000
,  // measure 44
0100
0101
0010
1010
,  // measure 45
0002
0000
0000
0200
0000
0300
2003
0000
,  // measure 46
3010
0100
0020
0000
0200
0000
0330
0000
,  // measure 47
2000
0000
0000
0200
0000
0300
3020
0000
,  // measure 48
0130
0001
2000
0000
0002
0000
3003
0000
,  // measure 49
0010
0001
0100
1000
,  // measure 50
0010
0001
0010
1000
0010
0000
0110
0000
,  // measure 51
1000
1001
0010
0110
,  // measure 52
1000
0001
0000
0100
0010
0000
1000
0100
,  // measure 53
0001
0000
1000
0010
0001
0000
1000
0001
,  // measure 54
1000
0000
0011
0000
1100
0000
0001
0010
,  // measure 55
0100
0000
0010
0100
1000
0000
0010
0100
,  // measure 56
0010
0000
1100
0000
0011
0000
1000
0001
,  // measure 57
0100
0000
0001
1000
0010
0000
0100
0010
,  // measure 58
0100
1001
0110
2000
,  // measure 59
3002
0203
0320
2030
,  // measure 60
3001
0010
0000
0100
1000
0000
1001
0000
,  // measure 61
0100
0000
0001
1000
0100
1000
0001
0000
,  // measure 62
1000
0000
0010
1000
0010
0100
0001
0000
,  // measure 63
0010
0000
0100
1000
0001
1000
0010
0000
,  // measure 64
1000
0001
0100
0000
0010
0000
1001
0000
,  // measure 65
0100
0000
0010
0100
0001
1000
0100
0000
,  // measure 66
1010
1001
0011
1001
,  // measure 67
0200
0302
2003
3020
,  // measure 68
1030
0001
0000
0100
0010
0000
1001
0000
,  // measure 69
0100
0000
0001
0010
1000
0010
0001
0000
,  // measure 70
1000
0100
1000
0000
0001
0000
0011
0000
,  // measure 71
1000
0000
1000
0100
0001
0100
1000
0000
,  // measure 72
0010
0000
0000
0100
0000
0000
0010
0000
0000
0000
0000
0000
2000
0000
0000
0000
0100
0000
0000
0000
3010
0000
0000
0000
,  // measure 73
0002
0000
1000
0000
0103
0000
0020
0000
0100
0000
0031
0000
,  // measure 74
0200
0000
0001
0000
1300
0000
0001
0000
1000
0000
0010
0000
,  // measure 75
1000
1100
0011
0001
,  // measure 76
1000
0010
0001
0010
1000
0000
0001
0000
,  // measure 77
0110
0000
0000
0000
;
