#TITLE:Jai Ho;
#SUBTITLE:;
#ARTIST:A.R. Rahman, Sukhvinder Singh, Tanvi Shah & Mahalaxmi Iyer;
#TITLETRANSLIT:;
#SUBTITLETRANSLIT:;
#ARTISTTRANSLIT:;
#GENRE:;
#CREDIT:Telperion;
#BANNER:;
#BACKGROUND:;
#LYRICSPATH:;
#CDTITLE:;
#MUSIC:Jai Ho.ogg;
#OFFSET:-0.049;
#SAMPLESTART:48.645;
#SAMPLELENGTH:13.577;
#SELECTABLE:YES;
#DISPLAYBPM:137.000:138.000;
#BPMS:0.000=137.000,32.000=137.784,39.000=137.000;
#STOPS:;
#BGCHANGES:;
#KEYSOUNDS:;

//---------------dance-single - Telperion----------------
#NOTES:
     dance-single:
     Telperion:
     Hard:
     8:
     0.476,0.451,0.240,0.098,0.060:
0000
0000
0000
0000
,
0000
0000
0000
0000
,
0000
0000
0000
0000
,
0000
0000
0000
0000
,
0100
0000
0001
1000
0100
0000
1000
0001
,
0100
0000
0001
0100
1000
0000
1000
0100
,
0001
1000
0100
1000
0100
0010
0001
0010
,
0001
0100
0010
1000
0100
0010
0011
0000
,
2200
0000
0000
0000
,
0000
0000
3300
1100
,
1001
0000
0000
1000
0001
0000
0100
0000
0001
0000
0000
0000
0001
0000
1000
0000
,
1001
0000
0000
1000
0001
0000
0100
0000
0001
0000
0000
0000
0001
0000
1000
0000
,
1001
0000
0000
0001
1000
0000
0100
0000
0010
0000
0000
0000
0010
0000
0100
0000
,
1100
0000
0000
0001
1000
0000
0100
0000
0010
0000
0000
0000
0110
0000
0000
0000
,
1100
0000
0000
1000
0001
0000
0100
0000
0010
0000
0000
0000
0010
0000
0100
0000
,
0001
0100
0000
0100
0010
0000
1000
0000
0010
0000
0100
0000
0010
0000
0000
0000
,
1000
0100
1000
0100
0001
0100
0001
0100
,
1000
0100
0010
0001
0100
0000
0000
0100
,
0001
0100
0001
0100
1000
0100
1000
0100
,
0010
1000
0100
0010
0001
1000
1100
0000
,
0011
0000
0000
0000
0001
0000
1000
0001
,
0100
0000
0000
0100
0010
0000
0100
0000
0001
0000
0000
0000
0101
0000
0000
0000
,
1010
0000
0100
0010
0010
0100
0001
0100
,
0010
0000
0100
0000
1000
0100
0002
0000
,
1003
0100
1000
0100
0001
0100
0001
0100
,
1000
0100
0010
0001
0100
0000
0010
0100
,
0001
1000
0010
0100
0001
0010
0001
0100
,
0010
1000
0100
0010
0001
1000
1010
0000
,
0101
0000
0000
0000
0001
1000
1000
0100
,
1000
0001
0000
1000
0001
0100
0101
0000
,
1010
0010
0000
1000
0010
1000
1000
0001
,
0010
0001
0000
1000
0010
1000
0001
0000
,
1000
0000
0000
1000
0000
1000
0001
0000
,
1000
0000
0000
0001
0000
1000
0001
0000
,
0100
0000
0000
0010
0000
0100
0010
0000
,
0010
0100
0000
0001
0000
0100
0010
1000
,
0100
0010
0000
0000
0100
0000
1000
0000
,
0010
0100
0000
0000
0010
0000
1000
0100
,
0002
0000
0000
0000
,
0103
1000
0100
0010
,
0001
0100
0010
0100
1000
0100
0010
1000
,
0100
1000
1001
0000
,
1000
0100
0010
0100
0001
0100
0010
0001
,
0100
0010
0110
0000
,
0010
1000
0001
0100
0010
0100
0001
1000
,
0100
0010
0001
0010
0100
0000
0100
0000
,
0020
0230
2300
3020
,
0130
0000
1000
0100
0001
0100
0010
0000
,
1000
0000
0000
0001
0000
0000
1000
0000
0001
0000
0000
0000
0001
0000
0000
0000
,
1000
0000
0000
0001
0000
0000
1000
0000
0001
0000
0000
0000
0002
0000
0000
0000
,
1003
0100
0010
0100
0001
0100
0010
0000
,
0001
0100
1000
0100
0001
0000
0000
1000
,
0001
0100
0010
0100
1000
0100
0010
0100
,
1000
0100
0010
1000
0100
0010
0011
0000
,
1100
0000
0000
0001
1000
0100
1100
0000
,
0011
0000
0000
1000
0001
0100
0101
0000
,
1010
0010
0000
1000
0010
1000
0001
0100
,
0001
0100
0000
0001
0010
0010
0000
0000
,
0100
0000
0000
1000
0000
0000
0100
0000
0010
0000
0000
0001
0000
0000
0010
0000
,
0100
0000
0000
1000
0000
0000
0001
0000
1000
0000
1001
0000
0000
0000
0000
0000
,
0001
0000
0000
0100
0000
0000
0010
0000
1000
0000
0000
0100
0000
0000
0010
0000
,
0001
0000
0101
0000
1001
0000
0000
0001
,
0010
0000
0100
0000
1000
0001
0001
1000
,
0010
0000
0100
0000
0001
1000
1000
0100
,
1001
0000
0000
0000
0001
0000
0000
1000
0000
0000
0001
0000
0100
0000
0001
0000
,
1000
0001
0001
0010
0010
0100
0100
1000
,
0002
0010
0100
0013
,
0200
1000
0301
0100
,
1001
0000
0000
0001
1000
0000
1000
0100
,
0010
0000
0010
0001
0100
0000
0010
0000
,
0110
0000
0000
0010
0100
0000
0100
0001
,
0010
0100
1000
0001
0010
0000
0100
0000
,
0101
0000
0000
0100
0010
0000
0001
0000
,
0100
0010
0100
0002
,
2000
0000
0000
0000
,
3003
0000
0000
0000
;

//---------------dance-single - Telperion----------------
#NOTES:
     dance-single:
     Telperion:
     Medium:
     5:
     0.311,0.422,0.195,0.113,0.000:
0000
0000
0000
0000
,
0000
0000
0000
0000
,
0000
0000
0000
0000
,
0000
0000
0000
0000
,
1000
0100
0001
0100
,
1000
0001
1000
1000
,
0001
1000
0001
0100
0001
1000
0100
1000
,
0001
0100
0010
1000
0001
0100
0010
0000
,
0220
0000
0000
0000
,
0000
0000
0330
0110
,
0110
0000
0010
0000
1000
0010
1000
0100
,
0010
0000
0010
0000
0001
0010
0001
0100
,
0010
0000
0010
0100
0010
0000
0010
1000
,
0010
0000
1000
0100
1000
0000
0001
0000
,
1001
0000
0001
1000
0001
0010
0001
0000
,
1000
0000
0001
1000
0001
0010
0100
0000
,
1000
0000
0100
0000
0010
0100
1000
0000
,
0100
0010
0001
0000
,
0100
0000
0001
0000
0100
0010
0100
0000
,
0001
0010
0100
1000
0001
0000
0100
0000
,
0110
0000
0001
0000
,
0101
0000
1000
0001
,
1001
0000
0100
0000
,
0110
0001
0100
1000
,
0100
0000
0000
0001
0000
0000
0001
0000
,
1000
0000
0000
0100
0000
0000
0001
0000
,
0100
0000
0000
1000
0000
0000
1000
0000
,
0100
0010
0001
0000
,
2001
0000
0000
0000
0100
0000
0000
3100
,
1000
0001
0100
0000
,
1002
0000
0000
0000
0100
0000
0000
0103
,
0001
1000
0000
1000
0001
0000
0000
0000
,
0200
0000
0000
0000
,
0300
0000
0000
0000
,
0020
0000
0000
0000
,
0030
0000
0000
0000
,
0002
0000
0000
0000
,
0003
0000
0000
0000
,
0200
0000
0000
0000
,
0302
0000
0000
0000
,
1003
0000
1000
0000
1000
0001
1000
0000
,
0001
0100
0001
0100
0010
0000
0000
0000
,
1000
0000
1000
0000
0001
1000
0001
1000
,
0100
0000
0010
0100
0010
0000
0000
0000
,
0001
0000
0001
0000
0001
1000
0001
0000
,
0001
1000
0010
1000
0100
0000
0000
0000
,
1000
0000
0001
0000
1000
0001
1000
0001
,
0100
0010
0100
0010
0100
0000
0000
0000
,
0110
0000
0001
0000
,
0011
0000
1000
1000
,
0002
0000
0013
0001
,
0100
1000
0100
0000
,
0010
1000
0100
0001
,
0010
0001
0100
0010
,
0110
0000
1000
0100
,
1100
0000
0001
0100
,
0101
0000
0010
0100
,
0110
0000
0000
0001
1000
1000
0000
0000
,
0100
0000
0010
0100
0100
0000
0010
0100
,
0100
0010
0001
0100
,
0110
0000
0010
0100
0100
0000
0010
0100
,
0100
0000
0101
0000
1001
0000
0000
0001
,
1000
0100
0000
0000
0100
0000
0000
1000
,
0001
0100
0000
0000
0100
0000
0000
0100
,
0001
0000
0010
0001
0010
0000
0100
1000
,
0100
0000
0010
0001
0010
0100
1000
0000
,
1001
0100
0100
0011
,
1010
0100
0100
0000
,
0012
0000
0000
0000
,
0103
0000
0000
0000
,
2010
0000
0000
0000
,
3100
0000
0000
0000
,
0021
0000
0000
0000
,
0130
0000
1000
0010
,
2020
0000
0000
0000
,
3030
0000
0000
0000
;

//---------------dance-single - Telperion----------------
#NOTES:
     dance-single:
     Telperion:
     Easy:
     3:
     0.165,0.194,0.135,0.008,0.000:
0000
0000
0000
0000
,
0000
0000
0000
0000
,
0000
0000
0000
0000
,
0000
0000
0000
0000
,
1000
0000
0001
0000
,
1000
0100
0010
0000
,
0001
0100
0001
0000
,
1000
0100
2000
0000
,
0001
0000
0000
0000
,
3000
0000
0000
0000
,
1001
0000
0000
0000
,
0011
0000
0000
0000
,
1100
0000
0000
0000
,
1001
0000
0000
0000
,
0001
0100
0001
0000
,
1000
0100
1000
0001
,
1000
0000
0100
0000
,
1000
0100
0010
0000
,
0001
0000
0100
0000
,
0001
0100
0010
0000
,
0110
0000
0000
0000
,
0101
0000
0000
0000
,
0110
0000
0000
0000
,
1100
0000
0000
0000
,
1000
0100
1000
0000
,
0001
0100
0001
0000
,
0010
0001
0100
0000
,
0010
1000
0100
0000
,
0110
0000
0001
0000
,
0100
0000
0010
0000
,
0110
0000
1000
0000
,
0001
0000
0100
0000
,
0001
0000
0000
0000
,
0000
0000
0000
0000
,
1000
0000
0000
0000
,
0000
0000
0000
0000
,
0001
0000
0000
0000
,
0000
0000
0000
0000
,
1000
0000
0000
0000
,
0001
0000
1000
0000
,
0001
0001
1000
0000
,
1000
0001
0100
0000
,
0010
0010
0100
0000
,
0010
1000
0001
0000
,
1000
1000
0001
0000
,
1000
0100
0010
0000
,
0100
0100
0010
0100
,
0010
0001
0100
0000
,
0010
0000
0000
0000
,
0010
0000
0010
0000
,
0010
1000
0100
0000
,
0010
0100
1000
0000
,
0001
0100
0010
0000
,
0100
0001
0010
0000
,
0011
0000
0001
0000
,
1100
0000
1000
0000
,
0101
0000
0001
0000
,
1010
0000
1001
0000
,
0000
0000
0000
0000
,
0000
0000
1001
0000
,
0000
0000
0000
0000
,
0000
1001
1001
0000
,
0001
0000
0100
0000
,
0010
0100
0001
0000
,
0010
0000
0100
0000
,
1000
0100
0010
0001
,
1000
0000
0000
1000
,
0001
0000
0000
0000
,
0010
0000
0000
0000
,
0010
0000
0000
0000
,
0010
0000
0000
0000
,
0010
0000
0000
0000
,
0100
0000
0000
0000
,
1000
0000
0000
0000
,
0001
0000
0000
0000
;

//---------------dance-double - Telperion----------------
#NOTES:
     dance-double:
     Telperion:
     Hard:
     8:
     0.440,0.451,0.270,0.150,0.109:
00000000
00000000
00000000
00000000
,
00000000
00000000
00000000
00000000
,
00000000
00000000
00000000
00000000
,
00000000
00000000
00000000
00000000
,
00010000
00000000
10000000
01000000
00010000
00000000
00001000
00000100
,
00000001
00000010
00000100
00001000
00000001
00000000
00000001
00001000
,
00000100
00000010
00000100
00010000
00001000
00000100
00000010
00000100
,
00001000
00010000
01000000
00100000
00010000
10000000
00020000
00000000
,
10000000
00000000
00000000
00000000
,
00030000
00000000
00000000
11000000
,
00110000
00000000
00000000
00010000
10000000
00000000
00100000
00000000
00010000
00000000
00001000
00000000
00000100
00000000
00000001
00000000
,
00000010
00000000
00000000
00000010
00000001
00000000
00000100
00000000
00001000
00000000
00000000
00000000
00011000
00000000
00000000
00000000
,
00101000
00000000
00000000
00100000
01000000
00000000
00010000
00000000
00001000
00000000
00000010
00000000
00000001
00000000
00000100
00000000
,
00000001
00000000
00000000
00000001
00000010
00000000
00001000
00000000
00010000
00000000
01000000
00000000
10000000
00000000
00000000
00000000
,
10010000
00000000
00010000
10000000
00010000
00000000
10000000
00000000
01000000
00000000
00000000
00000000
10000000
00000000
01000000
00000000
,
00010000
00001000
00100000
00010000
00000010
00000100
00001000
00000000
,
00000001
00000011
00001000
00001010
,
00000001
00000000
00000200
00000000
00001000
00000000
00000301
00000100
,
00001000
00010000
01010000
10000000
,
02000000
03020000
00032000
00003100
,
00001001
00000000
00000000
00000001
00000010
00000000
00000001
00000000
00000100
00000000
00001000
00000000
00010000
00000000
00000100
00000000
,
00001000
00000000
00000000
00001000
00000100
00000000
00000010
00000000
00001000
00000000
00010000
00000000
01000000
00000000
00000000
00000000
,
10010000
00000000
00000000
10000000
00100000
00000000
10000000
00000000
01000000
00000000
00000000
00000000
01000000
00000000
10000000
00000000
,
00100000
00000000
01000000
00000000
01000000
00001000
00000100
00000000
,
00000001
00000000
00000000
00001100
00000000
00000000
00011000
00000000
,
00110000
00000000
00000000
01100000
00000000
00000000
10100000
00000000
,
01100000
00000000
00000000
01001000
00000000
00000000
00011000
00000000
,
00010010
00001000
00000100
00000110
,
00002002
00000000
00003003
00000000
00000001
00001000
00001000
00000100
,
00000001
00000100
00000000
00010000
00001000
00000100
00000100
00001000
,
00010000
00001000
00000000
00010000
01000000
10000000
10000000
01000000
,
00010000
01000000
00000000
10000000
00100000
01000000
00001000
00000010
,
00000002
00000000
00000000
00000000
,
00000013
00000000
00001000
00010000
,
00200000
00000000
00000000
00000000
,
10300000
01000000
00010000
00000100
,
00000002
00000000
00000000
00000000
,
00000103
00000000
00010000
00001000
,
00000200
00000000
00000000
00000000
,
00000310
00000000
00000000
00000000
,
00000001
00000001
00001000
00001000
00000001
00000100
00001000
00010000
,
00100000
00000000
00010000
00001000
00000100
00000001
00000010
00000000
,
00000100
00000100
00010000
00010000
00001000
00001000
01000000
01000000
,
00100000
10000000
01000000
00010000
00001000
00000010
00000001
00000000
,
00001000
00000000
00001000
00000000
00000001
00000000
00000001
00000000
00000100
00000000
00000000
00000100
00000010
00000000
00001000
00000000
,
00000010
00000100
00001000
00010000
00002000
00000000
00003000
00000000
,
00100000
01000000
10000000
01000000
00100000
00001000
00010000
00001000
,
00100000
01000000
00010000
00001000
00000010
00000001
00001000
00000000
,
00002002
00000000
00003003
00000000
,
00001001
00011000
10010000
00010000
,
10000000
10000000
00010000
00010000
10000000
01000000
00100000
01000000
,
00010000
00001000
00000000
00000000
00010000
00000000
00001000
00000000
00010000
00001000
00000000
00000000
00010000
00001000
00000000
00000000
,
00001000
00010000
00000000
00000000
00000000
00000000
00010000
00000000
00000100
00001000
00000000
00000000
00000001
00000100
00000000
00000000
,
00000010
00001000
00000000
00000000
00000100
00000010
00000000
00000000
00000001
00000000
00000100
00000000
00001000
00000000
00010000
00000000
,
00011000
00000000
00000000
00001000
00101000
00100000
00000000
00000000
,
00000000
00000000
00000000
01000000
11000000
10000000
00000000
00000000
,
00000000
00000000
00000000
00001000
00011000
00010000
00000000
00000000
,
00000100
00000000
00000000
00000010
00000001
00000000
00000011
00000000
00000101
00000000
00001010
00000000
00000000
00000000
00000000
00000000
,
00000001
00000000
00000000
00000100
00000000
00000000
00001000
00000000
00010000
00000000
01000000
00000000
10000000
00000000
00010000
00000000
,
00100000
00000000
01000000
00000000
10000000
00000000
00010000
00000000
10000000
00010000
10000000
00000000
00000000
00000000
00000000
00000000
,
10000000
00000000
00000000
01000000
00000000
00000000
00010000
00000000
00001000
00000000
00000100
00000000
00000001
00000000
00001000
00000000
,
00000010
00000110
00010100
00000000
,
00010000
00000000
00000100
00000000
00000000
00000010
00000000
00000000
00001000
00000000
00000000
00010000
00000000
00000000
00100000
00000000
,
01000000
00000000
00100000
00000000
00000000
00010000
00000000
00000000
00001000
00000000
00000000
00000010
00000000
00000000
00001000
00000000
,
00010000
00000000
00000000
00000000
00000100
00000000
00001000
00000100
00001000
00000000
00000100
00000000
00010000
00000000
00001000
00000000
,
00011000
00000000
00000000
00000000
01000000
00000000
00010000
01000000
00010000
00000000
01000000
00000000
00001000
00000000
00000000
00000000
,
02200000
00000000
00300000
00000000
,
03010000
00000000
10000000
00000000
00000000
01000000
00000000
00000000
00100000
00000000
00000000
01000000
00000000
00000000
10000000
00000000
,
00020000
00000000
00000000
00000000
,
01030000
10000000
00100000
00010000
,
02000000
00000000
00000000
00000000
,
03100000
00001000
00000010
00010000
,
00000200
00000000
00000000
00000000
,
00000310
00000000
00000001
00000000
,
00000200
00000000
00000000
00000000
,
00000310
00000000
00000000
00000000
;

//---------------dance-single - Telperion----------------
#NOTES:
     dance-single:
     Telperion:
     Challenge:
     8:
     0.443,0.535,0.300,0.195,0.128:
0000
0000
0000
0000
,
0000
0000
0000
0000
,
0000
0000
0000
0000
,
0000
0000
0000
0000
,
0000
0000
0000
0000
,
0000
0000
0000
0000
,
0000
0000
0000
0000
,
0000
0000
0000
0000
,
2002
0000
0000
0000
,
3003
0000
0000
0011
,
1100
0000
1000
0100
1000
0000
0001
0000
0100
0000
1000
0000
0100
0000
0000
0000
,
0001
0000
0000
1000
0001
0000
0010
0000
0100
0000
0010
0000
0011
0000
0000
0000
,
1100
0000
1000
0100
1000
0000
0100
0000
0001
0000
0100
0000
0010
0000
0001
0000
,
0100
0000
0001
1000
0001
0000
0100
0000
0010
0000
1000
0000
1010
0000
0000
0000
,
0101
0000
0000
0001
0010
0000
0010
0000
0100
0000
0010
0000
0100
0000
1000
0000
,
1001
0000
0000
1000
0010
0000
0100
0000
0010
0000
0000
0000
0210
0000
0000
0000
,
0301
0001
1000
1000
0100
0010
0001
0100
,
0001
0010
0100
1000
0001
0010
0001
0000
,
0100
0001
0100
0010
0100
1000
0100
0010
,
1000
0100
0001
0100
1000
0001
0101
0000
,
1010
0000
0000
0010
1000
0000
0000
1000
0100
0000
0000
0100
0001
0000
0000
0001
,
0100
0000
0000
0100
1000
0000
0000
1000
0001
0000
0000
0000
0101
0000
0000
0000
,
1010
0000
1000
0010
1000
0000
0001
0000
0100
0000
1000
0000
0100
0000
0001
0000
,
0010
0000
0100
0000
1000
0100
0002
0000
,
0103
0000
0000
1001
0000
0000
0011
0000
,
1100
0000
0000
1001
0000
0000
0101
0000
,
1010
0000
0000
0110
0000
0000
1100
0000
,
0101
0000
0000
0011
0000
1000
1010
0000
,
0101
0001
0010
0100
0100
0000
1000
1000
,
0001
0001
0000
0100
0001
1000
1100
0000
,
0011
0001
0100
0010
0010
1000
0010
0001
,
0010
0100
0001
0010
0100
0000
0000
0000
,
0020
0000
0000
0000
,
0032
0000
0103
1000
,
0020
0000
0000
0000
,
0031
0010
1000
0100
,
0020
0000
0000
0000
,
2030
0000
3100
0001
,
0020
0000
0000
0000
,
0031
0100
1000
0010
,
0100
0100
0001
0001
1000
0010
0100
0001
,
0020
0000
0031
0100
0010
1000
0010
0000
,
1000
1000
0001
0001
0010
0001
1000
0100
,
0020
0000
0130
0010
0001
0100
1000
0000
,
0100
0000
0100
0000
0010
0000
0010
0000
1000
0000
0000
0100
0010
0000
0001
0000
,
0010
0100
1000
0100
0002
0000
0203
0000
,
0310
0001
0010
0001
1000
0100
0010
0001
,
0100
0010
1000
0100
0020
0000
0030
0000
,
0001
0000
1000
0001
1000
0000
0001
0000
0100
0000
0010
0000
0010
0000
0000
0000
,
1000
0000
0001
1000
0001
0000
1000
0000
0100
0000
0010
0000
0020
0000
0000
0000
,
0031
0100
1000
0010
,
0100
1000
0000
0000
0100
0000
0010
0000
0001
1000
0000
0000
0001
0100
0000
0000
,
1000
0100
0001
0010
,
0100
0010
0000
0000
0010
0000
0001
0000
1000
0001
1000
0000
1010
0000
0000
0000
,
0101
0000
0000
0001
0010
0011
0000
0000
,
0000
0000
0000
0100
1000
1100
0000
0000
,
0000
0000
0000
1000
0001
0011
0000
0000
,
0000
0000
0000
0011
1001
1010
0000
0000
,
0001
0000
0001
1000
0000
1000
0100
0000
0010
0000
0100
0000
1000
0000
0000
0000
,
0001
0000
1000
0001
0000
0001
0100
0000
0010
0000
0010
0000
0000
0000
0000
0000
,
0100
0000
0001
1000
0000
0001
1000
0000
0100
0000
0010
0000
0001
0000
0100
0000
,
0010
0000
0110
0000
2002
0000
0000
3003
,
0001
0000
1000
0000
0000
0100
0000
0000
0001
0000
0000
0010
0000
0000
0001
0000
,
0100
0000
1000
0000
0000
0010
0000
0000
0001
0000
0000
0010
0000
0000
1000
0000
,
0100
0000
0010
0000
0100
0000
0010
0100
0010
0000
0100
0000
0010
0000
0100
0010
,
0001
0000
0100
0000
0001
0000
0100
0010
1000
0000
0010
0000
1000
0000
0001
0000
,
2002
0000
0000
0000
,
3003
0000
0000
0000
,
2000
0000
0000
0000
,
3100
0001
0010
0100
,
0002
0000
0203
0000
,
1300
0010
0100
1000
,
0200
0000
0000
0000
,
0301
0100
0010
0101
,
2020
0000
0000
0000
,
3030
0000
0000
0000
;

//---------------dance-double - Telperion----------------
#NOTES:
     dance-double:
     Telperion:
     Easy:
     3:
     0.178,0.222,0.060,0.000,0.000:
00000000
00000000
00000000
00000000
,
00000000
00000000
00000000
00000000
,
00000000
00000000
00000000
00000000
,
00000000
00000000
00000000
00000000
,
00010000
00000000
00001000
00000000
,
00010000
00001000
00010000
00000000
,
00000100
00000000
00000010
00000000
,
00000001
00000100
00001000
00000100
,
00000001
00000000
00000000
00000000
,
00000000
00000000
00000000
00000000
,
00001001
00000000
00000000
00000100
,
00001100
00000000
00000100
00010000
,
00011000
00000000
00001000
01000000
,
01010000
00000000
00010000
10000000
,
01000000
00000000
01000000
10000000
,
00010000
00000000
01000000
01000000
,
00100000
00000000
00100000
00000000
,
10000000
01000000
00010000
00000000
,
00001000
00000000
00001000
00000000
,
00010000
00000100
00000010
00000000
,
00001001
00000000
00000000
00000000
,
00000000
00000000
00000000
00000000
,
00011000
00000000
00000000
00000000
,
00000000
00000000
00000000
00000000
,
00001000
00000000
00001000
00000000
,
00000100
00000010
00001000
00000000
,
00000100
00000000
00000100
00000000
,
00010000
00001000
00100000
01000000
,
10000000
00000000
00100000
00000000
,
00010000
00000000
00001000
00000000
,
00000100
00000000
00000001
00000000
,
00000010
00000000
00001000
00000000
,
00010000
00000000
00000000
00000000
,
00000100
00000000
00000000
00000000
,
00000001
00000000
00000000
00000000
,
00000100
00000000
00010000
00000000
,
00001000
00000000
00000000
00000000
,
01000000
00000000
00000000
00000000
,
10000000
00000000
00000000
00000000
,
01000000
00000000
00010000
00000000
,
00100000
00001000
00010000
00000000
,
00000100
00001000
00000001
00000000
,
00000010
00000001
00001000
00000000
,
00000100
00010000
00001000
00000000
,
01000000
00001000
00010000
00000000
,
00000010
00001000
00000001
00000000
,
00000100
00000001
00001000
00000010
,
00010000
00001000
01000000
00010000
,
10000000
00000000
00000000
00000000
,
01000000
00000000
00100000
00000000
,
00010000
00010000
00000000
00010000
,
10000000
10000000
10000000
00000000
,
01000000
00100000
01000000
00000000
,
00010000
00001000
00010000
00000100
,
00000110
00000000
00000001
00000100
,
00000010
00000000
00001000
00000100
,
00000010
00000000
00000100
00010000
,
00001000
00000100
00000001
00000000
,
00001000
00000000
00010000
00000000
,
10000000
00000000
01000000
00000000
,
10000000
00000000
00010000
00000000
,
00001000
00001000
00001000
00000000
,
00000100
00000000
00001000
00000100
,
00000001
00000100
00001000
00000000
,
00000001
00000100
00000010
00000100
,
00001000
00010000
00001000
00000000
,
00011000
00000000
00000000
00000000
,
00000000
00000000
00000000
00000000
,
00001000
00000000
00000000
00000000
,
00100000
00000000
01000000
00000000
,
00010000
00000000
00000000
00000000
,
00001000
00000000
00000100
00000000
,
00000010
00000000
00001000
00000000
,
00000001
00000000
00000100
00000000
,
00000010
00000000
00000000
00000000
;
