#TITLE:Ich bin wieder hier;
#SUBTITLE:;
#ARTIST:Blümchen;
#TITLETRANSLIT:;
#SUBTITLETRANSLIT:;
#ARTISTTRANSLIT:Bluemchen;
#GENRE:;
#CREDIT:;
#BANNER:Ich Bin Wieder Hier.png;
#BACKGROUND:Ich Bin Wieder Hier-BG.png;
#LYRICSPATH:;
#CDTITLE:./CDTitles/SpyHunter29 Originals.png;
#MUSIC:Ich Bin Wieder Hier.mp3;
#OFFSET:-1.029236;
#SAMPLESTART:57.100002;
#SAMPLELENGTH:12.000000;
#SELECTABLE:YES;
#BPMS:0.000000=139.000000;
#STOPS:;
#DELAYS:;
#TIMESIGNATURES:0.000000=4=4
;
#BGCHANGES:;
#KEYSOUNDS:;
#ATTACKS:;

//---------------dance-single - BEGINNER----------------
#NOTES:
     dance-single:
     BEGINNER:
     Beginner:
     2:
     0.166,0.167,0.000,0.000,0.000: // measure 1
0000
0000
0000
0000
,  // measure 2
0000
0000
0000
0000
,  // measure 3
0000
0000
0000
0000
,  // measure 4
0000
0000
0000
0000
,  // measure 5
0001
0000
0000
0000
,  // measure 6
0000
0000
0000
0000
,  // measure 7
0001
0000
1000
0000
,  // measure 8
0001
0000
1000
0000
,  // measure 9
0001
0000
0000
0000
,  // measure 10
1000
0000
0100
0000
,  // measure 11
1000
0000
1000
0000
,  // measure 12
0001
0000
0010
0000
,  // measure 13
0001
0000
0001
0000
,  // measure 14
0100
0000
0010
0000
,  // measure 15
0100
0000
0100
0000
,  // measure 16
0010
0000
1000
0000
,  // measure 17
0010
0000
0010
0000
,  // measure 18
1000
0000
0001
0000
,  // measure 19
1000
0000
0010
0000
,  // measure 20
0001
0001
0000
0000
,  // measure 21
1000
1000
0000
0000
,  // measure 22
0100
0000
0010
0000
,  // measure 23
0100
0000
0010
0000
,  // measure 24
0100
0100
0000
0000
,  // measure 25
0010
0010
0000
0000
,  // measure 26
1000
0000
0100
0000
,  // measure 27
0010
0000
0001
0000
,  // measure 28
0010
0010
0010
0000
,  // measure 29
0100
0100
0100
0000
,  // measure 30
0010
0000
1000
0000
,  // measure 31
0100
0000
0001
0000
,  // measure 32
1000
0000
0001
0000
,  // measure 33
1000
0000
1000
1000
,  // measure 34
1000
0000
1000
0000
,  // measure 35
0001
0000
0001
0001
,  // measure 36
0001
0000
1000
0000
,  // measure 37
1000
0000
0001
0001
,  // measure 38
0001
0000
0100
0000
,  // measure 39
0010
0000
0100
0100
,  // measure 40
0100
0000
0010
0000
,  // measure 41
1000
0000
0010
0010
,  // measure 42
0010
0010
0000
0000
,  // measure 43
1000
1000
0000
0000
,  // measure 44
0001
0001
0000
0000
,  // measure 45
1000
1000
0000
0000
,  // measure 46
0100
0100
0000
0000
,  // measure 47
0010
0010
0000
0000
,  // measure 48
0001
0001
0000
0000
,  // measure 49
1000
0000
1000
1000
,  // measure 50
1000
0000
0001
0001
,  // measure 51
0001
0000
1000
1000
,  // measure 52
1000
0000
0001
0001
,  // measure 53
0001
0000
1000
1000
,  // measure 54
1000
0000
0010
0010
,  // measure 55
0010
0000
0100
0100
,  // measure 56
0100
0000
0001
0001
,  // measure 57
0001
0000
1000
1000
,  // measure 58
1000
0000
0000
0000
;

//---------------dance-single - BASIC----------------
#NOTES:
     dance-single:
     BASIC:
     Easy:
     3:
     0.269,0.281,0.059,0.049,0.000: // measure 1
0000
0000
0000
0000
,  // measure 2
0000
0000
0000
0000
,  // measure 3
0000
0000
0000
0000
,  // measure 4
0000
0000
0000
0000
,  // measure 5
0001
0000
0000
0000
,  // measure 6
1000
0000
0000
0000
,  // measure 7
0001
0000
1000
0000
,  // measure 8
0001
0000
0010
0100
,  // measure 9
0020
0200
0330
0000
,  // measure 10
1000
0000
0010
1000
,  // measure 11
0100
0000
0010
0000
,  // measure 12
0001
0000
0100
0010
,  // measure 13
1000
0000
0001
0000
,  // measure 14
1000
0000
0010
1000
,  // measure 15
0001
0000
0010
0000
,  // measure 16
0100
0000
1000
0001
,  // measure 17
0100
0010
0100
0010
,  // measure 18
1000
0100
1000
0100
,  // measure 19
0010
0001
0010
0001
,  // measure 20
0100
0100
0010
0010
,  // measure 21
1000
0001
0010
0001
,  // measure 22
1000
0010
1000
0010
,  // measure 23
0100
0001
0100
0001
,  // measure 24
0100
0100
0010
0010
,  // measure 25
0100
0010
1000
0001
,  // measure 26
1000
0100
0010
0001
,  // measure 27
1000
0001
0010
0100
,  // measure 28
1000
0010
1000
0100
,  // measure 29
0010
0001
0100
0001
,  // measure 30
0010
0001
1000
0010
,  // measure 31
0200
0300
0010
1000
,  // measure 32
0100
0000
0010
0000
,  // measure 33
0001
0000
1000
0001
,  // measure 34
1000
1000
0001
0001
,  // measure 35
1000
0100
1000
0010
,  // measure 36
0100
0010
1000
0001
,  // measure 37
0100
0010
1000
0001
,  // measure 38
0100
0100
0010
0010
,  // measure 39
0100
0010
0100
0010
,  // measure 40
1000
0100
0010
0001
,  // measure 41
1000
0010
0100
0001
,  // measure 42
0100
0000
0001
1000
,  // measure 43
0100
0000
1000
0001
,  // measure 44
0100
0000
0001
0100
,  // measure 45
0010
0000
0010
1000
,  // measure 46
0100
0000
1000
0010
,  // measure 47
0001
0000
0001
0010
,  // measure 48
1000
0000
1000
0100
,  // measure 49
0001
0000
0001
1000
,  // measure 50
0001
0100
0001
0101
,  // measure 51
0010
1000
0010
1010
,  // measure 52
0100
1000
0100
1100
,  // measure 53
0010
0001
0100
1000
,  // measure 54
0010
1000
0100
0110
,  // measure 55
0010
0001
0100
0110
,  // measure 56
1000
0100
0001
1001
,  // measure 57
0100
0010
1000
0001
,  // measure 58
0020
0200
0330
0000
;

//---------------dance-single - DIFFICULT----------------
#NOTES:
     dance-single:
     DIFFICULT:
     Medium:
     5:
     0.394,0.338,0.176,0.059,0.000: // measure 1
0000
0000
0000
0000
,  // measure 2
0000
0000
0000
0000
,  // measure 3
0000
0000
0000
0000
,  // measure 4
0000
0000
0000
0000
,  // measure 5
0001
0000
0000
0000
1000
0010
0100
0000
,  // measure 6
0001
0000
0000
0000
0010
0100
1000
0000
,  // measure 7
0001
0000
1000
1000
,  // measure 8
0001
0000
0001
0000
1000
0100
0001
0100
,  // measure 9
2000
0002
3003
0000
,  // measure 10
0100
0001
0100
0000
1000
0000
1010
0000
,  // measure 11
0010
1000
0100
0000
0010
0000
0001
0000
,  // measure 12
1000
0100
0010
0000
0100
0000
1100
0000
,  // measure 13
0001
0010
1000
0000
0010
0000
0001
0000
,  // measure 14
0010
0100
1000
0000
0010
0000
0110
0000
,  // measure 15
0100
0001
0010
0000
0001
0000
0100
0000
,  // measure 16
0010
1000
0001
0000
0010
0000
0110
0000
,  // measure 17
1001
0010
1001
0100
,  // measure 18
1000
0000
0100
0010
0001
0000
1000
0000
,  // measure 19
0100
0000
1000
0010
0100
0000
0001
0000
,  // measure 20
0100
0010
1000
1010
,  // measure 21
0100
0010
0001
0011
,  // measure 22
0001
0000
0010
0100
1000
0000
0100
0000
,  // measure 23
1000
0000
0010
0100
0001
0000
1000
0000
,  // measure 24
0001
0100
1000
0110
,  // measure 25
1000
0100
0001
0110
,  // measure 26
1000
0000
0100
0010
0001
0000
1000
0000
,  // measure 27
0001
0000
0010
0100
1000
0000
0001
0000
,  // measure 28
0100
0001
0100
0000
0010
1000
0010
0000
,  // measure 29
0100
1000
0100
0000
0010
0001
0010
0000
,  // measure 30
1000
0100
0001
0010
,  // measure 31
2000
0000
3000
0000
0010
1000
0100
0000
,  // measure 32
0010
0000
0001
0000
0100
0000
0010
1000
,  // measure 33
0200
0000
0300
0000
1000
0001
1000
0001
,  // measure 34
1000
1000
0001
0001
,  // measure 35
1000
0100
0001
0110
,  // measure 36
1000
0100
0010
0000
0010
0001
0100
0000
,  // measure 37
0001
0100
1000
0000
0100
0001
0010
0100
,  // measure 38
1000
0010
0100
0001
,  // measure 39
1000
0100
0010
1001
,  // measure 40
1000
0010
0100
0000
0010
0100
0001
0000
,  // measure 41
1000
0001
0100
0000
0001
0100
1000
0100
,  // measure 42
0001
0000
0001
0000
0001
0000
0001
0010
,  // measure 43
1000
0000
1000
0000
1000
0000
1000
0010
,  // measure 44
0100
0000
0100
0000
0100
0000
0100
0001
,  // measure 45
1000
0000
0001
0000
1000
0100
0010
0001
,  // measure 46
1000
0000
0001
0000
0100
0000
0001
0010
,  // measure 47
1000
0000
0100
0000
1000
0000
0001
0100
,  // measure 48
1000
0100
0001
1000
,  // measure 49
0010
0000
0100
0000
0010
1000
0001
0100
,  // measure 50
0010
1000
0100
1001
,  // measure 51
0010
0001
0100
1001
,  // measure 52
0100
0010
0001
0011
,  // measure 53
1000
0000
0100
0000
0010
0001
0010
0100
,  // measure 54
1000
0000
0100
1000
0100
0000
1100
0000
,  // measure 55
0010
0000
0001
0010
0001
0000
0011
0000
,  // measure 56
0100
0000
0001
1000
0001
0000
0110
0000
,  // measure 57
1000
0000
0100
0000
0010
0001
0010
0001
,  // measure 58
2000
0200
3300
0000
;

//---------------dance-single - EXPERT----------------
#NOTES:
     dance-single:
     EXPERT:
     Hard:
     8:
     0.506,0.450,0.000,0.069,0.504: // measure 1
0000
0000
0000
0000
,  // measure 2
0000
0000
0000
0000
,  // measure 3
0000
0000
0000
0000
,  // measure 4
0000
0000
0000
0000
,  // measure 5
0001
0000
0100
0000
0001
0000
0000
1000
0000
0010
0000
1000
0000
0000
0010
0000
,  // measure 6
1000
0000
0000
0100
0000
0000
0010
0000
0000
0000
0000
0000
0001
0000
0000
0000
0000
0000
1000
0000
0100
0000
1000
0000
,  // measure 7
0100
0000
0000
0001
0100
0001
0100
0000
0000
1000
0100
1000
,  // measure 8
0001
0000
0010
0000
0001
0000
0100
0000
0000
0000
0000
0000
0001
0000
0000
1000
0000
0000
0001
0000
0000
0100
0000
0000
,  // measure 9
0020
0200
0330
0000
,  // measure 10
0100
0000
0010
0000
1000
0000
0000
0010
0000
1000
0000
0001
0000
0000
0100
0000
,  // measure 11
0010
0000
1000
0000
0100
0000
0000
0010
0000
0001
0000
0010
0000
0000
0100
0000
,  // measure 12
1000
0000
0100
0000
0001
0000
0000
0100
0000
0010
0000
0100
0000
0000
0010
0000
,  // measure 13
0001
0000
1000
0000
0010
0000
0000
1000
0000
0001
0000
1000
0000
0000
0001
0000
,  // measure 14
1000
0000
0100
0000
1000
0000
0000
0100
0000
1000
0000
0010
0000
0000
0100
0000
,  // measure 15
0001
0000
0100
0000
0010
0000
0000
0001
0000
0010
0000
1000
0000
0000
0010
0000
,  // measure 16
1000
0000
0100
0000
0010
0000
0000
0001
0000
1000
0000
0100
0000
0000
0010
0000
,  // measure 17
0001
0000
0100
0000
1000
0000
0000
0100
0000
0001
0000
1000
0000
0000
0010
0000
,  // measure 18
0100
0000
0000
0001
0000
0000
0010
0000
0100
0000
0000
1000
0000
0000
0010
0000
,  // measure 19
1000
0000
0000
0100
0000
0000
0010
0000
0001
0000
0000
0100
0000
0000
0001
0000
,  // measure 20
0010
0000
0000
0000
0100
0000
0000
1000
0100
0000
0010
0000
0001
0000
0000
0000
,  // measure 21
0001
0000
0000
0000
0100
0000
0000
0010
1000
0000
0010
0000
0100
0000
0000
0000
,  // measure 22
0001
0000
0000
0100
0000
0000
0001
0000
1000
0000
0000
0100
0000
0000
1000
0000
,  // measure 23
0100
0000
0000
0010
0000
0000
0001
0000
0200
0000
0000
0000
0310
0000
0000
0000
,  // measure 24
0001
0000
0000
0000
0010
0000
0000
0100
1000
0000
0001
0000
0010
0000
0000
0000
,  // measure 25
0001
0000
0000
0000
1000
0000
0000
0001
0100
0000
0010
0000
1000
0000
0000
0000
,  // measure 26
0001
0000
0000
0010
0000
0000
0001
0000
0100
0000
0000
0010
0000
0000
0100
0000
,  // measure 27
0001
0000
0000
1000
0000
0000
0010
0000
1000
0000
0000
0100
0000
0000
0010
0000
,  // measure 28
0001
0000
0010
0000
0001
0000
0000
1000
0000
0100
0000
1000
0000
0000
0001
0000
,  // measure 29
0100
0000
0001
0000
0010
0000
0000
0100
0000
1000
0000
0010
0000
0000
0100
0000
,  // measure 30
0001
0000
0000
0100
0000
0000
0001
0000
1000
0000
0000
0010
0000
0000
0100
0000
,  // measure 31
0002
0000
0000
0000
0003
0000
1000
0000
0010
0000
0000
0100
0000
0000
0001
0000
,  // measure 32
0010
0000
0000
0000
0000
0000
0100
0000
0000
1000
0000
0000
0100
0000
0000
0000
0000
0000
0001
0000
0010
0000
0001
0000
,  // measure 33
0010
0000
0000
0100
1000
0100
2000
0000
0000
3000
0000
0000
,  // measure 34
0001
0010
0001
0000
1000
0010
1000
0000
,  // measure 35
1000
0001
1000
0000
0100
0001
0100
0000
,  // measure 36
1000
0010
0100
0000
0100
0001
0010
0000
,  // measure 37
0100
1000
0010
0000
1000
0010
0001
0010
,  // measure 38
1000
0010
0100
0000
0001
0010
0100
0000
,  // measure 39
1000
0100
0001
0000
0001
0100
1000
0000
,  // measure 40
0100
1000
0010
0000
0100
0001
0010
0000
,  // measure 41
0001
1000
0100
0000
1000
0001
0100
0010
,  // measure 42
1000
0000
0010
0000
0000
0100
0000
0000
0001
0000
0000
1000
0000
0000
0010
1000
,  // measure 43
0010
0000
0100
0000
0000
0001
0000
0000
0010
0000
0000
0100
0000
0000
1000
0100
,  // measure 44
1000
0000
0100
0000
0000
0010
0000
0000
0001
0000
0000
1000
0000
0000
0001
0010
,  // measure 45
0100
0000
1000
0000
0000
0010
0000
0000
0100
0000
0000
0001
0000
0000
1000
0010
,  // measure 46
0100
0000
0001
0000
0000
0100
0000
0000
0001
0000
0000
0010
0000
0000
0001
0010
,  // measure 47
0100
0000
1000
0000
0000
0001
0000
0000
0010
0000
0000
0100
0000
0000
1000
0001
,  // measure 48
0100
0000
0001
0000
0000
1000
0000
0000
0100
0000
0000
0010
0000
0000
0001
1000
,  // measure 49
0100
0000
1000
0000
0000
0010
0000
0000
0100
0000
0001
0000
1000
0000
0010
0000
,  // measure 50
0100
0000
0000
0001
0100
0000
0000
0010
1000
0000
0000
0001
0100
0000
0010
0000
,  // measure 51
1000
0000
0000
1000
0010
0000
0000
0100
0001
0000
0000
0010
0001
0000
1000
0000
,  // measure 52
0100
0000
0000
1000
0100
0000
0000
0010
0001
0000
0000
1000
0100
0000
1000
0000
,  // measure 53
0001
1000
0010
1000
0001
0010
0001
1000
,  // measure 54
0100
0000
0000
1000
0010
0000
0000
1000
0100
0000
0000
0010
0001
0000
0100
0000
,  // measure 55
0001
0000
0000
1000
0010
0000
0000
0100
0001
0000
0000
0100
0010
0000
0100
0000
,  // measure 56
0001
0000
0000
0010
0100
0000
0000
1000
0010
0000
0000
0100
0001
0000
0010
0000
,  // measure 57
0100
0000
0100
1000
0010
0100
0001
0010
,  // measure 58
0200
2000
3300
0000
;

//---------------dance-single - CHALLENGE----------------
#NOTES:
     dance-single:
     CHALLENGE:
     Challenge:
     10:
     0.669,0.704,0.049,0.049,0.866: // measure 1
0000
0000
0000
0000
,  // measure 2
0000
0000
0000
0000
,  // measure 3
0000
0000
0000
0000
,  // measure 4
0000
0000
0000
0000
,  // measure 5
0001
0000
0100
0000
0001
0100
0000
0010
0000
0100
0000
0010
0000
1000
0001
0000
,  // measure 6
1000
0000
0000
0000
0000
0000
0100
0000
0000
0000
0000
0000
0010
0000
0000
0001
0000
0000
0000
0000
0000
1000
0000
0000
0000
0000
0000
0001
0000
0000
0000
0000
0000
0010
0000
0000
0001
0000
0000
0000
0100
0000
0000
0000
0001
0000
0000
0000
,  // measure 7
0100
0000
0000
1000
0100
1000
0100
0000
0000
0010
0001
0010
,  // measure 8
0100
0000
1000
0000
0100
0000
0010
0000
0000
0000
0000
0000
0001
0000
0000
1000
0000
0000
0100
0000
0000
1000
0000
0000
,  // measure 9
0020
0200
0000
0330
,  // measure 10
1000
0000
0100
0000
1000
0001
0000
1000
0000
0100
0000
0010
0000
0001
0100
0000
,  // measure 11
0010
0000
1000
0000
0010
0100
0000
1000
0000
0100
0000
0010
0000
1000
0001
0000
,  // measure 12
0010
0000
0001
0000
0100
0010
0000
0100
0000
0001
0000
0010
0000
0100
1000
0000
,  // measure 13
0001
0000
1000
0000
0100
1000
0000
0001
0000
0010
0000
0100
0000
1000
0001
0000
,  // measure 14
1000
0000
0010
0000
0100
0010
0000
1000
0000
0010
0000
0100
0000
0001
1000
0000
,  // measure 15
0001
0000
0100
0000
1000
0100
0000
0010
0000
1000
0000
0100
0000
0010
0001
0000
,  // measure 16
1000
0000
0001
0000
0010
0001
0000
1000
0000
0010
0000
0100
0000
0001
1000
0000
,  // measure 17
0110
1001
0110
1001
,  // measure 18
0010
0000
0000
0100
0000
0000
1000
0000
0010
0000
0000
0100
0000
0000
0001
0000
,  // measure 19
1000
0000
0000
0001
0000
0000
0100
0000
0010
0000
0000
1000
0000
0000
0001
0000
,  // measure 20
0100
0000
0001
0100
0001
0000
0000
1000
0010
0000
1000
0010
1000
0000
0000
0010
,  // measure 21
0100
0000
0001
1000
0001
0000
0000
0100
0010
0000
1000
0001
1000
0000
0000
0000
,  // measure 22
1000
0000
0000
0100
0000
0000
0010
0000
0100
0000
0000
1000
0000
0000
0001
0000
,  // measure 23
0100
0000
0000
0010
0000
0000
1000
0000
0001
0000
0000
0000
0100
0000
0000
0000
,  // measure 24
0010
0000
1000
0010
1000
0000
0000
0100
0001
0000
0100
0001
0100
0000
0000
0010
,  // measure 25
1000
0000
0100
1000
0001
0000
0000
0010
0001
0000
0100
0001
1000
0000
0001
0000
,  // measure 26
1000
0000
0000
0100
0000
0000
0010
0000
0100
0000
0000
1000
0000
0000
0010
0000
,  // measure 27
0100
0000
0000
0001
0000
0000
0100
0000
1000
0000
0000
0100
0000
0000
0001
0000
,  // measure 28
0010
0000
0001
0000
0010
0001
0000
1000
0000
0100
0000
0010
0000
0100
1000
0000
,  // measure 29
0001
0000
0100
0000
0010
0100
0000
0001
0000
1000
0000
0010
0000
1000
0001
0000
,  // measure 30
0100
0000
0000
0100
0000
0000
1000
0000
0010
0000
0000
0100
0000
0000
0001
0000
,  // measure 31
2000
0000
0000
0000
3000
0000
0001
0000
0010
0000
0000
0100
0000
0000
1000
0000
,  // measure 32
0001
0000
0000
0000
0000
0000
0010
0000
0000
0000
0000
0000
0001
0000
0000
0010
0000
0000
0000
0000
0000
0100
0000
0000
0000
0000
0000
1000
0000
0000
0000
0000
0000
0010
0000
0000
0100
0000
0000
0000
0001
0000
0000
0000
0100
0000
0000
0000
,  // measure 33
0001
0000
0000
0000
0000
0000
1000
0000
0010
0000
1000
0000
0010
0000
0000
0100
0000
0000
1000
0000
0000
0001
0000
0000
,  // measure 34
0100
0001
0100
0000
0010
1000
0010
0000
0001
0010
0001
0000
0100
1000
0100
0000
,  // measure 35
1000
0001
1000
0000
0001
0010
0001
0000
1000
0001
1000
0000
0010
1000
0010
0000
,  // measure 36
0100
0010
0100
0000
0001
1000
0001
0000
0010
0100
0010
0000
1000
0001
1000
0000
,  // measure 37
0010
1000
0100
0000
0010
0001
0100
0000
0001
0000
0100
0000
1000
0000
0100
0000
,  // measure 38
0001
0100
0001
0000
1000
0010
1000
0000
0100
0010
0100
0000
1000
0001
1000
0000
,  // measure 39
0100
1000
0100
0000
0010
0001
0010
0000
0100
1000
0100
0000
0010
0001
0010
0000
,  // measure 40
0001
0100
0001
0000
0100
0010
0100
0000
0010
1000
0010
0000
1000
0001
1000
0000
,  // measure 41
0010
1000
0010
0000
0100
0010
0100
0000
0010
0000
1000
0000
0100
0000
0010
0000
,  // measure 42
0001
0000
1000
0000
0000
0100
0000
0000
1000
0000
0000
0001
0000
0000
1000
0100
,  // measure 43
1000
0000
0010
0000
0000
0100
0000
0000
0001
0000
0000
1000
0000
0000
0010
0100
,  // measure 44
0010
0000
1000
0000
0000
0100
0000
0000
0010
0000
0000
0001
0000
0000
1000
0001
,  // measure 45
0010
0000
0001
0000
0000
0100
0000
0000
0010
0000
0000
1000
0000
0000
0001
0000
,  // measure 46
0101
0000
0100
0000
0000
0010
0000
0000
1000
0000
0000
0001
0000
0000
1000
0010
,  // measure 47
1000
0000
0100
0000
0000
0010
0000
0000
0001
0000
0000
0100
0000
0000
0001
1000
,  // measure 48
0100
0000
1000
0000
0000
0001
0000
0000
0100
0000
0000
0001
0000
0000
1000
0010
,  // measure 49
0100
0000
0010
0000
0000
1000
0000
0000
0100
0000
0100
0000
0010
0000
0010
0000
,  // measure 50
0001
0000
1000
0100
1000
0000
0001
0010
0001
0000
0100
0010
0100
0000
0010
0000
,  // measure 51
1000
0000
0001
0100
0001
0000
1000
0010
1000
0000
0010
0100
0010
0000
1000
0000
,  // measure 52
0001
0000
1000
0010
0100
0000
0010
0100
0001
0000
1000
0001
0010
0000
0100
0000
,  // measure 53
1000
0000
0001
0100
0010
0000
1000
0010
0100
0001
0100
0001
1000
0010
1000
0010
,  // measure 54
0100
0000
0010
1000
0100
0000
0010
0001
0100
0000
0001
1000
0010
0000
0100
0000
,  // measure 55
1000
0000
0100
0001
0010
0000
0100
1000
0001
0000
1000
0001
1000
0000
0010
0000
,  // measure 56
0100
0000
0010
0100
0001
0000
0010
0100
1000
0000
0001
1000
0010
0000
1000
0000
,  // measure 57
0001
0000
1000
0010
0100
0000
0001
0100
0010
1000
0001
0100
0010
1000
0001
0100
,  // measure 58
0020
2000
3030
0000
;
