#TITLE:Forogj Vilag;
#SUBTITLE:;
#ARTIST:Nox;
#TITLETRANSLIT:;
#SUBTITLETRANSLIT:;
#ARTISTTRANSLIT:;
#CREDIT:;
#BANNER:Programmed Sun.png;
#BACKGROUND:Programmed Sun-bg.png;
#LYRICSPATH:;
#CDTITLE:!prof.png;
#MUSIC:Forogj Vilag.ogg;
#OFFSET:-0.140;
#SAMPLESTART:69.980;
#SAMPLELENGTH:13.360;
#SELECTABLE:YES;
#BPMS:0.000=140.010;
#STOPS:;
#BGCHANGES:;

//---------------dance-single - ----------------
#NOTES:
     dance-single:
     :
     Challenge:
     10:
     0.677,0.727,0.328,0.225,0.385: // measure 1
0000
0000
0000
0000
,  // measure 2
0000
0000
0000
0000
,  // measure 3
0000
0000
0000
0000
0000
0000
0000
0000
0010
0000
0100
0001
0100
0000
0010
0000
,  // measure 4
1000
0000
0100
0010
0100
0000
0010
0000
0001
0000
0100
0000
0001
0000
1000
0000
,  // measure 5
0100
0010
0100
1000
0100
0000
0000
0000
0100
0000
1000
0001
1000
0000
0100
0000
,  // measure 6
0010
0000
0001
1000
0010
0000
0100
0000
0100
1000
0100
0010
0001
0000
0100
0000
,  // measure 7
0001
0000
0100
0000
0010
0000
1000
0000
0000
0000
0000
0000
0001
0000
0000
0000
0000
0000
0000
0000
0000
0000
0000
0000
1000
0000
0000
0010
0000
0000
0100
0000
0000
0001
0000
0000
0100
0000
0000
0010
0000
0000
1000
0000
0000
0100
0000
0000
,  // measure 8
1000
0000
0000
0001
0000
0000
1000
0010
0100
0010
0000
0000
1000
0000
0000
0100
0000
0000
1000
0000
0000
0100
0000
0000
,  // measure 9
0010
0001
0100
0010
0100
0000
0000
0000
0001
0010
0100
1000
0100
0010
0001
0100
,  // measure 10
0010
0000
1000
0000
0010
0000
0100
0000
0001
0010
0100
0010
0001
0000
1000
0000
,  // measure 11
0001
0000
0000
0000
0010
0000
0000
0000
1100
0000
1000
0100
0010
0000
0001
0000
,  // measure 12
0100
0000
0010
1000
0001
0000
0100
0000
0010
0000
1000
0000
0001
0000
0010
0000
,  // measure 13
0100
0010
0100
1000
0020
0000
0000
0000
0130
0000
0001
0010
0100
0000
1000
0000
,  // measure 14
0001
0000
1000
0100
1000
0000
0001
0000
0010
0100
1000
0001
0010
0000
0100
0000
,  // measure 15
1000
0000
0100
0000
0010
0000
0001
0000
0000
0000
0000
0000
2000
0000
0000
0000
0000
0000
0000
0000
0000
0000
0000
0000
3001
0000
0000
0010
0000
0000
0100
0000
0000
1000
0000
0000
0001
0000
0000
0100
0000
0000
0001
0000
0000
1000
0000
0000
,  // measure 16
0001
0000
0000
0010
0000
0000
0100
1000
0100
1000
0000
0000
0001
0000
0000
0100
0000
0000
0010
0000
0000
1000
0000
0000
,  // measure 17
0001
0010
0100
1000
0001
0000
0000
0000
0100
0010
1000
0010
0100
0001
1000
0010
,  // measure 18
0100
0000
0010
0000
1000
0000
0100
0000
0010
0001
1000
0010
1000
0000
0100
0000
,  // measure 19
1000
0000
MM00
0000
0001
0010
M000
0010
,  // measure 20
0200
0000
000M
0000
1300
0010
0M00
0010
,  // measure 21
0200
0000
0301
0010
0100
0020
0000
0031
,  // measure 22
0010
0000
M100
0000
0200
0000
000M
1300
,  // measure 23
0001
0100
0010
1000
0000
0000
001M
0000
0000
0100
0000
0000
0001
0000
0000
0010
0000
0000
M000
0000
0000
0010
0000
0000
,  // measure 24
0200
0000
000M
0000
1300
0100
000M
0100
,  // measure 25
0010
0000
0M01
0000
1000
0001
0000
0200
,  // measure 26
0000
0000
0000
0000
0000
0000
0000
0000
0000
0301
0000
0000
0100
0010
1000
0010
0000
0000
0100
0000
0000
0001
0000
0000
,  // measure 27
1000
0001
0100
0010
0000
0000
1000
0000
0000
0010
0000
0000
0100
0000
0000
0002
0000
0000
0000
0000
0000
0100
0000
0000
,  // measure 28
0203
0000
0000
0310
1000
0002
0000
0100
,  // measure 29
0100
0000
0100
0000
0010
0023
0000
0100
,  // measure 30
0100
0000
0031
0000
0011
0000
0000
0010
,  // measure 31
0100
0000
0000
1000
0000
0000
0001
0010
0100
0010
0000
0000
0100
0000
0000
2000
0000
0000
0000
0000
0000
3001
0000
0000
,  // measure 32
0200
0000
0000
0000
0310
1000
0000
0100
,  // measure 33
0020
0032
2003
0000
,  // measure 34
0000
0000
0000
0000
3020
0000
0000
0000
0130
0001
0100
0010
1000
0010
0100
0001
,  // measure 35
2000
0000
0000
3000
1000
0100
0110
0010
,  // measure 36
0001
0010
0011
0000
0000
0100
1100
0010
,  // measure 37
0001
1000
1001
0000
0000
0100
1100
0100
,  // measure 38
0010
0001
0101
0100
0010
0000
1010
1001
,  // measure 39
0000
0000
0100
0000
0000
1000
1100
0100
,  // measure 40
0010
0100
0110
0000
0000
0010
0011
0001
,  // measure 41
0100
0001
1001
0000
0000
0010
0100
1000
,  // measure 42
0100
0010
0001
1000
2020
0000
0000
0000
,  // measure 43
3030
0000
1010
0000
0000
0010
0110
0100
,  // measure 44
0001
0010
0011
0000
0000
0100
1100
0100
,  // measure 45
1000
0100
1100
0000
0000
0001
0010
0100
,  // measure 46
1000
0100
0010
0100
2000
0000
3002
0020
,  // measure 47
0000
0033
0011
0000
0000
1000
1001
0100
,  // measure 48
0010
0001
0011
0000
0000
0001
0011
0001
,  // measure 49
1000
0001
1001
0000
0000
1000
0100
0010
,  // measure 50
0001
0010
0001
1000
0010
0000
1000
1000
,  // measure 51
0000
0000
0000
0000
0000
0000
0000
0000
0001
0000
0010
0100
1000
0001
0100
0000
,  // measure 52
0010
0000
1000
0010
0100
0001
1000
0000
0010
0000
0100
0000
0001
0100
0001
1000
,  // measure 53
0001
0000
0010
0000
0100
0000
0000
0000
1000
0000
0001
0010
0001
0010
0001
0000
,  // measure 54
1000
0000
0010
1000
0010
1000
0001
0000
0100
0000
0010
0000
1000
0010
1000
0100
,  // measure 55
0010
0000
0011
0000
0001
0010
0100
1000
,  // measure 56
0100
0000
1000
0000
0000
0100
0010
0000
0001
0000
1000
0000
0010
0000
0100
0000
,  // measure 57
0100
0001
1000
0010
0000
0000
0100
0000
0000
0000
0000
0000
0001
0000
0000
0010
0000
0000
0100
0000
0000
1000
0000
0000
,  // measure 58
0010
0000
0100
0000
0000
0100
0001
0000
0010
0100
1000
0010
0100
0001
1000
0100
,  // measure 59
1000
0000
0000
0000
0001
0000
0000
0000
1100
0000
0000
0110
0000
0000
0110
0000
,  // measure 60
0000
0000
1001
0100
0010
0100
0010
0100
,  // measure 61
0010
0000
0100
0000
0010
0000
0100
0000
0110
0000
0000
0000
1100
0000
0000
0110
,  // measure 62
0000
0110
0010
0001
0010
0001
1000
0001
,  // measure 63
1001
0000
0000
0000
;

//---------------dance-single - ----------------
#NOTES:
     dance-single:
     :
     Hard:
     8:
     0.531,0.494,0.056,0.225,0.019:
0000
0000
0000
0000
,
0000
0000
0000
0000
,
0000
0000
0000
0000
1000
0100
0001
0100
,
0010
0100
1000
0010
0100
0001
0100
0001
,
0100
1000
0100
0000
0001
0100
0100
0010
,
1000
0001
0001
0010
0100
0100
0100
1000
,
0001
0000
0010
0000
0100
0100
1000
1000
,
0010
0100
0001
0010
0100
1000
0010
0100
,
0010
1000
0010
0000
0001
0100
0100
0001
,
0010
1000
0010
0100
0001
0100
0001
1000
,
0001
0000
0010
0000
0100
1000
0010
0001
,
0010
0100
0001
0010
1000
0010
0100
0010
,
0001
0010
0020
0000
0031
1000
0100
1000
,
0001
0100
0100
0001
0010
0100
1000
0100
,
1000
0000
2000
0000
3001
0100
0001
0001
,
0001
0010
0100
1000
0001
0100
0010
1000
,
0001
0100
0001
0000
0100
0010
1000
0010
,
0100
0001
1000
0010
0100
0001
0010
0100
,
1000
0000
0000
0000
0001
0010
0000
0010
,
0200
0000
0000
0000
1300
0010
0000
0010
,
0200
0000
0301
0010
0100
0020
0000
0031
,
0010
0000
0100
0000
0200
0000
0000
1300
,
0001
1000
0010
0100
0001
0010
0000
0010
,
0200
0000
0000
0000
1300
0100
0000
0100
,
0010
0000
0001
0000
1000
0001
0000
0200
,
0000
0000
0000
0301
0100
0010
0100
0001
,
1000
0010
1000
0010
0100
0002
0000
0103
,
0200
0000
0000
0310
1000
0002
0000
0103
,
0010
0000
1000
0000
0100
0020
0000
0031
,
0100
0000
0001
0000
0011
0000
0000
0010
,
0100
1000
0001
0010
0100
2000
0000
3001
,
0200
0000
0000
0000
0310
1000
0000
0100
,
0020
0032
2003
0000
,
0000
0000
3020
0000
0130
0001
1000
0100
,
2000
0000
0000
3000
1000
0100
0010
0001
,
0010
0100
0010
0000
0000
0001
0100
1000
,
0100
0010
1000
0000
0000
0100
0010
0001
,
0100
1000
0100
0001
0010
0000
1000
0100
,
0000
0000
0100
0000
0000
1000
0100
0010
,
0001
0100
0010
0000
0000
1000
0010
1000
,
0001
1000
0100
0000
0000
1000
0100
0010
,
0001
0100
0010
1000
2020
0000
0000
0000
,
3030
0000
1000
0000
0000
0100
0010
0001
,
0100
0010
0010
0000
0000
0010
1000
0100
,
0010
0001
0100
0000
0000
0010
1000
0010
,
0100
0001
0010
0100
2000
0000
3002
0020
,
0000
0033
0001
0000
0000
1000
0001
0100
,
0001
0100
0001
0000
0000
0010
0100
1000
,
0010
0100
0001
0000
0000
1000
0100
0010
,
0001
0010
0001
1000
0010
0000
1000
1000
,
0000
0000
0000
0000
0001
0010
0100
1000
,
0001
1000
0100
1000
0010
0100
0001
0001
,
0001
0010
0100
0000
1000
0010
0010
0010
,
1000
0010
0010
1000
0100
0010
0001
0100
,
0010
0000
1000
0000
0001
0010
0100
1000
,
0001
0000
0010
0000
0000
0010
0100
0000
0100
0000
1000
0000
0010
0000
0100
0000
,
0001
0100
0001
0000
0001
0010
0100
1000
,
0010
0000
0100
0000
0000
0100
0001
0000
0010
0000
1000
0000
0100
0000
1000
0000
,
1000
0000
0000
0000
0001
0000
0000
0000
1100
0000
0000
0110
0000
0000
0110
0000
,
0000
0000
1000
0100
0010
0001
0100
0001
,
0100
0000
0010
0000
1000
0000
0100
0000
0010
0000
0000
0000
0001
0000
0000
0100
,
0000
0010
1000
0001
0100
0001
1000
0001
,
1001
0000
0000
0000
;

//---------------dance-single - ----------------
#NOTES:
     dance-single:
     :
     Medium:
     6:
     0.394,0.407,0.066,0.225,0.009:
0000
0000
0000
0000
,
0000
0000
0000
0000
,
0000
0000
0000
0000
1000
0100
0010
0000
,
0001
0010
0100
0000
1000
0000
0010
0000
,
0100
0001
0100
0000
0010
1000
0010
0000
,
0100
0010
0100
0000
0001
0000
0010
0000
,
0100
0000
1100
0000
0001
0010
0001
0000
,
0010
0100
1000
0000
0001
0000
0010
0000
,
0100
1000
0100
0000
0010
0001
0100
0000
,
0010
0000
1000
0000
0010
0100
0001
0000
,
0100
0000
0001
0000
0010
0100
0010
0000
,
0100
0010
0100
0000
1000
0000
0010
0000
,
0100
0001
0100
0000
0010
1000
0010
0000
,
1000
0010
0100
0000
0001
0000
0010
0000
,
0100
0000
1100
0000
0001
0010
0001
0000
,
0100
0001
1000
0000
0001
0000
0100
0000
,
0010
1000
0010
0000
0100
0000
0010
0000
,
0001
0000
1000
0000
0100
0010
0001
0000
,
0110
0000
0000
0000
0001
0010
0000
0010
,
0200
0000
0000
0000
1300
0010
0000
0010
,
0200
0000
0301
0010
0100
0020
0000
0031
,
0010
0000
0100
0000
0200
0000
0000
1300
,
0001
0000
0010
0100
1000
0001
0000
0100
,
0020
0000
0000
0000
1030
0100
0000
0100
,
0010
0000
0001
0000
1000
0001
0000
0200
,
0000
0000
0000
0301
0100
0000
0010
0000
,
1000
0000
0010
0000
0100
0002
0000
0103
,
0200
0000
0000
0310
1000
0002
0000
0103
,
0010
0000
1000
0000
0100
0020
0000
0031
,
0100
0000
0001
0000
0011
0000
0000
0010
,
0100
0000
1000
0000
0100
2000
0000
3001
,
0200
0000
0000
0000
0310
1000
0000
0100
,
0020
0032
2003
0000
,
0000
0000
3020
0000
0130
0001
1000
0100
,
2000
0000
0000
3000
0000
0000
0001
0000
,
0001
0010
0001
0000
0000
0000
0010
0000
,
0100
0010
0100
0000
0000
1000
0100
0000
,
0010
0000
0001
0000
0010
0000
0100
1000
,
0000
0001
0000
0010
,
0100
1000
0001
0000
0000
0000
0010
0000
,
0010
0100
0010
0000
0000
1000
0100
0000
,
0010
0001
2020
0000
,
3030
1000
0000
0001
,
0100
0010
1000
0000
0000
0000
1000
0000
,
0010
0100
0010
0000
0000
0000
1000
0000
,
0100
0000
0010
0000
0001
0000
2000
0200
,
3000
0300
1000
0000
0000
0000
0001
0000
,
0010
0100
0010
0000
0000
0000
0001
0000
,
1000
0100
0010
0000
0000
0000
0001
0000
,
0010
0000
0100
0000
1000
0000
0010
0010
,
0000
0000
0000
0000
1000
0100
1000
0000
,
0001
1000
0100
0000
1000
0000
0100
0010
,
0200
0000
0000
0000
1300
0000
0010
0100
,
0001
0000
0001
1000
0100
0000
0010
0001
,
0200
0000
0310
1000
,
0200
0000
0310
0001
,
1000
0100
0010
0001
,
0010
0000
0100
1000
,
0010
0000
0000
0000
0110
0000
0000
0000
0010
0000
0000
0001
0000
0000
0010
0000
,
0000
0001
0010
0100
,
0100
0000
0000
0000
1000
0000
0000
0000
0010
0000
0000
0000
1000
0000
0000
0001
,
0000
0010
0100
0000
1000
0000
0001
0000
,
1001
0000
0000
0000
;

//---------------dance-single - ----------------
#NOTES:
     dance-single:
     :
     Easy:
     2:
     0.196,0.203,0.009,0.038,0.000:
0000
0000
0000
0000
,
0000
0000
0000
0000
,
0000
0000
1000
0000
,
0100
0000
0010
0000
,
0001
0000
1000
0000
,
1000
0000
0010
0000
,
0100
0000
0001
0000
,
0010
0000
0100
0000
,
1000
0000
0010
0000
,
0010
0000
1000
0000
,
1000
0000
0001
0000
,
0010
0000
0100
0000
,
0100
0000
0010
0000
,
0001
0000
0010
0000
,
0010
0000
0002
0000
,
0013
0000
0200
0000
,
1300
0000
0001
0010
,
0100
0000
1000
0010
,
0100
0000
0001
0000
,
0001
0000
0010
0000
,
0010
0000
0100
0000
,
0100
1000
0010
0000
,
0100
0000
0001
0000
,
0001
0000
0010
0000
,
0010
0100
1000
0000
,
0000
0000
0001
0000
,
0100
0000
0001
0000
,
0100
0000
0001
0000
,
0010
0000
0100
0000
,
1000
0010
0100
0000
,
0001
0000
0010
0000
,
0100
0000
1000
0000
,
0010
0100
0001
0000
,
0000
0020
0000
0000
,
0130
0000
0000
1000
,
0001
0010
0000
0010
,
0100
1000
0000
0001
,
0000
0000
0001
0000
0010
0000
0000
0010
,
0000
0000
0000
0100
,
1000
0010
0000
0010
,
0100
0001
0000
0010
,
0100
1000
0002
0000
,
0000
1003
0000
0100
,
0010
0100
0000
0010
,
0001
0010
0000
0100
,
1000
0000
0010
0000
0100
0000
0000
0001
,
0000
0000
0000
0010
,
0100
0010
0000
0100
,
1000
0100
0000
0010
,
0001
0000
0100
0000
0010
0000
0000
1000
,
0000
0000
0001
0000
,
0010
0000
0100
1000
,
0010
0000
0100
0000
,
0001
0000
0010
0100
,
1000
0000
0010
0100
,
0001
0000
0010
0100
,
1000
0000
0001
0010
,
0100
0000
1000
0010
,
1000
0000
0000
0000
0001
0000
0000
0100
,
0000
0001
0000
0000
,
0000
0000
0000
0000
0010
0000
0000
0100
,
0000
1000
0001
1001
;
