#TITLE:Boten Anna;
#SUBTITLE:;
#ARTIST:Basshunter;
#TITLETRANSLIT:;
#SUBTITLETRANSLIT:;
#ARTISTTRANSLIT:;
#GENRE:;
#CREDIT:;
#BANNER:Non-English - Boten Anna.png;
#BACKGROUND:Non-English - Boten Anna-BG.png;
#LYRICSPATH:;
#CDTITLE:./CDTitles/SpyHunter29 Originals.png;
#MUSIC:Non-English - Boten Anna.mp3;
#OFFSET:-0.686703;
#SAMPLESTART:15.430000;
#SAMPLELENGTH:12.000000;
#SELECTABLE:YES;
#BPMS:0.000000=140.000000,130.000000=70.000000,148.000000=140.000000;
#STOPS:32.000000=0.857142
,129.666672=1.714287
;
#DELAYS:;
#TIMESIGNATURES:0.000000=4=4
;
#BGCHANGES:;
#KEYSOUNDS:;
#ATTACKS:;

//---------------dance-single - BEGINNER----------------
#NOTES:
     dance-single:
     BEGINNER:
     Beginner:
     1:
     0.122,0.201,0.057,0.000,0.000: // measure 1
0000
0000
0000
0000
,  // measure 2
0000
0000
0000
0000
,  // measure 3
0000
0000
0000
0000
,  // measure 4
0000
0000
0000
0000
,  // measure 5
0001
0000
0000
0000
,  // measure 6
0001
0000
0000
0000
,  // measure 7
1000
0000
0000
0000
,  // measure 8
1000
0000
0000
0000
,  // measure 9
0001
0000
0001
0000
,  // measure 10
0000
0000
0001
0000
,  // measure 11
0100
0000
0001
0000
,  // measure 12
0000
0000
1000
0000
,  // measure 13
0100
0000
1000
0000
,  // measure 14
0000
0000
0010
0000
,  // measure 15
1000
0000
0010
0000
,  // measure 16
0000
0000
0010
0000
,  // measure 17
0001
0000
1001
0000
,  // measure 18
0000
0000
0001
0000
,  // measure 19
1000
0000
0100
0000
,  // measure 20
0000
0000
1000
0000
,  // measure 21
0001
0000
0100
0000
,  // measure 22
0000
0000
0010
0000
,  // measure 23
0100
0000
0001
0000
,  // measure 24
0000
0000
0010
0000
,  // measure 25
1000
0000
1001
0000
,  // measure 26
0000
0000
0001
0000
,  // measure 27
0010
0000
0100
0000
,  // measure 28
0000
0000
1000
0000
,  // measure 29
0010
0000
0100
0000
,  // measure 30
0000
0000
0001
0000
,  // measure 31
0100
0000
1000
0000
,  // measure 32
0000
0000
0100
0000
,  // measure 33
0001
0000
1000
0000
,  // measure 34
1000
0000
0001
0000
,  // measure 35
0001
0000
0100
0000
,  // measure 36
0100
0000
0010
0000
,  // measure 37
0010
0000
1001
1001
,  // measure 38
1001
0000
1000
0000
,  // measure 39
0001
0000
0001
0000
,  // measure 40
0100
0000
0100
0000
,  // measure 41
0010
0000
0010
0000
,  // measure 42
1000
0000
1000
0000
,  // measure 43
0010
0000
0010
0000
,  // measure 44
1000
0000
1000
0000
,  // measure 45
0001
0000
0001
0000
,  // measure 46
1001
0000
0001
0000
,  // measure 47
0100
0000
0001
0000
,  // measure 48
1000
0000
0100
0000
,  // measure 49
1000
0000
0100
0000
,  // measure 50
0010
0000
0001
0000
,  // measure 51
0010
0000
0001
0000
,  // measure 52
0100
0000
0010
0000
,  // measure 53
0100
0000
0010
0000
,  // measure 54
0100
0000
0000
0000
;

//---------------dance-single - BASIC----------------
#NOTES:
     dance-single:
     BASIC:
     Easy:
     3:
     0.225,0.229,0.028,0.237,0.000: // measure 1
0000
0000
0000
0000
,  // measure 2
0000
0000
0000
0000
,  // measure 3
0000
0000
0000
0000
,  // measure 4
0000
0000
0000
0000
,  // measure 5
0000
0000
0000
0000
,  // measure 6
0010
0000
1000
0000
,  // measure 7
0100
0100
0000
0000
,  // measure 8
1000
0001
1000
0001
,  // measure 9
1000
0001
2002
0000
,  // measure 10
3003
0000
1000
0100
,  // measure 11
0010
0001
2000
0000
,  // measure 12
3000
0000
0010
0100
,  // measure 13
0001
1000
0020
0000
,  // measure 14
0030
0000
0010
0000
,  // measure 15
1000
0000
0100
0000
,  // measure 16
1000
0000
0001
0100
,  // measure 17
0001
1000
2002
0000
,  // measure 18
3003
0001
0100
0010
,  // measure 19
1000
0001
0020
0000
,  // measure 20
0030
0001
0100
0010
,  // measure 21
1000
0001
0200
0000
,  // measure 22
0300
1000
0200
0300
,  // measure 23
0020
0030
0020
0200
,  // measure 24
0330
0010
0001
0100
,  // measure 25
0010
1000
2002
0000
,  // measure 26
3003
0001
1000
0010
,  // measure 27
1000
0001
0200
0000
,  // measure 28
0300
0010
0100
0001
,  // measure 29
0010
0100
2000
0000
,  // measure 30
3000
1000
0020
0030
,  // measure 31
0200
0300
0200
0020
,  // measure 32
0330
0000
0001
1000
,  // measure 33
0001
1000
0001
0000
,  // measure 34
1000
0000
0100
0000
,  // measure 35
0010
0000
0001
0001
,  // measure 36
1000
1000
0100
0100
,  // measure 37
0010
0000
0010
0000
0001
1000
0001
0000
,  // measure 38
0001
1000
0001
0000
,  // measure 39
1000
0100
1000
0000
,  // measure 40
0001
0100
0010
0100
,  // measure 41
0001
1000
0010
0000
,  // measure 42
1000
0010
1000
0000
,  // measure 43
0001
0010
0001
0000
,  // measure 44
0100
0010
0100
0000
,  // measure 45
0010
1000
0001
0100
,  // measure 46
0002
0003
0100
0010
,  // measure 47
2000
3000
0001
0000
,  // measure 48
0020
0030
0001
1000
,  // measure 49
0200
0300
1000
0000
,  // measure 50
0100
1000
0010
1000
,  // measure 51
0100
0000
1000
0000
,  // measure 52
0010
0001
0100
0001
,  // measure 53
0010
0000
0001
0000
,  // measure 54
0200
0000
0300
0000
;

//---------------dance-single - DIFFICULT----------------
#NOTES:
     dance-single:
     DIFFICULT:
     Medium:
     7:
     0.408,0.487,0.199,0.133,0.351: // measure 1
0000
0000
0000
0000
,  // measure 2
0000
0000
0000
0000
,  // measure 3
0000
0000
0000
0000
,  // measure 4
0000
0000
0000
0000
,  // measure 5
0000
0000
0000
1000
,  // measure 6
0020
0031
0020
1030
,  // measure 7
0200
0020
0330
0010
,  // measure 8
0001
0000
0000
0100
0000
0000
0010
0000
0000
1000
0001
0000
,  // measure 9
1001
0000
0000
0001
1000
0000
1001
0000
0000
1000
0000
0000
,  // measure 10
0100
0100
0010
0001
,  // measure 11
0010
0000
0001
0010
0000
0001
0100
0000
0000
0100
0000
0000
,  // measure 12
0010
0010
1000
0001
,  // measure 13
1000
0000
0010
1000
0000
0001
0100
0000
0000
1010
0000
0000
,  // measure 14
1000
0000
0000
0100
0000
0010
0001
0000
0000
0011
0000
0000
,  // measure 15
0001
0000
0000
0010
0000
0100
1000
0000
0000
1100
0000
0000
,  // measure 16
1000
0000
0000
0001
0000
0000
0100
0000
0100
0010
0000
0010
,  // measure 17
0100
0000
0000
0001
1000
0000
1001
0000
0000
1000
0000
0000
,  // measure 18
0100
0000
0000
0010
0000
0001
0010
0000
0000
0100
0000
0000
,  // measure 19
1000
0000
0100
1000
0000
0001
0010
0000
0000
0001
0000
0000
,  // measure 20
0100
0000
0000
0010
0000
1000
0010
0000
0000
1000
0000
0000
,  // measure 21
0001
0000
0100
0010
0000
0100
0001
0000
0000
1000
0000
0000
,  // measure 22
0010
1000
0200
1300
,  // measure 23
0020
0031
1100
0022
,  // measure 24
0033
0000
0000
0010
0000
0000
0001
0000
0001
0100
0000
0100
,  // measure 25
0010
0000
0000
0010
1000
0000
1001
0000
0000
0010
0000
0000
,  // measure 26
0100
0000
0000
1000
0000
0100
0010
0000
0000
0001
0000
0000
,  // measure 27
0100
0000
0001
0010
0000
0001
0100
0000
0000
0010
0000
0000
,  // measure 28
1000
0000
0000
0001
0000
0100
0010
0000
0000
1000
0000
0000
,  // measure 29
0001
0000
1000
0100
0000
0001
0100
0000
0000
1000
0000
0000
,  // measure 30
0010
0100
0002
0103
,  // measure 31
2000
3100
0002
2000
,  // measure 32
0000
3003
0010
0010
,  // measure 33
0100
0000
0000
0100
0000
0000
0010
0000
0000
0010
0010
0010
,  // measure 34
0001
0000
0000
0100
0100
0100
1000
0000
0000
0100
0100
0100
,  // measure 35
0010
0000
0000
0000
0000
0000
1000
0000
1000
0000
1000
0000
0001
0000
0000
1000
0000
0000
0100
0000
0010
0000
0001
0000
,  // measure 36
1000
0000
0000
0010
0000
0000
1000
0000
0010
0000
0100
0000
0001
0000
0000
0010
0000
0000
0100
0000
1000
0000
0001
0000
,  // measure 37
0100
0000
0000
0010
0000
0000
0100
0000
0001
0000
1000
0000
1010
0000
0000
0011
0000
0000
1100
0000
0000
0101
0000
0000
,  // measure 38
1000
0000
0100
1000
0000
0000
0001
0000
0010
0000
0100
0000
,  // measure 39
1000
0000
0100
1000
0000
0000
0001
0000
0000
1001
0000
0000
,  // measure 40
0100
0000
0010
0100
0000
0000
0010
0000
0100
0000
0010
0000
,  // measure 41
1000
0000
0001
1000
0000
0000
0100
0000
0000
0110
0000
0000
,  // measure 42
1000
0000
0010
0001
0000
0000
0010
0000
1000
0000
0100
0000
,  // measure 43
0010
0000
0001
0010
0000
0000
0100
0000
0000
1001
0000
0000
,  // measure 44
0100
0000
1000
0001
0000
0000
0100
0000
0010
0000
0100
0000
,  // measure 45
0001
0000
1000
0010
0000
0000
1000
0000
0000
0101
0000
0000
,  // measure 46
0001
0000
0001
0100
0000
0000
0010
0000
0010
1000
0000
0000
,  // measure 47
0100
0000
0100
0001
0000
0000
0101
0000
0000
1010
0000
0000
,  // measure 48
0100
0000
1000
0100
0000
0000
0010
0000
0001
0010
0000
0000
,  // measure 49
0001
0000
1000
0001
0000
0000
0110
0000
0000
1001
0000
0000
,  // measure 50
0010
0000
1000
0010
0000
0000
0100
0000
0001
0100
0000
0000
,  // measure 51
0100
0000
0001
1000
0000
0000
0100
0000
0000
1000
0000
0100
,  // measure 52
0010
0000
0001
0100
0000
0000
0010
0000
1000
0100
0000
0000
,  // measure 53
1000
0000
0001
0100
0000
0100
0010
0000
0010
1000
0000
2000
,  // measure 54
0002
0000
0000
0000
,  // measure 55
3003
0000
0000
0000
;

//---------------dance-single - EXPERT----------------
#NOTES:
     dance-single:
     EXPERT:
     Hard:
     9:
     0.556,0.718,0.123,0.047,1.000: // measure 1
0000
0000
0000
0000
,  // measure 2
0000
0000
0000
0000
,  // measure 3
0000
0000
0000
0000
,  // measure 4
0000
0000
0000
0000
,  // measure 5
0000
0000
0000
0000
0000
0000
0000
0000
1000
0100
0000
0100
,  // measure 6
1000
0000
0000
0001
0000
0100
0000
0000
0010
1000
0000
0001
,  // measure 7
0000
0000
0100
0000
0000
0000
0000
0000
0010
0100
0000
0100
,  // measure 8
0001
0000
0001
1000
0000
1000
0010
0000
1000
0001
0100
0000
,  // measure 9
1001
0000
0100
0001
1000
0000
1001
0000
1000
0100
0000
0100
,  // measure 10
0010
0000
0010
0001
0000
0001
0100
0000
0001
0000
0000
0100
,  // measure 11
0000
0000
0010
1000
0000
0001
0100
0000
0100
0010
0000
0010
,  // measure 12
1000
0000
0001
0100
0000
1000
0100
0000
1000
0000
0000
0001
,  // measure 13
0000
0000
0010
0001
0000
0100
0010
0000
0000
0110
0000
1000
,  // measure 14
0100
0000
0000
0110
0000
0001
0100
0000
0000
1001
0000
0100
,  // measure 15
0010
0000
0000
1001
0000
0010
0100
0000
0000
0110
0000
1000
,  // measure 16
0001
0000
0000
1000
0000
0001
0100
0000
0100
0010
0000
0010
,  // measure 17
1000
0000
0010
1000
0100
0000
1001
0000
1000
0100
0000
0010
,  // measure 18
0001
0000
1000
0010
0000
0100
0010
0000
1000
0000
0000
0001
,  // measure 19
0000
0000
1000
0001
0000
0100
1000
0000
0100
0001
0000
1000
,  // measure 20
0010
0000
0001
0010
0000
1000
0010
0000
0100
0001
0000
0001
,  // measure 21
0100
0000
0010
1000
0000
1000
0010
0000
1000
0100
0000
0010
,  // measure 22
0001
0000
1000
0100
0000
0020
0000
0000
0031
0100
0000
0020
,  // measure 23
0000
0000
1030
0100
0000
0010
0001
0000
0001
0100
0000
0010
,  // measure 24
1000
0000
1000
0100
0000
1000
0001
0000
0100
1000
0000
0001
,  // measure 25
0100
0000
1000
0010
0100
0000
0102
0000
0000
1003
0000
0000
,  // measure 26
0100
0000
0010
0001
0000
1000
0100
0000
0010
0000
0000
0001
,  // measure 27
0000
0000
1000
0100
0000
0100
0010
0000
0010
0001
0000
0001
,  // measure 28
1000
0000
0010
0100
0000
0100
0010
0000
0000
1000
0000
0001
,  // measure 29
0000
0000
1000
0100
0000
0001
0100
0000
0100
0010
0000
1000
,  // measure 30
0010
0000
0010
0001
0000
0010
1000
0000
0000
0001
0000
0010
,  // measure 31
0000
0000
1000
0100
0000
0010
0001
0000
0000
0100
0000
0000
,  // measure 32
0010
0000
0000
1000
0000
0000
0010
0000
1000
0001
0000
0100
,  // measure 33
0000
0000
0000
0000
0001
0000
1000
0000
0000
0000
0100
0000
0010
0100
0010
0001
0000
0000
1000
0000
0100
0000
0010
0000
,  // measure 34
0001
0100
0001
0010
0000
0000
0001
0000
0100
0000
0010
0000
1000
0001
1000
0100
0000
0000
1000
0000
0010
0000
0100
0000
,  // measure 35
0001
1000
0100
1000
0000
0000
0010
0000
0100
0000
0001
0000
1000
0010
0100
0001
0000
0000
0010
0000
0001
0000
0100
0000
,  // measure 36
1000
0100
0010
0001
0000
0000
0010
0000
0001
0000
1000
0000
0010
1000
0010
0100
0000
0000
1000
0000
0100
0000
0001
0000
,  // measure 37
0010
0001
0010
0100
0000
0000
0001
0000
0100
0000
1000
0000
1001
0000
0000
0110
0000
0000
1001
0000
0000
1001
0000
0000
,  // measure 38
1000
0100
1000
0001
0000
1000
0010
0000
0100
0000
0001
0000
,  // measure 39
1000
0010
0100
0010
0000
1000
0100
0000
0010
0000
0001
0000
,  // measure 40
0010
0001
1000
0100
0000
1000
0001
0000
0100
0000
0010
0000
,  // measure 41
0100
0010
1000
0001
0000
1000
0010
0000
1000
0000
0100
0000
,  // measure 42
0010
0001
0010
0100
0000
1000
0001
0000
0100
0000
0010
0000
,  // measure 43
1000
0010
0100
0010
0000
1000
0001
0000
0100
0000
1000
0000
,  // measure 44
0100
0001
0100
0001
0000
1000
0100
0000
0010
0000
0001
0000
,  // measure 45
1000
0010
1000
0010
0000
1000
0010
0000
0100
0000
0010
0000
,  // measure 46
1000
0100
0010
0001
0000
1000
0100
0000
0010
0001
0000
0100
,  // measure 47
0010
0100
0001
1000
0000
0010
0100
0000
0001
1000
0000
0001
,  // measure 48
0010
0001
1000
0100
0000
1000
0001
0000
1000
0100
0000
1000
,  // measure 49
0001
0100
0001
0010
0000
0001
1000
0000
0010
0100
0000
0010
,  // measure 50
1000
0100
0010
0001
0000
1000
0100
0000
0010
0001
0000
0001
,  // measure 51
0100
0010
1000
0001
0000
0100
0010
0000
0010
1000
0010
0100
,  // measure 52
0001
0100
0010
1000
0000
1000
0100
0010
0001
0010
0000
0001
,  // measure 53
0010
0100
1000
0001
0000
1000
0100
0010
0001
0100
0010
1000
,  // measure 54
0200
0000
0020
0000
,  // measure 55
0330
0000
0000
0000
;
