#TITLE:Aini Lahellani;
#SUBTITLE:;
#ARTIST:G-Powered;
#TITLETRANSLIT:;
#SUBTITLETRANSLIT:;
#ARTISTTRANSLIT:;
#CREDIT:;
#BANNER:sandstormar.png;
#BACKGROUND:sandstormar-bg.png;
#LYRICSPATH:;
#CDTITLE:;
#MUSIC:G-Powered__Aina_l%E4hell%E4ni.ogg;
#OFFSET:-0.024;
#SAMPLESTART:56.280;
#SAMPLELENGTH:12.000;
#SELECTABLE:YES;
#BPMS:0.000=140.010,36.000=70.005,38.000=140.010;
#STOPS:;
#BGCHANGES:;

//---------------dance-single - ----------------
#NOTES:
     dance-single:
     :
     Medium:
     5:
     0.389,0.400,0.090,0.192,0.000:
0000
0000
0000
0000
,
1000
0000
0100
0000
0010
0000
0001
0100
,
0000
0010
1000
0010
0000
0100
0002
0000
,
0010
0100
0010
2003
,
0010
0000
3001
0000
0000
0010
0100
0000
,
1000
0000
0001
0000
1000
0100
1000
0001
,
0000
0000
0001
0010
0000
0000
0002
0000
,
1000
0010
0100
0103
,
0010
0010
1000
0010
0000
0100
0001
0000
,
0202
0000
0003
0000
0301
0000
0001
0100
,
0002
0000
0103
1000
,
0002
0000
0000
0000
0103
0000
0001
0010
,
0001
0100
0010
1000
,
0020
0000
0000
0000
0130
0001
0100
0000
,
0002
0000
0013
0100
,
2000
0000
0000
0000
3100
0000
1000
0010
,
0000
0200
0302
0103
,
0101
0000
0000
0000
0010
1000
0100
0000
,
0010
0000
0001
0000
1000
0010
1000
0000
,
0010
0000
0100
0000
0001
0000
0000
0010
,
0000
0100
1000
0100
,
0200
0000
0000
0000
0310
0001
0010
0000
,
0100
0000
1000
0000
0001
0100
0010
0000
,
1000
0000
0010
0100
0001
0000
0001
0100
,
0000
0000
0000
0000
0010
1000
0010
0000
,
0100
0000
2002
0000
,
3003
0000
0001
0000
0010
0001
0010
0000
,
0100
1000
0100
0000
0010
0000
0001
0010
,
0000
0000
0100
0000
0010
0001
0010
0000
,
0100
1000
0100
0000
0000
0000
0011
0000
,
0000
0000
0001
0000
0100
0010
0100
0000
,
0001
0010
0100
0000
1000
0000
0010
0000
,
0100
0000
0001
0000
0010
0001
0010
0000
,
0001
1000
0010
0000
0100
0000
0001
0000
,
0010
0000
0100
0000
1000
0100
0001
0000
,
0001
0100
1000
0000
0010
0000
0100
0001
,
0000
0000
0001
0000
0010
0100
0010
0000
,
0100
1000
0100
0000
0000
0000
0011
0000
,
0000
0000
1000
0000
0100
0010
0100
0000
,
0001
0010
0001
0000
0101
0000
0000
0000
,
1010
0000
0000
0000
1000
0010
1000
0000
,
0001
0100
0010
0000
1000
0000
0010
0000
,
1000
0200
0010
0001
,
0010
0000
0301
0010
0000
0100
1000
0010
,
0000
0200
0010
0001
,
0010
0000
0001
0000
0301
0000
0010
0100
,
0000
1000
0010
0000
0100
0001
0100
0000
,
0010
0000
1000
0001
0000
0010
0100
1000
,
0000
0001
0010
0000
0001
0000
0001
0000
,
0100
0000
0010
0000
1000
0000
0100
0010
,
0000
0001
1000
0000
1001
0000
0000
0000
;

//---------------dance-single - Copied from ----------------
#NOTES:
     dance-single:
     Copied from:
     Hard:
     8:
     0.541,0.432,0.057,0.192,0.062: // measure 1
0000
0000
0000
0000
,  // measure 2
1000
0010
0100
0001
0100
0010
1000
0100
,  // measure 3
0000
0010
0001
0010
0000
0100
1000
0010
,  // measure 4
0100
0001
0100
0010
1000
0010
0100
0001
,  // measure 5
0100
0001
0010
0100
0000
1000
0100
0001
,  // measure 6
0100
1000
0100
0010
0001
0010
0100
1000
,  // measure 7
0000
0010
0100
0001
0000
0100
0010
1000
,  // measure 8
0100
0010
0100
0001
0100
0010
0100
1000
,  // measure 9
0010
1000
0010
0100
0000
0001
0100
0010
,  // measure 10
2000
0000
0000
0000
3001
0000
0100
0010
,  // measure 11
0200
0000
0000
0310
0000
1000
0100
0010
,  // measure 12
0002
0000
0000
0000
2003
0000
3010
0100
,  // measure 13
0002
0000
0013
0100
1000
0010
0100
0001
,  // measure 14
0101
0000
0000
0000
0010
1000
0010
0100
,  // measure 15
0020
0000
0000
1030
0100
0010
0100
0010
,  // measure 16
0002
0000
0000
0003
0102
0000
1003
0010
,  // measure 17
0000
0000
1000
0010
0100
0001
0010
0001
,  // measure 18
0002
0000
0000
0000
0013
0100
1000
0010
,  // measure 19
0100
0000
0001
0010
0100
1000
0010
1000
,  // measure 20
0100
0000
0000
0000
0010
0000
0001
0000
0100
0000
0000
0001
0000
0000
0200
0000
,  // measure 21
0000
0000
0310
1000
0010
0100
0001
0010
,  // measure 22
0011
0000
0000
0000
0100
1000
0010
0100
,  // measure 23
0010
0000
0001
0010
0100
0010
1000
0001
,  // measure 24
0100
0000
0010
1000
0100
0000
0100
2000
,  // measure 25
0000
0000
0000
3001
0001
0100
0001
0000
,  // measure 26
0022
0000
0000
0000
0000
0000
0000
0033
,  // measure 27
0000
0000
1000
0100
1000
0010
1000
0001
,  // measure 28
1000
0010
1000
0001
1000
0100
1000
0010
,  // measure 29
0000
0000
0100
0001
0100
0010
1000
0010
,  // measure 30
0100
0000
0001
0000
0010
0000
0100
0000
0000
0000
1000
0000
0010
0000
1000
0001
,  // measure 31
0000
0000
0000
0000
1000
0100
0000
0000
0010
0000
0001
0000
0100
0000
0010
0000
,  // measure 32
1000
0000
0001
0000
0010
0000
0100
0000
0010
0000
0001
0100
0000
0010
0000
1000
,  // measure 33
0000
0000
0010
0100
0010
1000
0100
0010
,  // measure 34
0001
0100
0010
1000
0200
0000
0000
0000
,  // measure 35
0000
0300
0010
0001
0100
1000
0100
0001
,  // measure 36
0100
0010
1000
0100
0010
0100
0001
0100
,  // measure 37
0000
0000
0010
0100
1000
0010
0001
0010
,  // measure 38
1000
0000
0100
0000
0010
0000
0001
0000
0000
0000
0100
0000
0010
0000
0010
1000
,  // measure 39
0000
0000
0000
0000
0001
1000
0000
0000
0010
0000
0100
0000
0001
0000
0010
0000
,  // measure 40
0100
0000
1000
0000
0001
0000
0100
0000
0010
0000
1000
0010
0000
0100
0000
0001
,  // measure 41
0000
0000
0100
0010
1000
0010
1000
0001
,  // measure 42
0100
0010
1000
0100
0020
0000
0000
0000
,  // measure 43
0000
0000
0030
0000
0001
0001
0010
0010
,  // measure 44
0100
0100
1000
1000
0000
0010
0100
0001
,  // measure 45
0000
1000
0100
0010
0001
0100
0010
1000
,  // measure 46
0010
0100
0001
0010
0100
1000
0100
0010
,  // measure 47
0000
0001
0010
0100
1000
0010
0100
0001
,  // measure 48
0100
0010
1000
0100
0000
0010
0001
0100
,  // measure 49
0000
0010
1000
0100
0010
0001
0100
0010
,  // measure 50
1000
0100
0010
0001
0010
0100
1000
0010
,  // measure 51
0000
0100
0001
1000
2002
0000
0000
0000
,  // measure 52
3003
0000
0000
0000
;

//---------------dance-single - ----------------
#NOTES:
     dance-single:
     :
     Easy:
     4:
     0.266,0.231,0.011,0.068,0.000: // measure 1
0000
0000
0000
0000
,  // measure 2
1000
0100
0010
0001
,  // measure 3
0000
0010
0000
0100
,  // measure 4
1000
0010
0100
0001
,  // measure 5
0010
0100
0000
0010
,  // measure 6
0100
1000
0100
0010
,  // measure 7
0000
0001
0000
0010
,  // measure 8
0100
1000
0010
0100
,  // measure 9
0001
0100
0000
0010
,  // measure 10
2000
0000
3001
0010
,  // measure 11
0100
0000
1000
0010
,  // measure 12
0100
0000
0001
0100
,  // measure 13
0010
1000
0010
1000
,  // measure 14
0001
0000
0010
0100
,  // measure 15
1000
0000
0100
0010
,  // measure 16
0001
0000
0000
0000
0001
0000
0000
0010
,  // measure 17
0000
0001
0010
0100
,  // measure 18
1000
0000
0010
0100
,  // measure 19
0001
0010
0100
1000
,  // measure 20
0010
0000
0100
0000
0001
0000
0000
0010
,  // measure 21
0000
0100
0010
0001
,  // measure 22
0100
0000
0001
0010
,  // measure 23
0100
1000
0010
0100
,  // measure 24
0001
0000
0010
0000
0100
0000
0000
1000
,  // measure 25
0000
0000
0001
0010
,  // measure 26
0100
0000
2000
0000
,  // measure 27
0000
3000
0000
0000
0000
0000
0000
0000
0000
0000
0000
0000
0000
0000
0000
0000
0000
0000
0000
0000
0000
0000
0000
0000
0000
0000
0000
0000
0000
0000
0000
0000
0000
0000
0000
0000
0000
0000
0000
0000
0000
0000
0000
0000
0000
0000
0000
0000
0001
0000
0000
0000
0000
0000
0000
0000
0000
0000
0000
0000
0000
0000
0000
0000
0000
0000
0000
0000
0000
0000
0000
0000
0000
0000
0000
0000
0000
0000
0000
0000
0000
0000
0000
0000
0000
0000
0000
0000
0000
0000
0000
0000
0000
0000
0000
0000
0010
0000
0000
0000
0000
0000
0000
0000
0000
0000
0000
0000
0000
0000
0000
0000
0000
0000
0000
0000
0000
0000
0000
0000
0000
0000
0000
0000
0000
0000
0000
0000
0000
0000
0000
0000
0000
0000
0000
0000
0000
0000
0000
0000
0000
0000
0000
0000
0100
0000
0000
0000
0000
0000
0000
0000
0000
0000
0000
0000
0000
0000
0000
0000
0000
0000
0000
0000
0000
0000
0000
0000
0000
0000
0000
0000
0000
0000
0000
0000
0000
0000
0000
0000
0000
0000
0000
0000
0000
0000
0000
0000
0000
0000
0000
0000
,  // measure 28
1000
0001
0100
0010
,  // measure 29
0000
1000
0010
0100
,  // measure 30
0001
0010
0000
0100
,  // measure 31
0000
1000
0010
0100
,  // measure 32
0001
0010
0200
0000
,  // measure 33
1300
0000
0001
0010
,  // measure 34
0100
1000
0010
0000
,  // measure 35
0000
0100
0001
0010
,  // measure 36
0100
1000
0010
1000
,  // measure 37
0000
0001
0010
0100
,  // measure 38
0010
0100
0000
1000
,  // measure 39
0000
0001
0010
0100
,  // measure 40
1000
0010
0200
0000
,  // measure 41
0301
0000
0010
0100
,  // measure 42
1000
0010
0100
0000
,  // measure 43
0001
0000
0010
0100
,  // measure 44
1000
0010
0000
0100
,  // measure 45
0000
0001
0010
0100
,  // measure 46
1000
0010
0100
0001
,  // measure 47
0000
1000
0010
1000
,  // measure 48
0001
0100
0000
0001
,  // measure 49
0000
0010
0100
1000
,  // measure 50
0010
0100
0001
0001
,  // measure 51
0000
1000
2002
0000
,  // measure 52
3003
0000
0000
0000
;
