#TITLE:We Are! (Straw Hat Version);
#SUBTITLE:(ONE PIECE Opening Theme);
#ARTIST:Hiroshi Kitadani;
#TITLETRANSLIT:;
#SUBTITLETRANSLIT:;
#ARTISTTRANSLIT:;
#CREDIT:348;
#BANNER:We Are! (Straw Hat Version) Banner.png;
#BACKGROUND:We Are! (Straw Hat Version) Background.png;
#LYRICSPATH:We Are! (Straw Hat Version).lrc;
#CDTITLE:;
#MUSIC:We Are! (Straw Hat Version).mp3;
#OFFSET:-0.604;
#SAMPLESTART:44.532;
#SAMPLELENGTH:15.000;
#SELECTABLE:YES;
#BPMS:0.000=84.000,44.000=168.000;
#STOPS:;
#BGCHANGES:;

//---------------dance-single - ----------------
#NOTES:
     dance-single:
     :
     Easy:
     5:
     0.343,0.448,0.310,0.415,0.002: // measure 1
0000
0000
0000
0000
,  // measure 2
0000
0000
0000
0000
,  // measure 3
0000
0000
0000
0000
,  // measure 4
0000
0000
0000
0000
,  // measure 5
0000
0000
2000
0000
,  // measure 6
0000
0000
3000
0000
,  // measure 7
0000
0000
0000
0000
,  // measure 8
0000
0000
0000
0000
0000
0000
0000
0000
0000
0000
0000
0000
0000
0000
0000
0002
,  // measure 9
0000
0000
0003
0000
,  // measure 10
0000
0000
0000
2000
,  // measure 11
0000
3000
0000
0000
,  // measure 12
0001
0000
1000
0000
,  // measure 13
1001
0000
0100
0000
,  // measure 14
0010
0000
0001
0000
,  // measure 15
0110
0000
0001
0000
,  // measure 16
1000
0000
0010
0000
,  // measure 17
1100
0000
0001
0000
,  // measure 18
1000
0000
0011
0000
,  // measure 19
1000
0100
0010
0001
,  // measure 20
0200
0000
0320
0000
,  // measure 21
1030
0100
1000
0100
,  // measure 22
2000
0000
0001
3001
,  // measure 23
0001
0010
0001
0010
,  // measure 24
0002
0003
1001
0110
,  // measure 25
1001
0000
0100
0010
,  // measure 26
0001
1000
0001
0010
,  // measure 27
0100
0020
0000
0031
,  // measure 28
2000
0000
3000
1001
,  // measure 29
1002
0000
2003
0000
,  // measure 30
3020
0000
0000
0230
0000
0000
0300
0000
,  // measure 31
0000
0002
0203
0000
,  // measure 32
0320
0000
0000
2030
0000
0000
3000
0000
,  // measure 33
0001
0010
1000
0100
,  // measure 34
0002
0000
0000
0003
,  // measure 35
1000
0010
0001
0100
,  // measure 36
2000
0000
0001
3001
,  // measure 37
0001
1000
0010
0100
,  // measure 38
0020
0030
1000
0001
,  // measure 39
1000
0100
0000
0001
,  // measure 40
0100
1000
0000
0001
,  // measure 41
1000
0010
0010
0100
,  // measure 42
0020
0000
0000
0130
,  // measure 43
0001
0010
0010
0100
,  // measure 44
0020
0000
0100
0130
,  // measure 45
1000
0010
0001
0010
,  // measure 46
2000
0000
3002
1003
,  // measure 47
0001
0100
1000
0100
,  // measure 48
0002
0003
2000
3000
,  // measure 49
0220
0000
0000
0330
,  // measure 50
1100
0000
0001
1000
,  // measure 51
0011
0000
1000
0001
,  // measure 52
0100
1010
0000
1000
,  // measure 53
0010
0101
0000
1001
,  // measure 54
0020
0000
1030
0100
,  // measure 55
0001
1000
0010
0001
,  // measure 56
0200
0000
0000
0300
,  // measure 57
0010
0010
0010
0010
,  // measure 58
0200
0300
0020
0030
,  // measure 59
2002
0000
0000
3003
,  // measure 60
0110
0000
0001
1000
,  // measure 61
1001
0000
0010
0100
,  // measure 62
0110
0000
1000
0010
,  // measure 63
1000
0100
0010
0001
,  // measure 64
0110
0000
1000
0100
,  // measure 65
1000
0010
1000
0001
,  // measure 66
1000
0220
0330
0010
,  // measure 67
2002
3003
0011
1100
,  // measure 68
0002
0000
1000
1003
,  // measure 69
2000
0000
0010
3010
,  // measure 70
0020
0000
0100
0130
,  // measure 71
0200
0000
0301
0000
,  // measure 72
0001
0000
0000
0001
0000
0000
0000
0000
,  // measure 73
1000
0000
0000
1000
0000
0000
0000
0000
,  // measure 74
0220
0000
0000
0000
,  // measure 75
0000
0000
0330
1001
,  // measure 76
1001
0000
0010
0100
,  // measure 77
0020
0000
1030
0001
,  // measure 78
1000
0100
0100
1000
,  // measure 79
0001
0010
0010
0001
,  // measure 80
1100
0000
0001
0010
,  // measure 81
0100
1000
0010
0100
,  // measure 82
0002
0000
2003
0000
,  // measure 83
3020
0200
0000
0330
,  // measure 84
1001
0000
0010
1000
,  // measure 85
0100
0001
0100
1000
,  // measure 86
0001
0200
0000
1300
,  // measure 87
0100
0001
0100
0010
,  // measure 88
1000
0100
0010
0010
,  // measure 89
0100
1000
0001
0001
,  // measure 90
0022
0033
2200
3300
,  // measure 91
2020
3030
0202
0303
,  // measure 92
2002
0000
0000
3003
,  // measure 93
0020
0000
0230
0000
,  // measure 94
0302
0000
0000
0023
0000
0000
0030
0000
,  // measure 95
0000
0200
0320
0000
,  // measure 96
0230
0000
0000
2300
0000
0000
3001
0000
,  // measure 97
2000
0000
3002
0000
,  // measure 98
2003
0000
0000
3200
0000
0000
0300
0000
,  // measure 99
0000
0020
0032
0000
,  // measure 100
2003
0000
0000
3002
0000
0000
0003
0000
,  // measure 101
1000
0100
0000
0100
,  // measure 102
1000
0001
0000
0110
,  // measure 103
0001
1000
0000
1000
,  // measure 104
0010
0000
1100
0101
,  // measure 105
1000
1000
0000
0010
,  // measure 106
0010
0010
0000
0100
,  // measure 107
0100
0100
0100
0100
,  // measure 108
0002
0000
1000
1003
,  // measure 109
0001
0010
0100
1000
,  // measure 110
0020
0000
0000
0130
0000
0000
0000
0000
,  // measure 111
1000
0000
0001
0000
0110
0000
0000
0220
,  // measure 112
0000
0000
0330
1001
,  // measure 113
0100
0101
0010
1010
,  // measure 114
0002
0000
0000
1003
0000
0000
1000
0000
,  // measure 115
0001
1000
0011
1010
,  // measure 116
0002
0003
2000
3000
,  // measure 117
0220
0000
0000
0330
,  // measure 118
1000
0100
0001
0000
,  // measure 119
1000
0100
0001
0000
,  // measure 120
1000
0100
0001
0100
,  // measure 121
1000
0001
1000
0000
,  // measure 122
0001
0010
1000
0000
,  // measure 123
0001
0010
1000
0000
,  // measure 124
0001
0010
1000
0010
,  // measure 125
0001
0100
0010
1000
,  // measure 126
0220
0330
2002
3003
,  // measure 127
2002
3003
0220
0330
,  // measure 128
1000
1010
0000
0001
,  // measure 129
0001
0011
0000
1000
,  // measure 130
0010
0100
0001
1000
,  // measure 131
0020
0000
0100
0130
,  // measure 132
0100
0001
1000
0010
,  // measure 133
1000
0001
0100
0010
,  // measure 134
2000
0002
3003
0110
,  // measure 135
2002
3003
0110
0110
,  // measure 136
1100
0000
0101
0000
,  // measure 137
1000
0001
0100
0001
,  // measure 138
0101
0000
1010
0000
,  // measure 139
0020
0000
1030
0001
,  // measure 140
1000
0000
0000
1100
0000
0000
0000
0000
,  // measure 141
0001
0000
0000
0011
0000
0000
0000
0000
,  // measure 142
2002
0000
0000
0000
,  // measure 143
0000
0000
3003
0110
,  // measure 144
0110
0000
0000
0000
,  // measure 145
1000
0000
0000
0001
,  // measure 146
1000
0100
1000
0001
,  // measure 147
0002
0000
0010
0013
,  // measure 148
1000
0002
0000
0103
,  // measure 149
0010
0010
1000
0001
,  // measure 150
0100
0001
0000
1000
,  // measure 151
1000
0010
0010
0100
,  // measure 152
0010
1100
0000
0001
,  // measure 153
1010
0000
1001
0110
,  // measure 154
0001
0000
1000
0100
,  // measure 155
0001
0000
0100
1000
,  // measure 156
0001
0000
0100
1000
,  // measure 157
0100
0000
0001
0000
,  // measure 158
1010
0000
0000
1010
0000
0000
0000
0000
,  // measure 159
0101
0000
0000
0101
0000
0000
0000
0000
,  // measure 160
2002
0000
0000
3003
,  // measure 161
0220
0000
0330
1001
,  // measure 162
0110
0000
0000
1000
,  // measure 163
0001
1000
0000
0110
,  // measure 164
1001
0000
0000
0010
,  // measure 165
0100
0010
0000
1001
,  // measure 166
1001
0000
0000
0000
;

//---------------dance-single - ----------------
#NOTES:
     dance-single:
     :
     Beginner:
     2:
     0.092,0.128,0.008,0.000,0.000: // measure 1
0000
0000
0000
0000
,  // measure 2
0000
0000
0000
0000
,  // measure 3
0000
0000
0000
0000
,  // measure 4
0000
0000
0000
0000
,  // measure 5
0000
0000
1000
0000
,  // measure 6
0000
0000
0000
0000
,  // measure 7
0000
0000
0000
0000
,  // measure 8
0000
0000
0000
0000
,  // measure 9
0001
0000
0000
0000
,  // measure 10
0000
0000
0000
0000
,  // measure 11
0000
0000
0000
0000
,  // measure 12
1000
0000
0000
0000
,  // measure 13
1000
0000
0000
0000
,  // measure 14
0000
0000
0000
0000
,  // measure 15
0001
0000
0000
0000
,  // measure 16
0000
0000
0000
0000
,  // measure 17
1000
0000
0000
0000
,  // measure 18
0000
0000
0000
0000
,  // measure 19
0001
0000
0001
0000
,  // measure 20
0001
0000
0000
0000
,  // measure 21
0100
0000
0000
0000
,  // measure 22
0010
0010
0000
0000
,  // measure 23
0100
0000
0000
0000
,  // measure 24
0010
0000
0010
0000
,  // measure 25
1000
0000
0000
0000
,  // measure 26
0100
0000
0000
0000
,  // measure 27
0010
0000
0000
0000
,  // measure 28
0001
0000
0000
0100
,  // measure 29
0100
0000
0000
0000
,  // measure 30
0100
0000
0000
0000
,  // measure 31
0010
0000
0000
0000
,  // measure 32
0010
0000
0000
0000
,  // measure 33
0010
0000
0000
0000
,  // measure 34
0010
0000
0000
0000
,  // measure 35
0100
0000
0000
0000
,  // measure 36
0100
0000
0000
0000
,  // measure 37
0001
0000
0000
0000
,  // measure 38
0001
0000
0000
0000
,  // measure 39
1000
0000
0000
0000
,  // measure 40
1000
0000
0000
0000
,  // measure 41
0001
0000
0000
0000
,  // measure 42
1000
0000
0000
0000
,  // measure 43
1000
0000
0000
0000
,  // measure 44
0001
0000
0000
0000
,  // measure 45
0100
0000
0000
0000
,  // measure 46
0010
0000
0000
0000
,  // measure 47
0010
0000
0000
0000
,  // measure 48
0100
0000
0000
0000
,  // measure 49
0000
0000
0000
0000
,  // measure 50
0001
0000
0001
0000
,  // measure 51
0000
0000
0000
0000
,  // measure 52
1000
0000
1000
0000
,  // measure 53
0000
0000
0000
0000
,  // measure 54
0010
0000
0010
0000
,  // measure 55
0000
0000
0000
0000
,  // measure 56
0100
0000
0100
0000
,  // measure 57
0100
0000
0100
0000
,  // measure 58
1001
0000
0000
0000
,  // measure 59
0000
0000
0000
0000
,  // measure 60
0100
0000
0000
0000
,  // measure 61
0010
0000
0000
0000
,  // measure 62
1000
0000
0000
0000
,  // measure 63
0001
0000
0000
0000
,  // measure 64
1000
0000
0000
0000
,  // measure 65
0001
0001
0000
0000
,  // measure 66
0100
0000
0000
0000
,  // measure 67
0010
0000
0010
0000
,  // measure 68
0010
0000
0000
0000
,  // measure 69
1000
0000
0001
0000
,  // measure 70
1000
0000
0000
0000
,  // measure 71
0001
0000
0000
0000
,  // measure 72
1000
0000
0000
0000
,  // measure 73
0001
0000
0000
0000
,  // measure 74
0100
0000
0000
0000
,  // measure 75
0000
0000
0000
0010
,  // measure 76
0010
0000
0000
0000
,  // measure 77
0000
0000
0000
0000
,  // measure 78
1000
0000
1000
0000
,  // measure 79
1000
0000
0000
0000
,  // measure 80
0000
0000
0000
0000
,  // measure 81
0000
0000
0000
0000
,  // measure 82
0001
0000
0001
0000
,  // measure 83
0001
0000
0000
0000
,  // measure 84
1000
0000
0000
0000
,  // measure 85
1000
1000
0000
0000
,  // measure 86
0001
0000
0000
0000
,  // measure 87
0001
0001
0000
0000
,  // measure 88
0100
0000
0100
0000
,  // measure 89
0000
0000
0000
0000
,  // measure 90
0010
0000
0010
0000
,  // measure 91
0000
0000
0000
0000
,  // measure 92
0000
0000
0000
0000
,  // measure 93
1000
0000
1000
0000
,  // measure 94
1000
0000
0000
0000
,  // measure 95
0100
0000
0100
0000
,  // measure 96
0100
0000
0000
0000
,  // measure 97
0010
0000
0010
0000
,  // measure 98
0010
0000
0000
0000
,  // measure 99
0001
0000
0001
0000
,  // measure 100
0001
0000
0000
0000
,  // measure 101
1000
0000
0000
0000
,  // measure 102
0000
0000
0000
0000
,  // measure 103
1000
0000
0000
0000
,  // measure 104
0001
0000
0000
0000
,  // measure 105
0001
0000
0000
0000
,  // measure 106
0000
0000
0000
0000
,  // measure 107
0001
0000
0000
0000
,  // measure 108
1000
0000
0000
0000
,  // measure 109
0010
0000
0000
0000
,  // measure 110
0000
0000
0000
0000
,  // measure 111
0100
0000
0100
0000
,  // measure 112
0100
0000
0000
0000
,  // measure 113
0100
0000
0000
0000
,  // measure 114
0000
0000
0000
0000
,  // measure 115
0010
0000
0010
0000
,  // measure 116
0010
0000
0000
0000
,  // measure 117
0000
0000
0000
0000
,  // measure 118
1000
0000
0000
0000
,  // measure 119
0100
0000
0000
0000
,  // measure 120
1000
0000
0000
0000
,  // measure 121
0100
0000
0000
0000
,  // measure 122
0010
0000
0000
0000
,  // measure 123
0001
0000
0000
0000
,  // measure 124
0010
0000
0000
0000
,  // measure 125
0001
0000
0000
0000
,  // measure 126
0000
0000
0000
0000
,  // measure 127
0110
0000
0000
0000
,  // measure 128
1000
0000
0000
0000
,  // measure 129
1000
0000
0000
0000
,  // measure 130
0001
0000
0000
0000
,  // measure 131
0001
0000
0000
0000
,  // measure 132
0100
0000
0000
0000
,  // measure 133
0010
0000
0000
0000
,  // measure 134
0010
0000
0000
0000
,  // measure 135
0100
0000
0100
0000
,  // measure 136
0100
0000
0000
0000
,  // measure 137
0001
0000
0000
0000
,  // measure 138
1000
0000
1000
0000
,  // measure 139
1000
0000
0000
0000
,  // measure 140
0010
0000
0000
0000
,  // measure 141
0100
0000
0000
0000
,  // measure 142
0001
0000
0000
0000
,  // measure 143
0000
0000
0000
1000
,  // measure 144
1000
0000
0000
0000
,  // measure 145
0000
0000
0000
0000
,  // measure 146
0001
0000
0000
0000
,  // measure 147
0010
0000
0000
0000
,  // measure 148
0100
0000
0000
0000
,  // measure 149
1000
0000
0000
0000
,  // measure 150
0001
0000
0000
0000
,  // measure 151
0100
0000
0000
0000
,  // measure 152
0010
0000
0000
0000
,  // measure 153
1000
0000
0000
0000
,  // measure 154
0001
0000
0010
0000
,  // measure 155
0001
0000
0000
0000
,  // measure 156
1000
0000
0100
0000
,  // measure 157
1000
0000
0000
0000
,  // measure 158
0001
0000
0000
0000
,  // measure 159
0010
0000
0000
0000
,  // measure 160
0100
0000
0000
0000
,  // measure 161
0000
0000
0000
1000
,  // measure 162
1000
0000
0000
0000
,  // measure 163
0000
0000
0000
0001
,  // measure 164
0001
0000
0000
0000
,  // measure 165
0000
0000
0000
1000
,  // measure 166
0001
0000
0000
0000
;

//---------------dance-single - ----------------
#NOTES:
     dance-single:
     :
     Medium:
     6:
     0.422,0.512,0.373,0.439,0.006: // measure 1
0000
0000
0000
0000
,  // measure 2
0000
0000
0000
0000
,  // measure 3
0000
0000
0000
0000
,  // measure 4
0000
0000
0000
0000
,  // measure 5
0000
0000
0002
0000
,  // measure 6
0000
0000
0003
0000
,  // measure 7
0000
0000
0000
0200
,  // measure 8
0000
0000
0000
0000
0000
0000
0000
0000
0000
0000
0000
0000
0300
0000
0000
0020
,  // measure 9
0000
0000
0000
0030
,  // measure 10
0000
2000
0000
0000
3000
0000
0002
0000
,  // measure 11
0000
0000
0000
0003
,  // measure 12
1000
0000
0001
1001
,  // measure 13
0010
0100
0001
1000
,  // measure 14
0001
0000
0100
0010
0000
0010
0100
0000
,  // measure 15
0001
0000
1000
0000
0100
0000
1000
0001
,  // measure 16
0000
0000
1000
0110
,  // measure 17
0001
1000
0100
0010
,  // measure 18
0100
0000
1000
0001
0000
0001
1000
0000
,  // measure 19
0002
0010
0100
1003
,  // measure 20
1000
0000
0000
0001
0000
0000
1000
0000
0000
0000
0000
0000
0001
0000
0000
0000
,  // measure 21
1000
0000
0001
0010
,  // measure 22
0011
0000
0100
1000
,  // measure 23
1000
0001
0100
0010
,  // measure 24
1000
0100
1000
0000
0001
0000
0100
0000
,  // measure 25
0002
0103
2000
3010
,  // measure 26
0010
1000
0010
0000
0100
0000
0001
0000
,  // measure 27
1000
2200
3300
0001
,  // measure 28
1000
0022
0033
1001
,  // measure 29
0110
2000
0002
3003
,  // measure 30
0020
0000
0000
0100
0000
0130
0000
0000
,  // measure 31
1001
0020
0200
0330
,  // measure 32
2000
0000
0000
0001
0000
3001
0000
0000
,  // measure 33
0001
0000
0100
0001
0100
0000
0001
0000
,  // measure 34
2000
0000
3010
0000
,  // measure 35
1000
0000
0010
0100
0010
0000
1000
0000
,  // measure 36
0002
0003
0100
1001
,  // measure 37
0010
0000
0100
0001
0100
0000
0001
0000
,  // measure 38
1000
0000
0010
1000
0010
0000
0100
0000
,  // measure 39
0002
0000
0000
1000
0000
0000
1003
0000
,  // measure 40
2000
0000
0000
0001
0000
0000
3001
0000
,  // measure 41
0110
0000
1000
0011
,  // measure 42
1100
0001
0000
1000
,  // measure 43
0020
1030
0200
0301
,  // measure 44
2002
3003
0220
0330
,  // measure 45
1000
0100
0010
0001
,  // measure 46
1000
0000
0001
1000
0000
1000
0001
0000
,  // measure 47
0100
0001
1000
0010
,  // measure 48
2002
0000
0000
3003
,  // measure 49
0100
0001
1000
0100
,  // measure 50
1000
0000
0000
0000
0001
0010
0001
0000
,  // measure 51
0100
0000
0000
0000
0010
1000
0010
0000
,  // measure 52
1000
2000
0000
3001
,  // measure 53
0002
0003
1001
0000
,  // measure 54
0010
0001
0100
1000
,  // measure 55
0010
0001
0100
1000
,  // measure 56
0010
0001
1000
0001
,  // measure 57
1000
0010
0100
0100
,  // measure 58
0220
0000
0000
0330
,  // measure 59
0001
0000
0000
1000
0000
0000
0002
0000
0000
0000
0000
0000
1003
0000
0000
0000
,  // measure 60
0001
0000
0010
0000
0100
1000
0100
0000
,  // measure 61
0010
0001
1000
0100
,  // measure 62
0001
0000
0100
0000
1000
0000
0010
0100
,  // measure 63
0000
0100
0010
0000
2002
0000
3003
0000
,  // measure 64
0100
0000
0010
0000
0100
0010
0100
0000
,  // measure 65
0001
0010
1000
0010
,  // measure 66
0001
2200
3300
0010
,  // measure 67
0202
0303
0011
1010
,  // measure 68
0001
0000
0000
1001
0000
0000
1000
0000
,  // measure 69
0010
0100
0010
0100
,  // measure 70
0010
0000
0000
0110
0000
0000
0100
0000
,  // measure 71
0001
1000
0001
1000
,  // measure 72
0002
0000
0000
0200
0000
0000
0303
0000
,  // measure 73
0020
0000
0000
2000
0030
0000
3001
0000
,  // measure 74
2002
0000
0000
3003
,  // measure 75
0220
0000
0330
0110
,  // measure 76
1001
0000
0010
0100
,  // measure 77
0001
1000
0001
0000
0100
0000
0010
0000
,  // measure 78
2000
0100
0010
3001
,  // measure 79
0200
0001
1000
0301
,  // measure 80
1000
0100
1000
0000
0100
0000
0010
0000
,  // measure 81
0001
0010
0001
0000
0100
0000
0010
0000
,  // measure 82
2000
0000
0000
3010
0200
0000
0000
0301
,  // measure 83
0020
0002
0000
0033
,  // measure 84
1001
0000
0000
0000
0100
0001
0100
0000
,  // measure 85
1000
0100
0001
1000
,  // measure 86
0001
0220
0330
1000
,  // measure 87
2002
3003
0101
1010
,  // measure 88
1000
0100
0001
0010
,  // measure 89
0001
0100
1000
0001
,  // measure 90
0020
1000
0001
1030
,  // measure 91
0002
1000
0100
0013
,  // measure 92
2002
0000
0000
3003
,  // measure 93
0110
0002
0020
0033
,  // measure 94
2000
0000
0000
0001
0000
3010
0000
0000
,  // measure 95
0110
2000
0020
3030
,  // measure 96
0200
0000
0000
0001
0000
0001
0300
0001
,  // measure 97
1000
0020
2000
3030
,  // measure 98
0002
0000
0000
1000
0000
0103
0000
0000
,  // measure 99
1001
0020
0002
0033
,  // measure 100
0200
0000
0000
0010
0000
0310
0000
0010
,  // measure 101
0100
1100
0001
0011
,  // measure 102
1001
0000
0000
0000
0010
1000
0010
0000
,  // measure 103
1000
1010
0100
0101
,  // measure 104
0110
0000
0000
0000
0001
1000
0001
0000
,  // measure 105
1000
0100
1000
0000
0001
0000
0001
0000
,  // measure 106
0100
0010
0100
0000
0010
0000
0010
0000
,  // measure 107
1000
0000
1000
0000
0001
0000
0100
0010
,  // measure 108
0000
0000
0110
1001
,  // measure 109
0010
0000
1000
0100
0000
0100
1000
0000
,  // measure 110
0001
0000
1000
0000
,  // measure 111
0001
0000
0100
0001
0000
0001
0100
0000
,  // measure 112
0010
0000
1000
0001
,  // measure 113
0100
1000
0010
0001
,  // measure 114
0100
1000
0010
0001
,  // measure 115
1000
0001
1000
0000
0001
1000
0001
0000
,  // measure 116
0220
0000
0000
0330
,  // measure 117
2002
0000
0000
3003
,  // measure 118
1100
0000
0000
0001
0010
0000
0000
0000
,  // measure 119
0011
0000
0000
1000
0100
0000
0000
0000
,  // measure 120
1000
0001
0100
0110
,  // measure 121
0010
0100
0001
1001
,  // measure 122
0110
0000
0000
0001
0100
0000
0000
0100
,  // measure 123
0010
0000
0000
0010
1000
0000
0000
0000
,  // measure 124
0010
0100
0011
0101
,  // measure 125
0001
1000
1100
1010
,  // measure 126
2002
0000
0000
3003
,  // measure 127
0220
0330
2002
3003
,  // measure 128
0100
0000
0010
0000
1000
0100
1000
0000
,  // measure 129
0022
0033
1000
0001
,  // measure 130
0100
0010
0100
0000
0001
0000
0010
0000
,  // measure 131
0001
0010
1000
0010
,  // measure 132
0001
1000
0001
0000
1000
0100
1000
0000
,  // measure 133
0010
1100
0010
0101
,  // measure 134
2000
0002
3000
0203
,  // measure 135
0020
0300
1030
1001
,  // measure 136
0100
0000
0100
0000
0100
0000
0100
0010
,  // measure 137
0000
0010
0000
0010
0000
0000
0010
0000
,  // measure 138
1000
0000
1000
0000
1000
0000
1000
0001
,  // measure 139
0000
0001
0000
0001
0000
0000
0001
0000
,  // measure 140
1000
0000
0000
0220
0000
0330
0000
0000
,  // measure 141
0001
0000
0000
2002
0000
3003
0100
0000
,  // measure 142
0220
0000
0000
0330
,  // measure 143
0200
0301
0020
1030
,  // measure 144
1001
0110
0110
1001
,  // measure 145
0220
0000
0330
0000
0001
1000
0001
0000
,  // measure 146
1000
0000
0100
0000
0100
0000
1000
0010
,  // measure 147
0000
0100
1001
0110
,  // measure 148
0001
0000
0010
0000
0010
0000
0001
1000
,  // measure 149
0000
1000
0001
0000
0100
0010
0100
0000
,  // measure 150
0001
0000
0100
0000
0010
0000
0001
1000
,  // measure 151
0000
0001
1000
0000
0100
0000
0010
0000
,  // measure 152
1010
2200
3300
0101
,  // measure 153
0022
0033
0110
1001
,  // measure 154
1000
0000
0000
0110
0000
0000
0001
0000
,  // measure 155
1000
0001
1000
0110
,  // measure 156
0010
0000
0000
1001
0000
0000
0100
0000
,  // measure 157
0010
0100
0010
1001
,  // measure 158
1000
0000
0000
0202
0000
0000
0303
0000
,  // measure 159
0001
0000
0000
2200
0000
3300
0010
0000
,  // measure 160
2002
0000
0000
3003
,  // measure 161
0220
0000
0330
0011
,  // measure 162
1010
0000
0000
1001
,  // measure 163
0010
0100
0010
0000
0000
0000
1010
0000
,  // measure 164
0101
0000
0000
0000
0000
0000
1000
0001
,  // measure 165
1000
0110
1001
1100
,  // measure 166
0011
0000
0000
0000
;

//---------------dance-single - ----------------
#NOTES:
     dance-single:
     :
     Hard:
     8:
     0.514,0.544,0.400,0.450,0.037: // measure 1
0000
0000
0000
0000
,  // measure 2
0000
0000
0000
0000
,  // measure 3
0000
0000
0000
0000
,  // measure 4
0000
0000
0000
0000
,  // measure 5
0000
0000
2200
0000
,  // measure 6
0000
0000
0000
3300
0000
0022
0000
0000
,  // measure 7
0000
0000
0033
2020
,  // measure 8
0000
0000
0000
0000
0000
0000
0000
0000
0000
0000
0000
0000
3030
0000
0000
0202
,  // measure 9
0000
0000
0000
0000
0000
0000
0000
0303
,  // measure 10
0000
0220
0000
0000
0330
0000
2002
0000
,  // measure 11
0000
0000
0000
3003
,  // measure 12
1000
0100
1000
0100
0010
0001
0010
0001
,  // measure 13
1000
0000
0001
0010
0100
0000
0010
0001
,  // measure 14
1000
0000
0010
0200
0000
0010
0000
0301
,  // measure 15
0000
0000
1000
0100
0001
0000
0100
0000
,  // measure 16
1000
0000
0001
0100
0000
1000
0100
0001
,  // measure 17
0010
0100
1000
0001
,  // measure 18
1001
0000
1000
0100
0000
0010
0001
0000
,  // measure 19
0011
0110
1100
0110
,  // measure 20
1000
0000
0000
1001
0000
0000
0001
0000
0000
0000
0100
0000
0010
0000
0000
0000
,  // measure 21
1000
0001
0100
0000
1010
0000
0011
0000
,  // measure 22
0010
0001
0010
0001
0000
1000
0100
0000
,  // measure 23
1100
0000
0101
0000
0001
1000
0010
0000
,  // measure 24
1000
0002
0000
0003
0100
0020
0000
0030
,  // measure 25
0200
0301
0020
1030
,  // measure 26
0010
0001
0100
0000
0010
1000
0100
0000
,  // measure 27
1001
0000
0000
0000
0110
0000
0000
0000
0001
0000
0000
0100
0000
0000
0010
0000
,  // measure 28
0100
0000
0000
0010
0000
0000
1000
0000
0000
0000
0000
0000
1100
0000
0000
0000
,  // measure 29
0101
0011
0102
0013
,  // measure 30
1000
0001
0100
0010
0000
0010
0100
0000
,  // measure 31
2010
3100
1010
1100
,  // measure 32
0001
0010
1000
0010
0001
0000
0110
0000
,  // measure 33
1100
0000
0010
0100
0010
0001
0010
0000
,  // measure 34
1000
0000
0100
0000
0010
0000
0000
0000
0001
0000
0000
0100
0000
0000
1000
0000
,  // measure 35
0010
0001
1000
0000
0001
1000
0100
0000
,  // measure 36
1000
0000
0000
0000
0011
0000
0000
0000
1000
0000
0000
0001
0000
0000
1000
0000
,  // measure 37
0001
0100
1000
0000
0001
0010
1000
0001
,  // measure 38
1000
0000
1100
0000
0001
0010
0001
0000
,  // measure 39
0100
0000
0010
0100
0010
0000
1000
0001
,  // measure 40
0000
0100
0000
1000
0000
0010
0000
0001
,  // measure 41
1000
1100
0011
0001
,  // measure 42
1000
1000
0001
0001
0000
0001
1000
0000
,  // measure 43
0001
0010
0100
0000
0001
0100
0010
0001
,  // measure 44
0000
0100
0000
0010
0000
1000
0010
0000
,  // measure 45
2010
3010
0102
0103
,  // measure 46
1000
0000
0100
0010
0000
0100
1000
0000
,  // measure 47
0002
0103
0200
0310
,  // measure 48
2002
3003
2002
3003
,  // measure 49
0100
0000
0000
0001
0000
0000
1000
0000
0002
0000
0000
0000
1003
0000
0000
0000
,  // measure 50
0110
0000
0001
0010
0001
0100
0000
0100
,  // measure 51
0001
0000
1000
0100
0010
0100
0000
0100
,  // measure 52
2000
3020
0230
0302
,  // measure 53
1003
0100
0001
0100
1000
0000
1001
0000
,  // measure 54
0011
0000
0000
0000
1010
0000
0000
0000
0001
0000
0000
1000
0000
0000
0100
0000
,  // measure 55
0000
0000
2000
0000
3001
0000
0000
0002
,  // measure 56
0000
0010
0100
1003
,  // measure 57
1000
0010
0100
0000
0010
0100
0001
0000
,  // measure 58
2002
0000
3003
0000
,  // measure 59
0010
0000
0000
0110
0000
0000
0100
0000
0000
0000
0001
0000
1000
0000
0000
0000
,  // measure 60
0020
1000
0001
1030
,  // measure 61
0001
0010
0001
0000
0010
0100
0010
0000
,  // measure 62
0200
1000
0001
1300
,  // measure 63
0220
0330
1000
0001
,  // measure 64
1000
0000
0100
0000
0100
0000
0010
0002
,  // measure 65
0000
0000
0103
0000
0010
0100
0010
0000
,  // measure 66
2000
3100
0200
0310
,  // measure 67
0020
0031
0002
1003
,  // measure 68
0110
0000
0001
0010
0000
0010
0001
0000
,  // measure 69
1000
0000
0101
0000
1000
0001
1000
0000
,  // measure 70
1001
0000
0100
1000
0000
1000
0100
0000
,  // measure 71
0010
0100
0010
0000
0001
0000
1000
0000
,  // measure 72
1000
0000
0100
0001
0000
0100
1000
0000
,  // measure 73
0001
0000
0010
1000
0000
0010
0001
1000
,  // measure 74
0002
0023
0230
2300
,  // measure 75
0002
0000
3003
0110
,  // measure 76
2002
0000
0000
0000
3003
0000
0000
0000
0100
0000
0000
0010
0000
0000
1000
0000
,  // measure 77
0002
0000
0000
0003
,  // measure 78
0110
0000
0000
1000
0100
0000
0000
0010
,  // measure 79
0001
1000
0010
1000
,  // measure 80
0002
0000
0003
0000
1000
0010
1000
0000
,  // measure 81
0010
0100
0010
0000
0100
0001
0100
0000
,  // measure 82
0021
0130
0210
1300
,  // measure 83
0002
2000
0000
3003
,  // measure 84
0020
0000
0030
0000
0001
1000
0100
0000
,  // measure 85
0200
0000
0300
0000
1000
0001
0010
0000
,  // measure 86
0001
1000
0100
1100
,  // measure 87
0010
0100
0001
0101
,  // measure 88
1010
0000
0000
0001
0200
0000
0301
0000
,  // measure 89
0011
0000
0000
1000
0200
0000
1300
0000
,  // measure 90
0001
0010
1000
0100
,  // measure 91
1000
0010
0001
1000
,  // measure 92
0220
0000
0000
0330
,  // measure 93
2020
0030
0002
0003
,  // measure 94
0200
0000
0300
3001
0000
1000
0010
0200
,  // measure 95
0000
0001
0020
0030
,  // measure 96
2000
0000
3000
0010
0000
0001
0000
0310
,  // measure 97
0000
0001
0020
0000
,  // measure 98
0002
0000
0003
1000
0000
0130
0001
1000
,  // measure 99
0000
0002
0010
0100
,  // measure 100
1000
0000
0103
0000
1000
0001
1000
0001
,  // measure 101
1000
0100
0010
0100
1000
0000
0011
0000
,  // measure 102
0100
0000
0000
0001
0000
0000
1000
0000
0001
0000
0000
1000
0000
0000
0010
0000
,  // measure 103
2000
0000
3001
0100
0000
0100
0001
0000
,  // measure 104
0100
0000
0010
0000
0100
0000
0010
0000
0100
0000
0000
0010
0000
0000
0001
0000
,  // measure 105
0020
2030
3002
0203
,  // measure 106
0301
0010
0001
0100
0001
1000
0001
0000
,  // measure 107
1010
0000
0110
0000
0101
0000
1000
0001
,  // measure 108
0000
0110
1001
0110
,  // measure 109
0001
0000
0100
0010
0000
0010
1000
0001
,  // measure 110
1000
0000
1000
0010
0000
0010
0100
0000
,  // measure 111
0100
0000
0001
1000
0010
0000
0010
1000
,  // measure 112
0000
0001
0100
0001
2000
0000
3001
0000
,  // measure 113
0020
0032
0203
2300
,  // measure 114
3010
0001
1000
0100
0000
1000
0001
0000
,  // measure 115
2000
3200
0302
0203
,  // measure 116
2300
0000
0000
3000
,  // measure 117
0001
0000
0000
1000
0000
0000
0010
0000
0110
0000
0000
0000
1001
0000
0000
0000
,  // measure 118
0100
0000
0000
0000
0100
0000
0000
0000
0100
0000
0000
0001
0100
0000
0000
0000
,  // measure 119
0010
0000
0000
0000
0010
0000
0000
0000
0010
0000
0000
1000
0010
0000
0000
0000
,  // measure 120
1000
0101
0001
1010
,  // measure 121
0001
0000
0000
1000
0001
0000
0000
0000
0110
0000
0000
0000
1001
0000
0000
0000
,  // measure 122
1000
1000
0010
0010
,  // measure 123
0100
0000
0000
0000
0100
0000
0000
0000
0001
0000
0000
1000
0001
0000
0000
0000
,  // measure 124
0100
0000
0000
0010
0100
0000
0000
0000
0010
0000
0000
0000
0100
0000
0000
0000
,  // measure 125
1001
1001
0110
1001
,  // measure 126
0220
0000
0000
0330
,  // measure 127
0002
0000
2000
3003
,  // measure 128
0010
0001
0010
0000
0100
1000
0100
0000
,  // measure 129
1000
0010
0100
0010
0001
0000
0110
0000
,  // measure 130
2100
3010
0012
0103
,  // measure 131
2002
3003
1010
0011
,  // measure 132
1000
0000
1000
0000
1000
0000
0001
0100
,  // measure 133
0000
0001
0001
0001
,  // measure 134
2000
0100
0010
3001
,  // measure 135
0220
0000
0330
0000
0000
1000
0001
0000
,  // measure 136
0110
0000
0001
0100
0000
0010
1000
0000
,  // measure 137
0110
0000
0001
1000
0010
0100
0010
0000
,  // measure 138
0100
0001
1000
0010
0000
1100
0000
0022
,  // measure 139
0000
0033
0000
0000
0110
0000
1001
0000
,  // measure 140
0100
0000
0001
0001
0000
0100
0100
0000
,  // measure 141
0010
0000
1000
1000
0000
0010
0010
0000
,  // measure 142
0200
0301
0002
1003
,  // measure 143
2000
3010
1010
0101
,  // measure 144
2002
0000
0000
0000
0000
3003
0000
0010
,  // measure 145
0000
1000
0000
0001
0000
0100
0010
0000
,  // measure 146
1000
0100
0001
0000
0100
0000
0010
0000
,  // measure 147
0110
0000
1001
0000
0001
0010
1000
0000
,  // measure 148
0010
0000
0001
1000
0000
1000
0001
0100
,  // measure 149
0020
0000
1030
0000
0001
0100
0001
0000
,  // measure 150
2000
0000
3010
0000
0010
0100
0010
0000
,  // measure 151
0200
0000
0301
0000
0001
1000
0001
0000
,  // measure 152
0020
0000
0032
0000
0003
0000
0100
0001
,  // measure 153
1000
0010
0000
0010
0000
0010
0100
0000
,  // measure 154
1001
0000
0000
0110
0000
0000
1001
0000
,  // measure 155
0001
0010
0001
0100
0002
0000
1003
0000
,  // measure 156
0110
0000
0001
0001
0000
1000
1000
0000
,  // measure 157
1000
0100
1000
0010
2000
0000
3001
0000
,  // measure 158
1000
0000
0001
0010
0000
0001
0010
0100
,  // measure 159
1000
0000
0100
1000
0000
0001
0100
0010
,  // measure 160
1000
0100
0010
0000
0100
0010
0001
0000
,  // measure 161
2002
0000
3003
1100
,  // measure 162
1010
0000
0001
0000
0100
0001
0100
0000
,  // measure 163
0010
1000
0010
0000
1000
0000
0011
0000
,  // measure 164
0101
0000
1000
0000
0100
0010
0001
0000
,  // measure 165
0100
0001
1000
0001
0100
0000
0110
0000
,  // measure 166
1001
0000
0000
0000
;

//---------------dance-single - ----------------
#NOTES:
     dance-single:
     :
     Challenge:
     10:
     0.653,0.673,0.505,0.454,0.184: // measure 1
0000
0000
0000
0000
,  // measure 2
0000
0000
0000
0000
,  // measure 3
0000
0000
0000
0000
,  // measure 4
0000
0000
0000
0000
,  // measure 5
0000
0000
0022
0000
,  // measure 6
0000
0000
0000
0030
0000
0200
0000
0000
,  // measure 7
0000
0000
0303
2020
,  // measure 8
0000
0000
0000
0000
0000
0000
0000
0000
0000
0000
0000
0000
0030
0000
0000
0200
,  // measure 9
0000
0000
0000
0000
0000
0000
0000
3300
,  // measure 10
0000
2002
0000
0000
3003
0000
0220
0000
,  // measure 11
0000
0000
0000
0330
,  // measure 12
1000
0001
1000
0001
1000
0001
1000
0001
1000
0000
0000
0000
0110
0000
0000
0000
,  // measure 13
0001
0010
1000
0000
0001
0010
1000
0001
,  // measure 14
1000
0100
0010
0100
1000
0100
0010
0001
,  // measure 15
1000
0110
0001
0110
,  // measure 16
1000
0100
1000
0010
1000
0001
1000
0010
,  // measure 17
1000
0000
0000
0000
0001
0000
0000
0000
0110
0000
0000
0000
1000
0000
0000
0001
,  // measure 18
1000
0100
0010
0001
0100
0001
0010
0100
,  // measure 19
1000
0000
0001
0010
1100
0000
0010
0100
,  // measure 20
1001
0000
0000
0110
0000
0000
1001
0000
0000
0000
0000
0100
0001
0000
1000
0000
,  // measure 21
0001
0100
0002
0000
1003
0001
0010
0200
,  // measure 22
0000
1000
0000
0010
0000
0301
0100
0010
,  // measure 23
1000
0000
0010
0100
1001
0000
0010
0001
,  // measure 24
1000
0100
0001
0100
1000
0010
0001
0010
,  // measure 25
2000
0100
3100
0000
0002
0010
0013
0000
,  // measure 26
1000
0100
0010
0100
0010
0001
0100
0000
,  // measure 27
0011
0000
0000
0000
1100
0000
0000
0000
0020
0000
0000
1000
0000
0000
0001
0000
,  // measure 28
0230
0000
0000
0001
0000
0000
1000
0300
0010
0000
0000
0000
0110
0000
0000
0000
,  // measure 29
2001
3010
0120
1030
,  // measure 30
0001
0010
0100
1000
0000
0001
0100
0010
,  // measure 31
1000
0001
1000
0000
0001
0010
0001
0100
,  // measure 32
0001
1000
0010
0100
0001
0010
1000
0010
,  // measure 33
0001
0000
0000
1100
0000
0000
2000
0000
3001
0000
0000
0000
0110
0000
0000
0000
,  // measure 34
0001
0000
1000
0000
0100
0000
1000
0000
0002
0000
0000
1000
0000
0000
0100
0000
,  // measure 35
0103
1001
0010
1001
,  // measure 36
0100
0000
0000
0000
0010
0000
1000
0000
0200
0000
0000
0001
0000
0000
1000
0000
,  // measure 37
1300
0000
0000
1000
0000
0000
0001
0000
0001
0000
0100
0000
1000
0000
0100
0000
,  // measure 38
0001
1001
1000
1010
,  // measure 39
1001
0000
0011
0000
1100
0000
0002
1000
,  // measure 40
0000
0000
0100
0000
0000
0000
0010
0000
0000
0000
1003
0000
0001
1000
0001
0000
,  // measure 41
1000
0010
0001
0010
1000
0000
0110
0000
,  // measure 42
0001
0000
0100
0010
0100
0000
0001
0000
0000
0000
1000
0000
0010
0000
0100
0000
,  // measure 43
0020
0000
1030
0001
0200
0000
0301
2000
,  // measure 44
0000
3001
0100
0010
1000
0001
1000
0002
,  // measure 45
0010
0010
0100
0103
,  // measure 46
0001
0010
0001
0001
1000
0100
1100
0000
,  // measure 47
0010
1000
0011
0000
1000
0001
1010
0000
,  // measure 48
1001
0000
0000
0000
1001
0000
0000
0000
0100
0000
0000
0010
0000
0000
0100
0000
,  // measure 49
0001
0000
0000
1000
0000
0000
0001
0000
2000
0000
0000
0000
3002
0000
0000
0000
,  // measure 50
1003
0000
0000
0001
0010
0000
0001
0000
0100
0000
0002
0000
0000
0000
1003
0000
,  // measure 51
0100
0000
0000
1000
0010
0000
0100
0000
0010
0000
0100
0000
0001
0000
0100
0000
,  // measure 52
0001
0010
1000
0000
0001
0100
1000
0000
,  // measure 53
0001
0000
0010
0000
0001
0000
1000
0000
0001
0100
0000
0000
1001
0000
0000
0000
,  // measure 54
1000
0000
0000
0110
0000
0000
1000
0000
0010
0000
0000
1001
0000
0000
0010
0000
,  // measure 55
0100
0000
0000
1001
0000
0000
0100
0000
0001
0000
0000
0110
0000
0000
0001
0000
,  // measure 56
1000
0101
1010
0110
,  // measure 57
1000
0100
1000
0000
0001
0000
0010
0000
0001
0000
0100
0000
0010
0000
1000
0000
,  // measure 58
0200
0000
0000
0000
0000
0000
1300
0000
0001
0000
0100
0000
0001
0010
0001
0000
,  // measure 59
1000
0000
0000
0110
0000
0000
0001
0000
0000
0000
0100
0000
0010
0000
0000
0000
,  // measure 60
1000
0100
0010
0000
0100
1000
0100
0001
,  // measure 61
0100
0010
0001
0010
1000
0010
0001
0000
,  // measure 62
1100
0000
0000
0010
0100
0000
0000
0000
0011
0000
0000
0100
0010
0000
0000
0000
,  // measure 63
0100
0001
1000
0001
0100
0020
0000
0000
,  // measure 64
1030
0001
0010
0001
1000
0001
0010
0000
,  // measure 65
0001
0100
0010
0100
0001
0000
0110
0000
,  // measure 66
1100
0000
0000
0000
0022
0000
0000
0000
0033
0000
0000
0000
1000
0100
1000
0000
,  // measure 67
0001
0010
0001
0000
1000
0000
0001
0000
0000
0000
1000
0000
0001
0000
0100
0000
,  // measure 68
0001
0000
0010
0001
0100
0001
0010
0000
,  // measure 69
0001
0000
0000
1000
0000
0000
0001
0000
1000
0000
0001
0010
0001
0000
1000
0000
,  // measure 70
0010
0100
0001
2000
0000
0100
0000
3010
,  // measure 71
0000
1000
0100
0001
0100
1000
0001
0100
,  // measure 72
0010
0000
1000
1100
0000
0001
0010
0100
,  // measure 73
1000
0000
0001
0101
0000
1000
0100
0010
,  // measure 74
0001
0010
0001
0010
0100
1000
0100
2000
,  // measure 75
0002
0000
3003
0110
,  // measure 76
0110
0000
0000
0000
1000
0000
0001
0000
1100
0000
0000
0110
0000
0000
0011
0000
,  // measure 77
1001
0000
0000
0000
0100
0000
1000
0000
0001
0000
1000
0010
1000
0000
0010
0000
,  // measure 78
0100
0000
0000
0000
0001
0000
1000
0100
1000
0000
0000
0000
0001
0000
0010
0001
,  // measure 79
0010
0001
1000
0010
0100
0001
1000
0100
,  // measure 80
1000
0000
0001
0001
0101
1000
1000
1010
,  // measure 81
0000
1000
0001
0100
0010
0100
0010
0100
,  // measure 82
0001
0000
0000
0000
0100
0000
0010
1000
0010
0000
0000
0000
1000
0000
0100
1000
,  // measure 83
0100
0000
0000
0020
0002
0000
0000
0000
0000
0000
0000
0000
0033
0000
0000
0000
,  // measure 84
1000
1100
0001
0011
,  // measure 85
1000
0001
0010
0100
0000
0010
0001
0000
,  // measure 86
0100
0000
0001
0000
1000
0000
0010
0000
0000
0000
1000
0000
0001
0010
0001
0000
,  // measure 87
0200
0001
0000
0310
0000
1000
0001
0000
,  // measure 88
0110
0000
0000
0000
0000
0000
0000
1000
0200
0000
0000
0000
0300
0000
0000
0000
,  // measure 89
1001
0000
0000
0000
0000
0000
0000
0010
0002
0000
0000
0000
0003
0000
0000
0000
,  // measure 90
1000
0100
0010
0001
1000
0100
0010
0001
,  // measure 91
2000
0000
0200
0300
0002
0003
0020
0030
,  // measure 92
3002
0000
2000
3000
0200
0300
0020
0033
,  // measure 93
2002
0000
0000
3003
2200
0000
0000
3300
,  // measure 94
0022
0000
0000
0000
0033
0000
0220
0000
0000
0330
0001
0000
1000
0000
0001
0000
,  // measure 95
0000
0000
0220
0330
2020
0000
0000
3030
,  // measure 96
0202
0000
0000
0000
0000
0000
0000
0000
0303
0000
0000
0000
1001
0000
0000
0000
0000
0000
0000
0000
1000
0000
0000
0100
0000
0000
0001
0000
0000
0100
0000
0000
,  // measure 97
1000
0000
0220
0330
2200
0000
0000
3300
,  // measure 98
0202
0000
0303
0220
0330
0001
1000
0001
,  // measure 99
0000
0000
2002
3003
2020
0000
0000
3030
,  // measure 100
0022
0000
0000
0000
0033
0000
2002
0000
3003
0000
0010
0100
0010
0000
0100
0000
,  // measure 101
0001
1000
0100
1000
0001
0000
0100
0001
,  // measure 102
1000
0000
0001
0000
0100
0000
0010
0000
0101
0000
0000
1001
0000
0000
1010
0000
,  // measure 103
2000
0000
3001
0010
0002
0000
0103
0010
,  // measure 104
0100
0000
0001
0000
1000
0000
0000
0000
0010
0000
0000
1001
0000
0000
0100
0000
,  // measure 105
0002
0000
0000
1000
0000
0000
0103
0000
0100
0000
0000
0000
1001
0000
0000
0000
,  // measure 106
0010
0000
0100
0000
0010
0000
1000
0000
0010
0000
0000
0100
0001
0000
0000
0000
,  // measure 107
1010
0000
0010
0000
0101
0000
0100
0001
,  // measure 108
0000
0000
1000
0000
0100
0000
0010
0000
0001
0000
0010
0000
0100
1000
0100
0000
,  // measure 109
1000
0000
0000
0010
1000
0000
0000
0001
0100
0000
0000
0000
0011
0000
0000
1000
,  // measure 110
0100
1000
0001
1000
0000
0001
0010
0001
,  // measure 111
0100
0001
1000
0010
2000
0000
3001
0100
,  // measure 112
0010
0000
1000
0000
0010
0000
0100
0001
0100
0000
0001
0000
1000
0000
0010
0000
,  // measure 113
1000
0100
0200
0000
0310
0001
0002
0000
,  // measure 114
1003
0100
0100
1000
0001
0010
0010
0001
,  // measure 115
1100
0101
0011
1100
,  // measure 116
2002
0000
0000
3003
,  // measure 117
0110
0000
0000
1001
0000
0000
0110
0000
1000
0001
0000
0000
0110
0000
0000
0000
,  // measure 118
1001
0000
0000
1000
0100
0000
0000
0100
0010
0000
0000
0010
0001
0000
0000
0001
,  // measure 119
1000
0000
0000
1000
0100
0000
0000
0100
0001
0000
0000
0001
0100
0000
0000
0100
,  // measure 120
1000
0011
1100
0001
,  // measure 121
0100
0000
0000
0001
1000
0000
0000
1000
0010
0000
0000
0010
0100
0000
0000
0000
,  // measure 122
0110
0000
0000
0001
0100
0000
0000
0100
1000
0000
0000
1000
0100
0000
0000
0100
,  // measure 123
0001
0000
0000
0001
0100
0000
0000
0100
0010
0000
0000
0010
1000
0000
0000
1000
,  // measure 124
0001
0010
1000
0010
0001
0100
1000
0100
,  // measure 125
0001
0010
0100
1000
0001
0010
0100
1000
,  // measure 126
0022
0000
0000
0033
,  // measure 127
1000
0002
2000
0000
0000
0000
3003
0000
0010
0100
0010
0000
1000
0001
1000
0001
,  // measure 128
2000
3020
0230
0302
,  // measure 129
1003
0001
0100
0001
0000
0001
0100
0000
,  // measure 130
0002
0000
0000
0000
2003
0000
0000
0000
3020
0000
0000
0000
0130
0001
0100
0000
,  // measure 131
0001
1000
0010
0100
0010
1000
0001
0000
,  // measure 132
1000
0100
1000
0000
1000
0100
0010
0000
,  // measure 133
0010
0001
0100
0000
0100
0001
1000
0000
,  // measure 134
0011
2200
3300
1010
,  // measure 135
0202
0000
0303
0000
0000
1000
0002
0000
,  // measure 136
2003
0000
0000
3020
0000
0030
0200
0302
,  // measure 137
0000
0003
2000
3020
0000
1030
0001
1000
,  // measure 138
0001
0100
0001
0020
0000
0001
0000
0100
,  // measure 139
0000
1000
0000
0100
0000
0031
1000
0000
,  // measure 140
0110
0000
0000
1001
0000
1000
0000
0001
,  // measure 141
1001
0000
0000
0110
0000
0100
0000
0010
,  // measure 142
0110
1000
0001
0110
,  // measure 143
1001
0010
0100
1001
,  // measure 144
1001
0010
0100
1000
0100
0010
0001
2000
,  // measure 145
0000
0000
0001
0000
0000
0000
0010
0000
0000
0000
3001
0000
1000
0001
1000
0001
,  // measure 146
1000
0000
0001
1000
0110
0000
1000
0001
,  // measure 147
0100
0010
1000
0100
0010
0001
1000
0000
,  // measure 148
0001
0000
0010
0000
0001
0000
2000
0000
0000
0000
3001
0000
0010
0001
0010
0000
,  // measure 149
0001
0100
0010
0100
0010
1000
0001
1000
,  // measure 150
0010
1100
0010
0101
,  // measure 151
1000
0100
0010
0001
0010
0100
1000
0000
,  // measure 152
0110
0000
0000
0001
1000
0000
0000
1000
0010
0000
0000
0010
0100
0000
0000
0100
,  // measure 153
0001
0100
0001
0010
0100
1000
0010
1000
,  // measure 154
0001
0000
0000
1010
0000
0000
0001
0000
0000
1100
0000
0000
0001
0000
0000
0000
,  // measure 155
1000
0000
0000
0110
0000
0000
0001
0000
1000
0000
0001
0010
0001
0000
1000
0000
,  // measure 156
0001
1000
0010
0100
0000
1010
0000
0011
,  // measure 157
0000
1100
0000
0101
0000
1000
0001
0000
,  // measure 158
1000
0100
0001
0100
0000
0010
0001
0010
,  // measure 159
1000
0010
0001
0010
0000
0100
1000
0100
,  // measure 160
1000
0100
0001
1000
0010
0001
1000
0001
,  // measure 161
0220
0000
0330
1001
,  // measure 162
0110
0000
0000
0000
1000
0000
0000
0000
0001
0000
0000
0010
0000
0000
1000
0000
,  // measure 163
0010
0001
1000
0100
1000
0000
0110
0000
,  // measure 164
1001
0000
0010
0001
1000
0100
1000
0001
,  // measure 165
1000
0120
0130
2001
,  // measure 166
0002
3003
0000
0000
;
