#TITLE:Telephone (Featuring Beyonce);
#SUBTITLE:;
#ARTIST:Lady Gaga;
#TITLETRANSLIT:;
#SUBTITLETRANSLIT:;
#ARTISTTRANSLIT:;
#CREDIT:;
#BANNER:Telephone-banner.png;
#BACKGROUND:Telephone.png;
#LYRICSPATH:;
#CDTITLE:./CDTITLES/DanceDanceRevolution X.png;
#MUSIC:106-lady_gaga-telephone_(featuring_beyonce).mp3;
#OFFSET:0.728;
#SAMPLESTART:132.485;
#SAMPLELENGTH:15.000;
#SELECTABLE:YES;
#BPMS:0.000=122.000;
#STOPS:;
#BGCHANGES:0.000=Telephonefinal.avi=1.000=1=1=0,
429.000=Telephone.png=1.000=0=0=1,
430.000=Telephone.png=1.000=0=0=1,
99999=-nosongbg-=1.000=0=0=0 // don't automatically add -songbackground-
;

//---------------dance-single - ----------------
#NOTES:
     dance-single:
     :
     Medium:
     5:
     0.387,0.388,0.308,0.326,0.000:
0000
0000
0000
0000
,
0000
0000
0000
0000
,
0000
0000
0000
0000
,
0000
0000
1000
1000
,
0001
0010
0100
1000
,
2002
3003
0001
0010
,
0001
0100
1000
0100
,
0202
0303
0001
1000
,
0100
1000
0010
0100
,
0202
0303
0010
0010
,
1000
0100
1000
0001
,
0022
0033
1100
1001
,
2010
3001
0101
1010
,
0210
0010
0310
0000
0001
0000
0010
0000
,
1000
0100
0001
0101
,
2010
0010
3010
0000
0100
0000
0001
0000
,
0100
0000
0010
0000
1000
0000
0100
0010
,
0002
1003
1000
0100
,
0001
0000
0100
0000
1000
0010
0100
0000
,
1002
1003
0001
0011
,
1000
0000
1100
0000
1000
0000
0001
0100
,
2000
3100
0001
0010
,
0100
1000
1001
1001
,
1001
0000
0021
0031
,
2100
3100
1000
0001
,
0100
0010
0100
0000
0010
0000
1000
0000
,
0100
0010
0001
1000
,
0001
0100
0010
0000
2010
0000
3010
0000
,
0201
0301
0001
0100
,
0010
1000
0100
0000
1000
0000
0100
0000
,
0010
0001
0100
0010
,
1000
0001
1000
0000
0001
0000
0010
0000
,
0100
1000
0001
0010
,
0011
0101
1010
1000
,
0010
0100
0001
0100
,
0020
1000
1030
0000
1000
0000
0100
0000
,
0010
0001
1000
0100
,
0011
0101
1001
1000
,
0100
1000
0010
0100
,
0002
1000
1003
0000
1000
0000
0010
0000
,
1000
0100
1000
0001
,
0200
0010
0310
0000
0010
0000
1000
0000
,
0100
0001
0100
1000
,
0020
0100
0130
0000
0001
0000
0010
0000
,
1000
0010
0001
0100
,
2000
0100
3100
0000
0001
0000
0010
0000
,
0100
1000
0001
0100
,
1010
1001
2000
3200
,
0310
0010
0010
0000
0200
0000
2300
0000
,
3010
0101
0002
2003
,
3001
0011
0002
2003
,
3010
1010
1000
0100
,
0001
0010
2000
0000
,
0000
0000
3001
0001
,
0001
0000
0001
0000
1000
1000
0001
0001
,
1000
1000
0001
0000
0100
0000
0010
0000
,
1000
0100
0010
0001
,
1001
0000
1000
0100
,
1000
0010
0100
0001
,
0011
0000
0001
0001
,
1000
1000
0100
0100
,
0020
0031
0001
0100
,
0100
0010
1000
0100
,
2200
0000
0000
3300
0001
0000
0100
0000
,
0202
0000
0000
0303
1000
0000
0001
0000
,
2002
0000
0000
3003
0010
0000
1000
0000
,
0010
0100
0001
2000
,
0002
0000
0000
3003
2000
0000
3001
0001
,
0200
0000
0310
0010
1000
0000
0100
0000
,
1000
0100
0010
0001
0000
0000
1001
0000
,
0001
0101
0010
1010
,
0002
1000
1003
0000
0002
0000
0013
0010
,
0200
0000
0310
0010
0001
0000
1000
0000
,
0001
0010
0100
1000
0000
0000
1001
0000
,
1000
1010
0001
0101
,
0200
0010
0310
0000
2000
0000
3001
0001
,
0020
0000
0130
0100
0010
0000
0001
0000
,
1000
0010
0100
0001
0000
0000
1010
0000
,
1000
1100
0010
0011
,
0002
0100
0103
0000
0020
0000
1030
1000
,
0200
0000
0310
0010
0001
0000
1000
0000
,
0001
0100
0010
1000
0000
0000
0110
0000
,
0001
0101
0010
1010
,
0002
1000
1003
0000
1000
0000
0100
0000
,
1000
0100
1000
0001
,
0101
0011
0001
0010
,
0001
0100
0001
0010
,
0002
0100
0103
0000
0010
0000
1000
0000
,
0100
0001
0100
1000
,
0110
1001
1000
0100
,
0010
0001
0010
0100
,
1000
0000
0001
0000
2000
0000
3010
0100
,
0002
0000
1003
0100
2000
0000
3001
0010
,
0200
0000
0310
0000
0002
0000
1003
0001
,
0200
0000
0310
1000
0200
0000
1300
0001
,
0100
0010
1000
0000
0002
0000
0013
0001
,
2000
0000
3100
1000
0020
0000
0130
0001
,
0200
0310
2000
3100
,
1000
0100
0020
0000
0031
0100
0020
0000
,
1030
0100
2000
0000
3001
0000
0010
0001
,
0100
0010
2000
0000
3000
0001
0001
0001
,
0100
0010
1000
0000
0011
0000
0101
0000
,
1010
1100
1001
0110
,
2001
0000
3001
0000
0100
0000
0010
1000
,
0100
0010
0001
0000
0000
0001
0001
0001
,
1000
0010
0100
0000
1100
0000
1001
0000
,
0011
0110
1001
1010
,
0210
0301
0000
0000
;

//---------------dance-single - ----------------
#NOTES:
     dance-single:
     :
     Easy:
     4:
     0.281,0.364,0.249,0.100,0.000:
0000
0000
0000
0000
,
0000
0000
0000
0000
,
0000
0000
0000
0000
,
0000
0000
1000
1000
,
0001
1000
0100
0010
,
0002
0003
1000
0001
,
0100
0010
1000
0100
,
0020
0030
0001
0001
,
0100
0010
1000
0100
,
0020
0030
0001
0001
,
1000
1000
1001
0010
,
1001
0000
2000
0100
,
3100
1001
0002
0100
,
0103
0110
0001
0010
,
0100
1000
0100
0010
,
0001
1001
1000
1000
,
0001
0001
1000
0010
,
0100
0000
0100
0100
,
0010
0010
0100
0010
,
2000
3001
0001
0010
,
0100
0010
0001
0100
,
0020
0030
1000
0100
,
1000
0010
0100
0001
,
1000
0000
1000
1000
,
0010
0010
0100
0001
,
0100
0010
0000
1001
,
0000
1100
0000
0011
,
0000
1001
0010
0010
,
0100
0100
0010
1000
,
0100
1000
0001
0011
,
0000
1100
0000
1001
,
0000
0110
0010
1000
,
0010
1000
0010
1000
,
0000
0000
0001
0100
,
0001
0100
0001
0100
,
0000
0000
0001
1000
,
0001
1000
0001
1000
,
0000
0000
1000
0010
,
1000
0010
1000
0010
,
0000
0000
0100
0100
,
0010
0010
0100
0100
,
0010
1001
1000
1000
,
0001
0001
1000
1000
,
0001
0110
0100
1000
,
0100
1000
0100
1000
,
0001
0101
0001
0100
,
0001
0100
0010
1000
,
0100
0020
0031
0001
,
0001
0001
1000
1000
,
1000
1000
0010
0010
,
0010
0010
0100
0100
,
0100
0100
0001
0010
,
0100
1000
0002
0000
,
0000
0000
1003
1000
,
1000
1000
1000
1000
,
1000
1000
0001
0000
,
0000
0000
0000
0000
,
0000
0000
0000
0000
,
0000
0000
0000
0000
,
0000
0000
0001
0001
,
1000
1000
0010
0010
,
0100
0100
0001
0010
,
0001
0010
0100
1000
,
1001
0000
0010
0010
,
0220
0330
0001
0001
,
0202
0303
0010
0010
,
1000
1000
0010
0100
,
1001
0000
1000
0100
,
1000
0100
0010
0001
,
0100
0110
0000
1010
,
0000
0101
0000
1001
,
0000
1100
0001
0001
,
1000
1000
0010
0100
,
0010
0100
0010
1010
,
0000
0110
0000
0101
,
0000
1001
1000
0100
,
1000
0100
1000
0010
,
1000
0010
0100
0101
,
0010
1010
0100
0101
,
0010
1010
0001
0100
,
0010
0100
0001
0010
,
1000
0010
0001
0101
,
0010
1010
0100
0110
,
0001
1001
1000
0100
,
0010
0001
1000
0200
,
0000
0000
0310
0001
,
1000
0100
1000
0020
,
0000
0000
0130
0001
,
0100
0010
1000
0100
,
2000
0000
3001
0010
,
0100
1000
0100
1000
,
1001
1001
0001
0001
,
1000
1000
0001
0010
,
0100
0110
0001
0100
,
1000
0100
0001
0100
,
1000
1010
1000
0010
,
1000
0010
0100
0001
,
0100
0011
0001
0010
,
1000
0010
0001
0100
,
1000
0100
0022
0033
,
1000
1100
2020
3030
,
0010
0100
0101
1010
,
0101
1010
1000
0100
,
1000
0010
2002
3003
,
0010
1000
0100
0010
,
0010
0001
0001
0011
,
0100
0101
0010
1010
,
1001
1100
0000
0000
;

//---------------dance-single - Copied from Copied f----------------
#NOTES:
     dance-single:
     Copied from Copied f:
     Hard:
     8:
     0.517,0.534,0.367,0.163,0.059:
0000
0000
0000
0000
,
0000
0000
0000
0000
,
0000
0000
0000
0000
,
0000
0000
1000
1000
,
0001
0000
0010
0000
0001
0010
0100
1000
,
0002
0003
0100
0010
,
0100
0000
0010
1000
0001
1000
0200
0000
,
0020
0000
0330
0000
0001
0001
0002
1003
,
0010
0100
0001
1000
0001
0000
0010
0000
,
0200
0000
0300
0000
0001
0100
1000
0100
,
0001
0000
1000
0000
0100
0010
0001
0000
,
2002
0000
0000
3003
1000
0001
0100
0000
,
1001
0000
0001
1000
1000
0100
0010
0000
,
0011
0000
1001
0000
0001
0010
0100
1000
,
0001
1000
0001
0100
0010
1000
0100
0010
,
0001
0000
1001
0000
0001
0001
0010
0100
,
0010
0001
1000
0010
1000
0100
0001
0100
,
2000
0000
3000
0000
1000
1000
0100
1000
,
0001
1000
0001
0100
1000
0100
0002
0000
,
2000
0000
3003
0000
1000
0100
1000
0100
,
0010
0001
0010
0001
1000
0010
0100
0001
,
0200
0000
0300
0000
1000
0010
1000
0001
,
0100
0100
0001
1000
0010
0100
0020
0000
,
0200
0330
0001
0101
,
1000
0000
1100
0000
1000
0100
0001
0100
,
1000
0010
0100
0020
0000
0030
0110
0000
,
0001
0010
0100
0000
1000
0010
0100
0002
,
0000
2000
0000
3003
1000
0000
1100
0000
,
0001
0000
0101
0000
1000
0100
0010
0001
,
0100
0100
0001
0002
0000
0003
1001
0000
,
0010
1000
0010
0000
0100
0001
0100
0020
,
0000
0200
0000
0330
1000
0010
0100
0001
,
1000
0010
0100
0001
1000
0010
0100
0000
,
1100
0000
0110
0000
1001
0001
0010
0100
,
1000
0001
0010
0100
1000
0001
0020
0000
,
0030
0100
0100
0000
1000
0010
1000
0100
,
1000
0001
1000
0010
1000
0100
1000
0001
,
0011
0000
0101
0000
1001
0001
0010
0001
,
0100
0001
1000
0001
0100
0001
1000
0000
,
1001
0000
0000
0000
1100
0000
0000
0000
1000
0000
0001
0010
0001
0000
0010
0100
,
0010
0000
0100
0000
1000
0000
0001
1000
0001
0000
0100
0000
0010
0000
1000
0000
,
0001
0000
0011
0000
1001
0000
0000
0000
0001
0000
1000
0010
1000
0000
0001
1000
,
0001
0000
0100
0000
0100
0000
0010
0100
0010
0000
1000
0000
0100
0000
0010
0000
,
0001
0000
0101
0000
1001
0000
0000
0000
1000
0000
0001
1000
0001
0000
0100
0001
,
0100
0000
0001
0000
0001
0000
0100
0000
0010
0000
1000
0100
1000
0000
0001
0000
,
1000
0000
1010
0000
0110
0000
0000
0000
0010
0000
0100
0010
0100
0000
0010
1000
,
0010
0000
1000
0000
0010
0000
1000
0001
1000
0000
0001
0000
0010
0000
0100
0000
,
0010
0011
0110
0000
0001
0010
1000
0010
,
0001
0001
0001
1000
0001
1000
0100
0010
,
0001
0000
1001
0000
0001
0100
1000
0100
,
0001
0000
0101
0000
1000
0010
0001
0010
,
1000
0000
1010
0000
0001
0100
0001
0100
,
0010
1000
0010
1000
1001
0000
1100
0000
,
0001
0001
1001
0011
,
1001
0000
1010
0000
1001
1000
1010
0010
,
0110
0100
0101
0000
0001
0000
0100
0000
,
1000
0010
0100
2000
,
0002
3003
1000
0010
,
0001
0000
0100
0000
0010
0001
0002
0000
,
2000
0000
3003
0000
1000
0100
0001
0100
,
0010
0000
0001
0010
0100
0000
1100
0000
,
0101
0000
0000
0000
0001
0010
1000
0010
,
0100
0000
0100
1000
0001
1000
0100
0000
,
1001
0000
1010
0010
0100
0001
0100
0000
,
0110
0000
1100
0100
0010
0100
1000
0000
,
1100
0000
0101
0001
0100
0010
1000
0001
,
0100
0010
1000
0001
0100
0010
1001
0000
,
0220
0000
0000
0330
1000
0000
0011
0000
,
0001
0000
1100
0000
0001
1000
0100
1000
,
0001
0010
1000
0020
0000
0130
0100
1000
,
0100
0000
1000
0001
0100
0001
0010
0200
,
0000
0010
0310
0000
0010
0000
1001
0000
,
1000
0000
0110
0000
1000
0001
0100
0001
,
1000
0100
0001
0200
0000
0310
0010
0001
,
1000
0000
1000
0010
0100
0001
1000
0002
,
0000
1000
1003
0000
1000
0100
0110
0000
,
0001
0100
0110
0000
0100
0001
1000
0001
,
0010
0100
1000
0002
0000
1000
1003
0100
,
0001
0100
1000
0001
0100
0010
0100
0010
,
0000
1001
1001
0000
0001
0010
0011
0000
,
1000
0100
1100
0000
1000
0010
1000
0010
,
0100
0001
0100
0002
0000
1003
0001
0100
,
1000
0100
0001
0010
0100
0010
0001
1000
,
0000
1001
1001
0000
1000
0100
0001
0100
,
1000
0010
0001
0010
1000
0100
0001
0100
,
0100
1000
1000
0010
0010
0100
0001
0010
,
1000
0010
0001
0100
1000
0100
0002
0000
,
0003
1100
1100
0000
0001
0100
1000
0100
,
0001
0010
1000
0010
0001
0100
1000
0100
,
0100
0010
0010
1000
1000
0001
0100
1000
,
0100
0001
0010
1000
0010
0001
2000
0000
,
3000
0000
1010
0000
1010
0000
0000
0000
1000
0000
0001
0100
0001
0000
1000
0010
,
0100
0000
0001
0000
1000
0000
0100
0010
0100
0000
1000
0000
0100
0000
0010
0000
,
0001
0000
0011
0000
1100
0000
0000
0000
0001
0000
0100
0001
0100
0000
0001
0100
,
0010
1000
0001
0000
0100
0000
0010
1000
0010
0000
0100
0000
0001
0000
1000
0000
,
0001
0000
0101
0000
1010
0000
0000
0000
0001
0000
1000
0001
1000
0000
0001
0010
,
0100
0000
1000
0000
0001
0000
1000
0100
1000
0000
0100
0000
0010
0000
0001
0000
,
1000
0000
1001
0000
0110
0000
0000
0000
1000
0000
0100
1000
0100
0000
1000
0010
,
0100
0001
1000
0000
0010
0000
0100
0010
0100
0000
0010
0000
0100
0000
0001
0000
,
1000
0101
1001
0000
1002
0000
1003
0100
,
1000
0010
1000
0000
0010
0100
0100
0100
,
0001
1000
0001
0010
0100
1000
0100
0001
,
0100
0010
0100
1000
0100
0010
0001
1000
,
0001
1001
1100
0000
2001
0000
3001
0100
,
0001
1000
0001
0000
0100
0010
0010
0010
,
0100
0001
1000
0000
0010
0100
0010
1000
,
0010
0001
0010
0100
0010
1000
0001
1000
,
1100
1001
0011
0000
0000
0000
0000
0000
;
