#TITLE:Satellite (Radio Edit);
#SUBTITLE:Long Version Week;
#ARTIST:Oceanlab;
#TITLETRANSLIT:;
#SUBTITLETRANSLIT:;
#ARTISTTRANSLIT:;
#GENRE:115-use 1.062-mp3;
#CREDIT:Telperion;
#BANNER:;
#BACKGROUND:;
#LYRICSPATH:Satellite.lrc;
#CDTITLE:;
#MUSIC:Satellite (Radio Edit).mp3;
#OFFSET:-2.774;
#SAMPLESTART:38.325;
#SAMPLELENGTH:25.714;
#SELECTABLE:YES;
#BPMS:0.000=140.000;
#STOPS:;
#BGCHANGES:-12.819=Satellite.avi=1.000=0=0=0=StretchNoLoop====,
99999=-nosongbg-=1.000=0=0=0 // don't automatically add -songbackground-;
#KEYSOUNDS:;

//---------------dance-single - Telperion----------------
#NOTES:
     dance-single:
     Telperion:
     Hard:
     8:
     0.466,0.527,0.180,0.185,0.234:
0000
0000
0000
0000
,
0000
0000
0000
0000
,
0000
0000
0000
0000
,
0000
0000
0000
0000
,
1000
1000
0001
0001
,
1000
0100
0001
0100
,
0010
0010
0001
0001
,
0100
0100
1000
0010
,
0001
0001
1000
1000
,
0001
0100
0010
0100
,
1000
0000
0001
0000
0100
0000
0010
0100
,
0000
0100
0000
0000
0000
0000
0010
0001
,
0100
0000
0010
0000
0100
0010
0100
0000
,
0001
0000
1000
0000
0100
1000
0100
0000
,
1000
0001
0200
1000
,
0301
1000
0200
0310
,
0001
0100
1000
0010
,
1000
0100
0001
0010
,
0100
0001
0010
0001
,
0100
1000
0010
0100
,
0220
0000
0030
0010
,
0302
0000
2003
0000
,
3200
0000
0302
0000
,
0023
0000
2030
0000
,
3200
0000
0000
0000
0000
0000
0300
1000
,
0100
0010
0000
0100
0000
0010
0100
0000
,
2000
0001
0000
0000
3100
0000
0020
0000
,
0001
0130
0020
0030
,
0210
0000
2300
0000
,
3020
0000
0032
0000
,
0203
0000
0302
0000
,
0023
0000
2030
0000
,
3200
0001
1300
0100
,
0020
0001
1030
0100
,
0020
1000
0031
0010
,
0200
1000
0301
0110
,
1001
0000
0000
0000
1100
0000
0000
0100
0000
0000
0010
0000
0001
0000
0000
0000
,
0100
0010
0000
0000
0100
0000
0000
1000
0000
0000
0100
0000
0001
0000
0000
0000
,
0101
0000
0000
0000
0110
0000
0000
1000
0000
0000
0100
0000
0010
0000
0000
0000
,
0100
1000
0000
0000
0100
0000
0000
0001
0000
0000
0100
0000
1000
0000
0001
0000
,
1001
0000
0000
0000
0110
0000
0000
0010
0000
0000
1000
0000
0100
0000
0010
0000
,
0001
0010
0000
0000
0011
0000
0000
0100
0000
0000
0010
0000
0100
0000
1000
0000
,
0100
0010
0000
0000
1010
0000
0000
0100
0000
0000
0010
0000
0110
0000
0000
0000
,
0011
0120
1030
0120
,
0031
0010
0001
0000
0010
0000
0100
0000
1000
0000
0010
0000
0100
0000
0000
0000
,
0100
0010
0100
0000
1000
0000
0100
0000
0010
0000
1000
0000
0100
0000
0000
0000
,
0010
0100
0010
0000
0001
0000
0010
0000
0100
0000
0000
0000
0100
0000
0000
0000
,
1000
0100
1000
0000
0100
0000
0010
0000
0100
0000
0000
0000
1000
0000
0000
0000
,
0001
0100
0001
0000
0100
0000
0000
0000
0010
0000
0000
0000
0010
0000
0000
0000
,
0100
1000
0100
0010
1000
0000
1000
0000
,
1000
0001
0000
0010
0000
0100
0000
1000
,
0000
0001
0000
0110
0000
1000
0000
0100
,
0110
0000
0000
0000
0001
0000
0000
0100
0000
0000
1000
0000
0100
0000
0000
0000
,
0010
0000
0100
0000
0010
0000
0000
1000
0000
0000
0100
0000
0001
0000
0000
0000
,
0100
0010
0100
1000
0001
1000
0010
0000
,
0100
1000
0100
0010
1000
0010
0100
0000
,
0001
0010
0000
0000
0100
0000
0000
1100
0000
0000
1000
0000
0001
0000
0000
0000
,
0001
0100
0000
0000
1000
0000
0000
1100
0000
0000
0010
0000
0100
0000
0001
0000
,
0010
0100
0000
0100
1000
0000
1000
0100
0000
0100
0010
0000
0001
0000
0100
0000
,
1000
0100
0010
0001
1000
0100
0001
1000
,
0100
2000
0100
0001
,
3020
1000
0100
0001
,
0230
1000
0001
0010
,
1300
0100
0001
0010
,
0100
0100
0100
0100
,
0100
0100
0100
0100
,
0110
0000
0002
0000
0100
0000
1003
0001
,
0000
0001
0000
0000
0000
0000
1000
0001
,
0000
0001
1000
0001
1000
0000
0101
0000
,
1100
0000
0011
0000
1010
0000
0001
1000
,
0000
1000
0001
1000
0001
1000
0100
0001
,
1000
0010
0001
0000
0001
0000
0001
0100
,
1000
0100
0010
0100
,
0001
1000
0001
1000
,
0100
0010
0001
2000
0000
0002
0000
0000
,
0000
0003
0001
0001
,
3001
0000
0000
0000
0001
0000
0000
1000
0000
0000
0100
0000
0000
0010
0000
0000
,
0100
1000
0000
0000
0001
0000
0000
0100
0000
0000
0010
0000
1000
0000
0100
0000
,
0010
0001
0000
0000
0100
0000
0000
1000
0000
0000
0100
0000
0000
0010
0000
0000
,
1000
0100
0000
0000
0010
0000
0000
0001
0000
0000
0010
0000
0000
0100
0000
0000
,
1000
0001
0000
0000
0001
0000
0000
1000
0000
0000
1000
0000
0000
0100
0000
0000
,
0010
0100
0000
0000
0100
0000
0000
1000
0000
0000
1000
0000
0000
0001
0000
0000
,
0100
0010
0000
0000
1000
0000
0000
0100
0000
0000
0001
0000
0100
0000
1000
0000
,
0020
1000
0031
0010
,
1001
0000
0000
0001
1000
0000
0000
1000
0100
0000
0000
0100
0010
0000
0000
0000
,
1001
0001
0100
0000
1001
1000
0100
0000
,
0011
0000
0000
0001
0100
0000
0000
0100
0010
0000
0000
0010
1000
0000
0000
0000
,
1000
0100
0001
0100
0010
0001
1000
0100
,
0001
0000
0000
0001
0100
0000
0000
0100
1000
0000
0000
1000
0010
0000
0000
0010
,
0001
0000
0000
0001
0100
0000
0000
0100
1000
0000
0000
1000
0100
0000
0000
0100
,
0010
0001
0010
0001
0100
0001
0100
0010
,
1000
0001
0100
0010
1000
0010
0100
0001
,
1000
0000
0000
1000
0100
0000
0000
0010
0001
0000
0000
0001
0100
0000
0000
0010
,
1000
0000
0000
1000
0010
0000
0000
0010
0100
0000
0000
0100
0001
0000
0000
0001
,
1000
0100
0001
0000
0001
0100
0010
0000
,
0001
0010
0100
1000
0001
0010
0001
0100
,
0010
0000
0000
0010
1000
0000
0000
1000
0001
0000
0000
0001
0100
0000
0000
0100
,
1000
0000
0000
1000
0001
0000
0000
0001
0010
0000
0000
0010
1000
0000
0000
1000
,
0100
0010
0110
0000
0001
0100
0110
0000
,
0010
1000
0010
0100
0001
1000
0010
1000
,
0001
0100
0000
0000
0101
0000
0000
0010
0000
0000
0100
0000
0110
0000
0000
0000
,
1000
0100
0000
0000
1100
0000
0000
0001
0000
0000
0100
0000
0101
0000
0000
0000
,
0010
1000
0000
0000
0100
0000
1000
0100
0000
0000
0010
0000
0001
0000
0010
0000
,
0100
0010
0000
0000
0001
0000
0001
1000
0000
1000
0001
0000
1000
0000
0100
0000
,
1000
0100
0000
0100
0010
0000
0010
0001
0000
0001
0100
0000
1000
0000
0000
0000
,
0100
0010
0000
0010
1000
0000
1000
0001
0000
0001
0010
0000
1000
0000
0010
0000
,
0001
0100
0010
0001
1000
0100
0010
1000
,
0100
0020
0001
0000
1030
0000
0010
0000
,
1001
0000
0000
0000
;

//---------------dance-single - Telperion----------------
#NOTES:
     dance-single:
     Telperion:
     Medium:
     5:
     0.315,0.333,0.077,0.257,0.000:
0000
0000
0000
0000
,
0000
0000
0000
0000
,
0000
0000
0000
0000
,
0000
0000
0000
0000
,
1001
1000
0001
0001
,
1000
0100
0001
0100
,
2000
0100
0001
3100
,
0002
1000
0103
0000
,
1000
0100
0010
0001
,
1000
0100
1000
0001
,
0200
1000
0010
1300
,
0100
0001
0010
1000
,
0100
0010
0100
0010
,
1000
0001
1000
0000
,
0001
0010
0001
0200
,
1000
0000
0302
0000
0003
0000
0000
1000
,
0001
0010
0100
1000
,
0001
0100
0001
1000
,
0200
1000
0000
1000
,
0000
1000
0300
1000
,
0200
0000
0000
0000
,
0000
0000
0000
0000
,
0320
0000
0032
0000
,
0203
0000
2300
0000
,
3020
0000
0000
0000
,
0000
0000
0000
0000
,
0230
0000
2300
0000
,
3002
0000
0203
0000
,
2300
0000
0000
0000
,
0000
0000
0000
0000
,
3200
0000
0302
0000
,
0023
0000
2030
0000
,
3001
0100
1000
0100
,
0010
0100
1000
0100
,
0010
0001
0100
0000
,
0010
1000
0100
1000
,
0001
0000
0000
0000
1000
0001
1000
0000
,
0001
0000
0000
0000
1000
0001
1000
0000
,
0100
0000
0000
0000
0010
0001
0010
0000
,
0100
0000
0000
0000
1000
0010
1000
0000
,
0100
0000
0100
0000
1000
0100
1000
0000
,
0001
0000
0001
0000
0100
0001
0100
0000
,
0010
0000
0100
0000
0010
0100
0010
0000
,
2000
0001
0000
3001
,
1000
1000
0001
0001
,
0010
1000
0100
0010
,
1000
1000
0001
0001
,
0100
0010
0001
0100
,
1000
0001
1000
1000
,
0001
0100
1000
0010
,
0001
0001
1000
1000
,
0001
0010
0100
0001
,
0010
0010
0100
0100
,
1000
0001
0100
1000
,
0100
0100
0010
0010
,
0100
0010
0001
1000
,
0100
0001
0100
1000
,
0001
0100
1000
0100
,
0020
1000
0100
2030
,
0100
3002
0203
0310
,
0220
0000
0000
0000
,
0000
0000
0000
0030
,
0010
0000
0010
0000
,
0010
0010
0310
0010
,
0010
1000
0010
1000
,
0100
1000
0100
0000
,
0010
0001
0010
0001
,
0100
0000
0000
0010
,
1000
0100
1000
0001
,
0100
0001
0020
0030
,
0001
0100
0001
1000
,
0100
0000
2000
0000
3000
0000
0000
1000
,
0100
0001
0100
0010
,
0100
1000
0001
1000
,
0010
0001
0010
0100
,
0010
1000
0100
0010
,
0220
0000
0300
0000
,
0032
0000
0203
0000
,
2300
0000
3020
0000
,
0032
0000
2003
0000
,
3002
0000
0023
0000
,
2030
0000
3200
0000
,
0302
0000
2003
0000
,
3001
1000
0001
1000
,
1001
0000
1000
0000
0100
1000
0100
0000
,
1001
0000
0001
0000
0100
0001
0100
0000
,
0110
0000
0010
0000
1000
0010
1000
0000
,
1100
0001
0101
0010
,
0110
0000
0100
0000
0010
0100
0010
0000
,
0011
0000
0001
0000
0100
0001
0100
0000
,
0110
0010
1000
0100
,
0101
0010
0100
0001
,
1001
0000
1000
0000
0001
1000
0001
0000
,
1001
0000
0001
0000
1000
0001
1000
0000
,
0100
1000
0100
0000
0010
0100
0010
0000
,
0001
0100
0001
0000
1000
0100
1000
0000
,
0001
1000
0100
0010
,
0001
0100
0010
0100
,
0020
1000
0031
0010
,
1000
0100
0020
0001
,
0130
0000
1000
0000
0001
1000
0001
0000
,
0010
0000
0100
0000
0010
0100
0010
0000
,
0001
0000
0100
0000
0010
0100
0010
0000
,
1000
0000
0001
0000
0100
0001
0100
0000
,
0010
1000
0200
0010
,
1300
0010
0200
1000
,
0302
0013
2000
3010
,
0100
1000
0001
0100
,
1001
0000
0000
0000
;

//---------------dance-single - Telperion----------------
#NOTES:
     dance-single:
     Telperion:
     Easy:
     3:
     0.212,0.222,0.067,0.195,0.000:
0000
0000
0000
0000
,
0000
0000
0000
0000
,
0000
0000
0000
0000
,
0000
0000
0000
0000
,
2000
0000
0001
0000
,
3100
0100
1000
1000
,
0002
0000
0100
0000
,
0023
0000
0000
0000
,
0030
0000
0100
0000
,
1000
0100
0010
0001
,
0200
0000
1000
0000
,
0302
0000
0000
0000
,
1003
0100
1000
0000
,
0001
0100
0001
0000
,
2000
0000
3200
0000
,
0320
0000
0030
0000
,
0001
0010
0001
0000
,
1000
0010
1000
0000
,
0002
0000
2000
0000
,
0003
0000
3000
0000
,
1001
0000
0000
0000
,
0000
0000
0000
0000
,
0000
0000
0000
0000
,
0000
0000
0000
0000
,
0100
0000
0000
0000
,
0000
0000
0000
0000
,
0010
0000
0000
0000
,
0001
0000
0000
0000
,
0100
0000
0010
0000
,
0100
0000
0001
0000
,
1000
0000
0100
0000
,
0010
0000
0001
0000
,
0020
0000
0230
0000
,
2300
0000
3020
0000
,
0230
0000
0302
0000
,
1003
0000
1001
0001
,
1001
0000
0100
0000
,
1100
0000
0010
0000
,
0011
0000
0100
0000
,
0110
0000
1010
0000
,
1001
0000
0100
0000
,
0101
0000
0010
0000
,
0110
0000
1000
0000
,
2001
0000
0000
0000
,
3002
0000
1000
0000
,
0103
0100
0001
0001
,
0020
0000
0001
0000
,
0130
0000
1000
0000
,
0020
0000
0100
0000
,
1030
1000
0100
0100
,
0020
0000
0032
0000
,
0203
0000
2300
0000
,
3100
0001
1000
0000
,
0100
1000
0001
0000
,
0100
0001
0100
0000
,
0010
0100
0010
0000
,
1000
0100
1000
0000
,
0100
0010
0100
0000
,
0010
0001
0100
0010
,
2000
0000
3001
1000
,
1001
0000
0000
0000
,
0001
0000
1000
0000
,
0001
1000
0001
1000
,
0001
1000
0100
0000
,
0100
1000
0001
0000
,
0001
0100
0010
0000
,
0010
0100
0001
0000
,
0001
0010
0100
0000
,
2000
0001
0000
0001
,
0000
0001
3000
0001
,
0200
1000
0000
1000
,
0000
1000
0300
1000
,
0200
0010
0000
0010
,
0300
0010
1000
0100
,
0000
0000
0010
0000
,
0100
1000
0001
0100
,
0020
0000
0000
0000
,
0030
0000
0000
0000
,
0200
0000
0000
0000
,
0302
0000
0000
0000
,
2000
0000
0000
0000
,
3003
0000
0000
0000
,
1000
0100
0010
0001
,
1000
0100
0010
0001
,
0200
0000
0310
0000
,
0020
0000
1030
0000
,
0100
0010
0001
0000
,
0100
1000
0100
0000
,
0002
0000
1003
0000
,
2000
0000
3100
0000
,
0010
0100
0010
0100
,
0010
0001
0010
0001
,
1000
0001
1000
0000
,
0100
1000
0100
0000
,
0010
0001
0010
0000
,
0001
0100
0001
0000
,
0010
0100
1000
0000
,
0010
0100
0001
0000
,
1000
0100
1000
0100
,
0010
0100
0010
0000
,
0002
1000
1003
0000
,
0100
0010
0001
0000
,
2000
0001
3001
0000
,
0001
0100
0010
0000
,
1000
0000
0100
0000
,
0001
0000
0010
0000
,
1000
0000
0100
0000
,
0001
0000
0010
0000
,
1001
0000
0000
0000
;

//---------------dance-single - Medium----------------
#NOTES:
     dance-single:
     Medium:
     Beginner:
     1:
     0.093,0.166,0.046,0.051,0.000:
0000
0000
0000
0000
,
0000
0000
0000
0000
,
0000
0000
0000
0000
,
0000
0000
0000
0000
,
1001
0000
0000
0000
,
0000
0000
0000
0000
,
1000
0000
0000
0000
,
0001
0000
0000
0000
,
0100
0000
0000
0000
,
0000
0000
0000
0000
,
0010
0000
0000
0000
,
0100
0000
0000
0000
,
0001
0000
0000
0000
,
0000
0000
0000
0000
,
1000
0000
0000
0000
,
0000
0000
0000
0000
,
0001
0000
0000
0000
,
0000
0000
0000
0000
,
1000
0000
0000
0000
,
0001
0000
1000
0000
,
1001
0000
0000
0000
,
0000
0000
0000
0000
,
0000
0000
0000
0000
,
0000
0000
0000
0000
,
0000
0000
0000
0000
,
0000
0000
0000
0000
,
0000
0000
0000
0000
,
0000
0000
0000
0000
,
0100
0000
0000
0000
,
0010
0000
0000
0000
,
1000
0000
0000
0000
,
0001
0000
0000
0000
,
0200
0000
0000
0000
,
0000
0000
0000
0000
,
0020
0000
0000
0000
,
0330
0000
0000
0000
,
0110
0000
0000
0000
,
0001
0000
1000
0000
,
1001
0000
0000
0000
,
0100
0000
0010
0000
,
0110
0000
0000
0000
,
0001
0000
1000
0000
,
1001
0000
0000
0000
,
0000
0000
0000
0000
,
1000
0000
0001
0000
,
1000
0000
0000
0000
,
0100
0000
0010
0000
,
0100
0000
0000
0000
,
0001
0000
0100
0000
,
0001
0000
0000
0000
,
0100
0000
0010
0000
,
0100
0000
0010
0000
,
0100
0000
0000
0000
,
0001
0000
0000
0000
,
1000
0000
0000
0000
,
0100
0000
0000
0000
,
0010
0000
0000
0000
,
0001
0000
0000
0000
,
0100
0000
0000
0000
,
0010
0000
0000
0000
,
0110
0000
0000
0000
,
0000
0000
0000
0000
,
0000
0000
0000
0000
,
0000
0000
0000
0000
,
0000
0000
0000
0000
,
0000
0000
0000
0000
,
0000
0000
0000
0000
,
0000
0000
0000
0000
,
2000
0000
0000
0000
,
3000
0000
0000
0000
,
0002
0000
0000
0000
,
0003
0000
0000
0000
,
2000
0000
0000
0000
,
3000
0000
0000
0000
,
0001
0000
0000
0000
,
1000
0000
0001
0000
,
1001
0000
0000
0000
,
0100
0000
0010
0000
,
0001
0000
0000
0000
,
0100
0000
0010
0000
,
1000
0000
0000
0000
,
0100
0000
0010
0000
,
0001
0000
0000
0000
,
0100
0000
0010
0000
,
1000
1000
1000
0000
,
0000
0000
0000
0000
,
0001
0001
0001
0000
,
0000
0000
0000
0000
,
0010
0010
0010
0000
,
0000
0000
0000
0000
,
0100
0100
0100
0000
,
0000
0000
0000
0000
,
1000
1000
1000
0000
,
0001
0001
0001
0000
,
1000
1000
1000
0000
,
0001
0000
0000
0000
,
0010
0010
0010
0000
,
0100
0100
0100
0000
,
0010
0010
0010
0000
,
0100
0000
0000
0000
,
2000
0000
0000
0000
,
3000
0000
0000
0000
,
0002
0000
0000
0000
,
0003
0000
0000
0000
,
2000
0000
0000
0000
,
3002
0000
0000
0000
,
0023
0000
0000
0000
,
0130
0000
0000
0000
,
1001
0000
0000
0000
;

//---------------dance-double - Hard----------------
#NOTES:
     dance-double:
     Hard:
     Hard:
     1:
     0.003,0.115,0.005,0.000,0.000:
00000000
00000000
00000000
00000000
,
00000000
00000000
00000000
00000000
,
00000000
00000000
00000000
00000000
,
00000000
00000000
00000000
00000000
,
00000000
00000000
00000000
00000000
,
00000000
00000000
00000000
00000000
,
00000000
00000000
00000000
00000000
,
00000000
00000000
00000000
00000000
,
00000000
00000000
00000000
00000000
,
00000000
00000000
00000000
00000000
,
00000000
00000000
00000000
00000000
,
00000000
00000000
00000000
00000000
,
00000000
00000000
00000000
00000000
,
00000000
00000000
00000000
00000000
,
00000000
00000000
00000000
00000000
,
00000000
00000000
00000000
00000000
,
00000000
00000000
00000000
00000000
,
00000000
00000000
00000000
00000000
,
00000000
00000000
00000000
00000000
,
00000000
00000000
00000000
00000000
,
00000000
00000000
00000000
00000000
,
00000000
00000000
00000000
00000000
,
00000000
00000000
00000000
00000000
,
00000000
00000000
00000000
00000000
,
00000000
00000000
00000000
00000000
,
00000000
00000000
00000000
00000000
,
00000000
00000000
00000000
00000000
,
00000000
00000000
00000000
00000000
,
00000000
00000000
00000000
00000000
,
00000000
00000000
00000000
00000000
,
00000000
00000000
00000000
00000000
,
00000000
00000000
00000000
00000000
,
00000000
00000000
00000000
00000000
,
00000000
00000000
00000000
00000000
,
00000000
00000000
00000000
00000000
,
00000000
00000000
00000000
00000000
,
00000000
00000000
00000000
00000000
,
00000000
00000000
00000000
00000000
,
00000000
00000000
00000000
00000000
,
00000000
00000000
00000000
00000000
,
00000000
00000000
00000000
00000000
,
00000000
00000000
00000000
00000000
,
00000000
00000000
00000000
00000000
,
00000000
00000000
00000000
00000000
,
00000000
00000000
00000000
00000000
,
00000000
00000000
00000000
00000000
,
00000000
00000000
00000000
00000000
,
00000000
00000000
00000000
00000000
,
00000000
00000000
00000000
00000000
,
00000000
00000000
00000000
00000000
,
00000000
00000000
00000000
00000000
,
00000000
00000000
00000000
00000000
,
00000000
00000000
00000000
00000000
,
00000000
00000000
00000000
00000000
,
00000000
00000000
00000000
00000000
,
00000000
00000000
00000000
00000000
,
00000000
00000000
00000000
00000000
,
00000000
00000000
00000000
00000000
,
00000000
00000000
00000000
00000000
,
00000000
00000000
00000000
00000000
,
00000000
00000000
00000000
00000000
,
00000000
00000000
00000000
00000000
,
00000000
00000000
00000000
00000000
,
00000000
00000000
00000000
00000000
,
00000000
00000000
00000000
00000000
,
00000000
00000000
00000000
00000000
,
00000000
00000000
00000000
00000000
,
00000000
00000000
00000000
00000000
,
00000000
00000000
00000000
00000000
,
00000000
00000000
00000000
00000000
,
00000000
00000000
00000000
00000000
,
00000000
00000000
00000000
00000000
,
00000000
00000000
00000000
00000000
,
00000000
00000000
00000000
00000000
,
00000000
00000000
00000000
00000000
,
00000000
00000000
00000000
00000000
,
00000000
00000000
00000000
00000000
,
00000000
00000000
00000000
00000000
,
00000000
00000000
00000000
00000000
,
00000000
00000000
00000000
00000000
,
00000000
00000000
00000000
00000000
,
00000000
00000000
00000000
00000000
,
00000000
00000000
00000000
00000000
,
00000000
00000000
00000000
00000000
,
00000000
00000000
00000000
00000000
,
00000000
00000000
00000000
00000000
,
00000000
00000000
00000000
00000000
,
00000000
00000000
00000000
00000000
,
00000000
00000000
00000000
00000000
,
00000000
00000000
00000000
00000000
,
00000000
00000000
00000000
00000000
,
00000000
00000000
00000000
00000000
,
00000000
00000000
00000000
00000000
,
00000000
00000000
00000000
00000000
,
00000000
00000000
00000000
00000000
,
00000000
00000000
00000000
00000000
,
00000000
00000000
00000000
00000000
,
00000000
00000000
00000000
00000000
,
00000000
00000000
00000000
00000000
,
00000000
00000000
00000000
00000000
,
00000000
00000000
00000000
00000000
,
00000000
00000000
00000000
00000000
,
00000000
00000000
00000000
00000000
,
00000000
00000000
00000000
00000000
,
00000000
00000000
00000000
00000000
,
00000000
00000000
00000000
00000000
,
00000000
00000000
00000000
00000000
,
00000000
00000000
00000000
00000000
,
00000000
00000000
00000000
00000000
,
00000000
00000000
00000000
00000000
,
00000000
00000000
00000000
00000000
,
00000000
00000000
00000000
00000000
,
11110000
00000000
00000000
00000000
;

//---------------dance-single - Tel-ITG----------------
#NOTES:
     dance-single:
     Tel-ITG:
     Edit:
     10:
     -1.000,-1.000,-1.000,-1.000,-1.000:
0000
0000
0000
0000
,
0000
0000
0000
0000
,
0000
0000
0000
0000
,
1000
0100
1000
0100
0010
0100
0010
0100
0001
0100
0010
0001
0100
0010
1000
0100
,
0020
0000
0000
0000
,
0032
0000
0000
0000
,
2003
0000
0000
0000
0000
0000
0000
0001
,
3000
0001
0000
0000
0000
0000
0000
0000
,
0020
0000
0000
0000
,
2030
0000
0000
0000
,
3002
0000
0000
0000
0000
0000
0000
1000
,
0003
1000
0000
0000
0100
0010
0001
0100
,
0000
0100
0010
0000
1000
0001
0100
0010
,
0000
0010
1000
0000
0100
1000
0100
0001
,
0000
0100
0010
0000
0100
1000
0001
0100
,
0000
0100
0001
1000
0100
1000
0010
0100
,
0000
1000
0100
0010
1000
0100
0010
0100
,
0001
0100
0010
0001
0100
0010
0100
1000
,
0100
0010
1000
0100
0001
0100
1000
0001
,
0100
1000
0100
0001
0010
1000
0010
0002
,
2000
0000
0003
3001
,
0100
0000
1000
0100
0001
0000
0001
0100
,
2000
0000
3200
0000
,
0302
0000
0023
0000
,
0230
0000
0000
0000
0000
0000
0300
0100
,
0010
0010
0000
0010
0000
0100
1000
0001
,
0100
0010
0000
0000
0010
1000
0000
0000
,
1000
0100
0000
0000
0100
0010
0000
0000
,
0010
0001
0000
0010
0100
0000
0010
0001
0000
0100
0010
0000
0100
1000
0000
0100
,
0010
0100
0000
0100
0001
0000
0001
0010
0000
0010
0100
0000
0100
1000
0000
1000
,
0001
1000
0000
0100
0010
0000
0100
1000
0000
1000
0001
0000
0001
0100
0010
0000
,
0100
0010
0000
0010
1000
0000
0100
0010
0000
0010
0001
0000
0100
0001
0100
0001
,
0010
0100
0000
0100
1000
0000
0100
0001
0000
0100
0010
0000
0001
0010
0001
0010
,
0100
1000
0000
0001
0100
0000
0100
0010
0000
1000
0010
0000
1000
0010
1000
0100
,
0010
0100
0010
0001
0100
0001
0100
0010
1000
0010
1000
0100
0010
0100
0010
0004
,
4000
0000
0000
0000
0000
0000
0000
3003
,
1001
0000
1000
0100
0010
0000
0100
1000
0000
1000
0001
0000
1000
0001
1000
0000
,
0001
0000
0001
0100
0010
0000
0010
0100
0000
0100
0001
0000
0010
0001
0010
0100
,
1000
0001
0000
0001
0100
0000
0100
1000
0000
1000
0100
0000
0100
0010
1000
0001
,
0010
0100
0000
0100
0010
0000
0001
0100
0000
0100
0010
0000
1000
0100
1000
0001
,
0100
0000
0010
0100
0010
0000
0010
1000
0000
0001
0010
0000
0001
1000
0010
0000
,
1000
0100
0010
0001
0010
0000
0001
0100
0000
0100
0010
0000
1000
0010
0100
0010
,
1000
0100
0010
0100
1000
0000
1000
0001
0000
0001
0100
0000
0010
0100
0010
0100
,
0020
2030
3200
0302
,
0013
0000
0001
0000
0100
0000
0010
0100
0000
0010
0100
0000
0001
0000
0001
0000
,
0100
0010
0100
0010
0100
1000
0100
1000
,
0001
0000
0100
0000
0010
0000
0100
0010
0000
0100
0010
0000
1000
0000
0100
0000
,
0010
0001
0100
1000
0010
1000
0100
0010
,
1000
0000
0001
0000
0100
0000
0010
1000
0000
0100
0010
0000
0100
0000
1000
0000
,
0001
0000
0010
0000
0100
0000
0010
0001
0000
0100
0010
0000
0100
0000
0100
0000
,
0001
1000
0100
0001
0010
0001
0100
0010
,
0001
0100
0001
0010
0100
1000
0001
0010
,
0100
1000
0100
0000
1000
0000
0001
0100
0000
0001
1000
0000
0200
0000
1000
0000
,
1300
0010
1000
0000
0001
0000
0010
0001
0000
1000
0010
0000
1000
0000
0001
0000
,
0100
0010
0100
0000
0010
1000
0010
0000
1000
0100
1000
0000
0100
0010
0100
0000
,
0010
0001
0010
0000
0001
1000
0001
0000
0100
0001
0100
0000
0010
0100
0010
0000
,
1000
0100
1000
0000
0100
1000
0100
1000
0001
0100
0001
0000
0100
0000
0000
0000
,
0010
0100
0010
0000
1000
0010
1000
0010
0100
0001
0100
0000
0001
0010
0100
0000
,
1000
0100
1000
0100
0001
0100
0001
0100
0010
0100
0010
0001
0100
0010
1000
0400
,
0040
0000
0000
0000
0000
0000
0000
0330
,
0220
0000
0000
0000
0000
0000
0000
0030
,
0010
0010
0010
0010
,
0310
0000
0010
0000
0010
0000
0010
0100
,
0000
0100
0000
0000
0000
0000
0000
0000
,
0210
2300
3020
0032
,
2003
3200
0320
0032
,
0023
2030
3002
0023
,
0230
2300
0002
3013
,
1000
1100
0010
0011
,
0100
0010
0000
0220
0000
1000
0330
0000
,
0011
0000
0110
0000
1100
1000
0001
0100
,
1000
0100
0010
0000
0110
0000
1010
0000
,
1100
0011
0101
1010
,
0110
0101
0011
0110
,
1100
1000
0001
0101
0010
0100
0010
0000
,
0010
1000
0100
0001
1000
0010
0100
1000
,
0004
4000
0000
0000
0000
0000
0000
0000
0000
0000
0000
0000
3013
0000
0000
0000
,
4000
0004
0000
0000
0000
0000
0000
0000
0000
0000
0000
0000
3013
0000
0000
0000
,
0004
0010
0000
0000
0000
0000
0000
0000
0403
0010
0000
0000
0300
0000
0000
0000
,
4000
0010
0000
0000
0000
0000
0000
0000
3400
0010
0000
0000
0300
0000
0000
0000
,
1000
0100
0010
0100
0010
0000
0001
0100
0001
0100
0010
0000
1000
0010
0100
0001
,
0010
0100
1000
0100
1000
0000
0001
0100
0001
1000
0100
0000
0100
1000
0001
0400
,
0040
0000
0000
0000
0000
0000
0000
0000
0000
0000
0000
0300
0030
0100
0010
1000
,
0100
0010
0001
0100
1000
0100
0010
1000
0001
0010
0100
0000
1000
0000
0001
0000
,
1001
0000
0000
0001
1000
0000
1000
0100
0000
0100
0010
0000
0100
1000
0100
0000
,
1100
0000
0000
1000
0001
0000
0001
0100
0000
0100
0010
0000
0100
0010
0100
0000
,
0100
0001
0000
0001
1000
0000
1000
0100
0000
0100
0010
0000
0001
0010
0100
0000
,
1000
0001
0000
0001
0100
0000
0010
1000
0000
0100
0010
0000
0100
1000
0100
0000
,
1000
0001
1000
0001
0100
0000
0010
0000
1000
0000
0100
0000
0001
0000
0000
0000
,
0100
0010
0100
0010
0001
0000
0100
0000
1000
0000
0001
0000
0010
0000
0000
0000
,
0100
0010
0100
0010
1000
0000
0100
0000
0010
0100
0010
0100
1000
0000
0001
0000
,
0100
1000
0010
1000
0001
0010
1000
0100
,
0010
0100
0110
0200
2000
0000
3301
0000
,
1000
0100
0010
0002
0200
0000
1303
0000
,
0001
0100
0000
0100
0010
0000
0010
1000
0000
0100
0010
0000
0100
1000
0100
1000
,
0001
0010
0000
0010
0100
0000
1000
0010
0000
0100
1000
0000
0100
0010
1000
0100
,
0010
0001
0010
0200
2000
0000
3310
0000
,
1000
0100
0010
0002
0200
0000
0313
0000
,
0001
0100
2000
3100
1000
0100
0001
0010
,
0100
0001
0010
0001
0100
0010
0001
0100
,
0040
0400
0000
0000
0000
0000
0030
0300
0010
0100
0010
0100
0001
0010
0100
1000
,
0004
4000
0000
0000
0000
0000
0003
3000
0001
1000
0001
1000
0100
0010
0001
0100
,
0040
0100
0000
0000
0000
0000
0000
0000
0034
1000
0000
0000
0103
0000
0000
0000
,
0040
0100
0000
0000
0000
0000
0000
0000
4030
0001
0000
0000
3100
0000
0000
0000
,
0100
1000
0000
0100
0010
0000
0100
1000
0000
0100
0010
0000
0100
1000
0001
0000
,
0001
0100
0000
0100
0010
0000
0100
0001
0000
0010
0001
0000
0100
0010
0100
0010
,
1000
0010
0000
1000
0100
0000
0010
0001
0000
0100
0001
0000
0010
0001
0010
0100
,
1000
0010
0100
0001
0010
0001
0100
0010
1000
0100
0010
0001
1000
0100
0010
0001
,
0100
0000
0000
0000
;
