#TITLE:Saku;
#SUBTITLE:;
#ARTIST:Dir En Grey;
#TITLETRANSLIT:;
#SUBTITLETRANSLIT:;
#ARTISTTRANSLIT:;
#CREDIT:;
#BANNER:;
#BACKGROUND:;
#LYRICSPATH:;
#CDTITLE:;
#MUSIC:Saku.mp3;
#OFFSET:-0.020;
#SAMPLESTART:51.140;
#SAMPLELENGTH:8.880;
#SELECTABLE:YES;
#BPMS:0.000=216.000,232.000=108.000,268.000=216.000,364.000=108.000,428.000=216.000;
#DISPLAYBPM:108:216;
#STOPS:;
#BGCHANGES:3.000=Saku.avi=1.000=0=0=1,
99999=-nosongbg-=1.000=0=0=0 // don't automatically add -songbackground-
;

//---------------dance-single - ----------------
#NOTES:
     dance-single:
     :
     Hard:
     9:
     0.687,0.786,0.400,0.080,0.129:
0000
0000
0000
0000
,
0000
0000
0000
0000
,
1000
0100
0001
0010
,
1000
0000
0100
0000
0010
0001
0010
0000
,
0001
1000
0010
0100
,
0001
0000
1000
0000
0100
0010
0100
0000
,
0010
0001
0100
1000
,
0010
0000
0001
0000
1000
0100
1000
0000
,
0001
0100
0010
0100
,
0001
0000
1000
0000
0100
0010
0001
0010
,
0110
0000
0100
1000
0100
1000
0100
0010
,
0001
0000
0001
1000
0001
1000
0001
0000
,
0100
0000
0010
0100
0010
0100
0010
1000
,
0001
0000
0001
1000
0001
1000
0001
0000
,
1000
0000
0001
0010
0001
0010
0001
0010
,
0100
1000
0100
0010
0001
0010
0001
0000
,
1001
0000
1000
0010
1000
0010
0100
0001
,
0100
0001
0100
0010
1000
0001
1001
0000
,
1100
0000
0000
0010
0001
0000
0000
0001
,
0100
0000
0010
0000
0100
0000
0001
1000
,
0100
0010
0001
0010
0100
0010
0000
0001
,
1000
0000
0001
0000
0100
0010
0110
0000
,
1001
0001
0100
0010
,
0110
0100
0001
1000
,
1100
1000
0001
0010
,
0110
0100
0010
0001
,
0011
0000
0000
0001
1000
0000
0010
0000
,
1010
0000
0000
1000
0001
0000
1000
0000
,
1100
0000
0100
0010
0000
0010
0001
0000
,
0100
0000
0010
0000
1000
0001
1000
0000
,
0011
1100
1010
0101
,
1001
0000
1000
0001
0000
1000
0001
0000
,
1000
0000
0001
0100
0001
0100
0000
0010
,
1000
0010
1000
0010
0100
0000
0101
0000
,
1001
1100
0011
0101
,
1001
0000
1000
0001
0000
0001
1000
0000
,
0001
0000
0100
0010
0100
0010
0000
0000
,
1000
0001
1000
0001
0000
0000
0000
0000
,
1010
0100
0010
0100
,
1000
0010
0001
0010
,
1000
0100
0001
0010
,
1000
0100
0010
0001
,
0011
0000
0000
0001
1000
0100
0000
0010
,
0001
0000
0000
1000
0010
0000
0100
0001
,
0100
0000
0010
1000
0000
1000
0001
0001
,
1000
0000
0100
0000
0010
0100
0110
0000
,
0010
0001
0010
0001
1000
0100
0010
0001
,
1000
0010
1000
0010
0100
0001
1000
0000
,
0001
0000
1000
0100
0010
0100
0000
0010
,
0001
0010
0001
0100
0001
0000
1010
0000
,
0001
0100
0001
0100
0001
1000
0100
0010
,
0001
0100
0010
0100
0001
1000
0100
1000
,
0001
0000
0010
0100
0010
0001
0000
1000
,
0100
0010
0100
1000
0001
0001
0100
0000
,
0010
0010
1000
0100
,
0010
0010
0100
0010
,
0001
0100
0001
1000
,
0010
0100
0010
0000
1001
0000
0100
0000
,
1001
0000
0000
1000
0100
0000
0010
0000
0100
0000
0000
0010
0001
0000
1000
0000
,
0010
0100
0000
0100
0001
0000
0011
0000
0000
0000
1100
0000
0000
0000
0001
1000
,
0001
0000
0000
0001
0100
0000
1000
0000
0100
0000
0000
0010
0100
0000
0001
0000
,
1000
0000
0100
0000
0010
0000
0001
0000
0100
0000
0010
0000
1000
0000
0001
1000
,
0001
0100
0000
2002
0000
0000
3003
0000
,
1000
0100
0000
1000
0100
0000
0010
0000
0001
0000
0100
0000
0010
0000
1000
0000
,
1001
0000
0000
0001
0100
0000
0010
0000
0100
0000
0001
0000
0000
0000
1000
0000
,
0100
0000
0010
0000
0000
0000
0100
0000
1000
0000
0001
1000
0100
1000
0010
0100
,
0220
0000
0000
0330
,
1001
0000
0000
0000
1000
0100
0000
1000
,
0100
0000
0000
0000
0010
0001
0000
0010
,
0001
0000
0000
0000
0100
0001
0000
0100
,
0001
1000
0010
0100
,
0110
0000
0000
0000
0010
1000
0001
0000
,
1001
0000
0001
0000
1000
0100
0010
0000
,
0110
0000
0100
0000
0010
0001
1000
0000
,
0001
0100
0001
0001
1000
0100
1000
0000
,
0001
0000
0001
0100
0000
0100
0010
0000
,
1000
0000
0100
0010
0000
0010
0001
0000
,
0100
0000
0010
1000
0000
1000
0001
0000
,
0001
0100
0001
0100
0000
0010
0100
0000
,
0001
0000
1000
0100
0010
0100
0000
0010
,
0001
1000
0001
0000
1000
0010
1000
0000
,
0001
0100
0001
0100
0010
1000
0010
1000
,
0100
0010
2002
3003
,
0001
0100
0001
0100
0001
0100
0001
0100
,
0010
1000
0010
1000
0010
1000
0010
1000
,
0001
0010
0001
0010
0001
0010
0001
0010
,
0100
1000
0100
1000
0100
1000
0100
1000
,
1001
0000
0000
0001
0101
0000
0000
0100
,
0110
0000
0000
0010
1010
0000
0000
1000
,
1100
0000
0010
0001
0101
0000
0100
0010
,
2020
0000
3030
0000
,
1001
0000
0000
0001
0010
0000
0001
0000
0100
0000
0000
0001
0010
0000
0001
0000
,
2000
0000
0000
0000
3010
0000
1000
0000
0100
0000
0010
0000
0100
0000
0010
0001
,
1000
0000
0000
1000
0010
0000
0100
0000
0001
1000
0000
1000
0010
0000
0001
0000
,
0100
2000
0000
0000
0100
3100
0001
1000
,
1001
0000
0000
1000
0010
0000
0100
0000
0001
0010
0000
0001
0010
0000
0100
0000
,
1000
0000
0000
0100
0010
0000
0100
0000
1000
0000
0001
0000
0100
0000
0010
0000
,
1001
0000
0000
1000
0010
0000
0100
0000
0001
0000
0010
0000
0100
0000
0010
0000
,
0001
0101
0000
0010
1000
0100
0010
0100
,
1001
0000
0000
0000
0001
0000
0100
0000
0010
0100
0000
0100
0001
0000
1000
0000
,
0100
0000
0000
0010
0001
0000
1000
0000
0010
0100
0000
0001
1000
0000
0100
0000
,
0110
0000
0000
0010
0001
0000
1000
0000
0001
0000
0000
1000
0010
0000
0100
0000
,
0010
1000
0000
0001
0100
0000
0001
0000
1000
0100
0000
0010
0001
0100
0001
0010
,
0100
0010
0001
1001
0000
1000
0010
0001
,
0010
0100
0001
1001
0000
1000
0100
0010
,
0110
0000
0000
0010
0001
0000
1000
0000
0001
0000
0100
0000
0010
0000
1001
0000
,
1000
0000
0001
0100
0000
0100
0010
0000
1000
0100
1000
0100
0010
0001
0010
0001
,
1001
0000
0000
1000
0010
0000
0100
0000
,
0010
0000
0000
0100
0001
0100
0001
0000
,
1001
0000
0000
1000
0100
0000
0010
0000
,
0011
0000
0000
0001
0100
0010
1000
0000
,
0001
0010
1000
0100
,
0001
0010
1000
0100
,
0220
0000
0000
0000
,
0000
0330
1001
0110
,
1000
0001
1000
0001
0100
0001
0100
0001
,
1000
0100
0010
0001
0000
1000
0001
0000
,
1000
0010
0100
0001
0010
0001
0000
1000
,
0100
1000
0001
0010
0011
0000
1100
0000
,
1000
0001
1000
0001
0100
0001
0100
0001
,
1000
0010
1000
0100
0000
0010
0001
0000
,
1000
0100
0010
0100
1000
0001
0100
0010
,
0220
0000
0000
0330
,
0010
1000
0100
0001
0100
1000
0010
0100
,
0001
0010
1000
0010
0001
0100
0010
1000
,
0100
0010
0100
1000
0010
0001
0010
0100
,
0010
1000
0100
0010
0001
0100
0001
1000
,
1001
0000
0001
0100
0001
1000
0000
0001
,
0101
0000
0100
0010
1000
0001
0000
1000
,
1100
0000
0010
0001
0100
0001
0000
1000
,
1001
0000
0001
0100
0001
1000
0001
1001
;

//---------------dance-single - ----------------
#NOTES:
     dance-single:
     :
     Medium:
     7:
     0.455,0.636,0.195,0.114,0.000: // measure 1
0000
0000
0000
0000
,  // measure 2
0000
0000
0000
0000
,  // measure 3
1000
0001
1000
0010
,  // measure 4
0100
0000
0010
0000
,  // measure 5
0100
0010
1000
0000
,  // measure 6
0001
1000
0100
0000
,  // measure 7
0010
0001
0100
0010
,  // measure 8
0100
0000
0001
0000
,  // measure 9
1000
0100
0010
0000
,  // measure 10
0010
0100
1000
0000
,  // measure 11
0001
0001
1000
0010
,  // measure 12
0100
0001
0100
0000
,  // measure 13
0010
0010
0100
0001
,  // measure 14
1000
0100
0010
0000
,  // measure 15
0100
0100
0010
0001
,  // measure 16
1000
0010
0100
0000
,  // measure 17
0010
0100
0001
1000
,  // measure 18
0001
0100
0110
0000
,  // measure 19
1001
0000
0001
0000
,  // measure 20
0100
0000
1000
0000
,  // measure 21
0010
0000
0001
0000
,  // measure 22
0100
0000
0010
0100
,  // measure 23
0001
1000
1100
0000
,  // measure 24
0010
0100
0110
0000
,  // measure 25
0010
0001
0100
0010
,  // measure 26
1000
0001
0100
0010
,  // measure 27
0210
0000
2300
0000
,  // measure 28
3020
0000
0032
0000
,  // measure 29
0103
0000
0000
0001
0000
0000
1000
0000
,  // measure 30
1100
0000
0001
1000
,  // measure 31
0001
0100
0001
1000
,  // measure 32
0010
0100
0101
0000
,  // measure 33
0001
1000
0100
0010
,  // measure 34
0100
0010
0110
0000
,  // measure 35
0010
0001
0100
0010
,  // measure 36
1000
0001
1001
0000
,  // measure 37
0001
1000
0010
0000
,  // measure 38
0010
0100
0001
1000
,  // measure 39
1100
0000
0000
1000
0001
0000
0000
0001
,  // measure 40
0100
0000
0000
0100
0010
0000
0000
0010
,  // measure 41
1000
0000
0000
1000
0100
0000
0010
0000
,  // measure 42
0001
0100
0010
1000
,  // measure 43
1002
0000
0100
0000
,  // measure 44
0010
0000
1000
0000
,  // measure 45
0200
0000
0000
0000
,  // measure 46
0303
0000
0001
1000
,  // measure 47
0100
0010
0100
1000
,  // measure 48
0001
0001
0100
0000
,  // measure 49
0010
0100
0001
0000
,  // measure 50
0010
0100
1000
0000
,  // measure 51
0010
0001
1000
0100
,  // measure 52
0010
0010
0100
0000
,  // measure 53
0010
0001
0100
0100
,  // measure 54
0010
1000
1001
0000
,  // measure 55
0001
0100
0001
0000
,  // measure 56
1000
0100
1000
0000
,  // measure 57
0001
0010
0001
0000
,  // measure 58
0100
0000
0010
0000
,  // measure 59
1001
0000
1000
0000
0100
0010
0100
0010
,  // measure 60
0001
0000
1000
0010
0000
0010
0100
0001
,  // measure 61
1001
0000
0101
0000
1010
0000
0010
1000
,  // measure 62
0000
1000
0100
0010
0001
0100
0010
1000
,  // measure 63
1001
0000
0001
0100
0010
0100
0001
1000
,  // measure 64
0100
0000
0010
0100
1000
0100
0010
0001
,  // measure 65
0100
0000
0001
1000
0001
0100
0000
0010
,  // measure 66
1000
0001
0000
1000
0100
0010
0100
1000
,  // measure 67
2002
0000
0000
3003
,  // measure 68
1001
0002
0100
0000
,  // measure 69
1003
2000
0010
0000
,  // measure 70
3100
0200
0001
0000
,  // measure 71
0310
0000
1001
0000
,  // measure 72
2000
0010
0100
0000
,  // measure 73
3200
0010
1000
0000
,  // measure 74
0320
0001
0100
0000
,  // measure 75
0031
0100
0010
1000
,  // measure 76
0001
0000
1000
0001
0000
0000
1000
0000
,  // measure 77
0100
0000
0010
0100
0000
0000
0010
0000
,  // measure 78
0001
0000
0100
0010
0000
0000
0100
0000
,  // measure 79
0001
0000
1000
0100
0000
0100
1000
0000
,  // measure 80
0001
0000
0100
0001
0000
0001
1000
0000
,  // measure 81
0001
0000
1000
0100
0000
0010
0001
0000
,  // measure 82
1000
0010
0100
0001
,  // measure 83
1000
0100
1000
0000
,  // measure 84
0001
0100
0010
1000
,  // measure 85
0001
0100
0010
1000
,  // measure 86
0100
0010
0001
0010
,  // measure 87
0001
0100
0010
1000
,  // measure 88
1001
0000
1010
0000
,  // measure 89
0101
0000
0011
0000
,  // measure 90
1100
0000
0110
0000
,  // measure 91
2002
0000
3003
0000
,  // measure 92
1000
0010
0100
0000
0010
0100
0001
0000
,  // measure 93
1000
0000
0100
0010
0000
0010
0100
0000
,  // measure 94
0010
0001
0100
0000
0001
1000
0100
1000
,  // measure 95
0000
0001
0100
0000
0010
0100
0001
0001
,  // measure 96
1001
0000
1000
0100
0000
0010
0001
0000
,  // measure 97
1000
0010
1000
0000
0001
0100
0001
1000
,  // measure 98
0100
0010
0100
1000
0001
0100
0000
0010
,  // measure 99
0100
0001
1000
0100
0010
0001
0100
0000
,  // measure 100
0110
0000
0100
0001
1000
0000
0001
1000
,  // measure 101
0100
0010
0001
0100
0000
0001
0100
0001
,  // measure 102
1000
0000
0100
0010
0100
0000
0010
0001
,  // measure 103
0000
1000
0001
0100
0010
1000
0100
0010
,  // measure 104
0110
0000
0010
0001
1000
1000
0010
0100
,  // measure 105
0001
0000
1000
0010
0100
0100
0001
1000
,  // measure 106
0100
0000
0010
0001
0100
0010
1000
0001
,  // measure 107
1000
0100
0000
0011
0000
0101
0000
0010
,  // measure 108
0100
0000
0000
0100
0001
0000
0000
0000
,  // measure 109
0001
0000
0000
1000
0100
0000
1000
0000
,  // measure 110
0001
0000
0000
1000
0010
0000
0000
0000
,  // measure 111
0100
0000
0000
0001
1000
0000
0100
0000
,  // measure 112
1000
0100
0010
0100
,  // measure 113
1000
0001
0100
0010
,  // measure 114
0220
0000
0000
0000
,  // measure 115
0000
0000
0330
0000
,  // measure 116
1000
0100
0010
0001
,  // measure 117
1000
0000
0001
0100
0000
0100
0001
0000
,  // measure 118
1000
0001
0100
0000
,  // measure 119
0010
0100
0001
0000
,  // measure 120
1000
0100
1000
0001
,  // measure 121
0100
0000
0010
0100
0000
0100
0010
0000
,  // measure 122
1000
0100
0010
0100
,  // measure 123
2002
0000
0000
3003
,  // measure 124
0001
0000
0100
0000
0010
1000
0010
0000
,  // measure 125
1000
0000
0100
0000
0010
0001
0010
0000
,  // measure 126
0001
0000
0100
0000
0010
0100
0010
0000
,  // measure 127
1000
0001
1000
0000
0001
0010
0001
0000
,  // measure 128
1000
0000
0100
0000
0010
0001
0100
0000
,  // measure 129
0010
0000
1000
0000
0001
0100
0010
0000
,  // measure 130
0100
0000
0001
0000
1000
0100
0010
0000
,  // measure 131
0100
0000
0010
0000
0001
1000
0001
1000
;

//---------------dance-single - ----------------
#NOTES:
     dance-single:
     :
     Easy:
     6:
     0.298,0.487,0.109,0.046,0.000: // measure 1
0000
0000
0000
0000
,  // measure 2
0000
0000
0000
0000
,  // measure 3
1000
0001
0000
0001
,  // measure 4
1000
0000
0100
0000
,  // measure 5
0010
0100
0000
0100
,  // measure 6
0010
0001
1000
0000
,  // measure 7
0001
0100
0000
0100
,  // measure 8
0001
0000
1000
0000
,  // measure 9
0010
0100
0000
0100
,  // measure 10
0001
1000
0100
0000
,  // measure 11
0010
0001
0010
0000
,  // measure 12
0001
1000
0001
0000
,  // measure 13
0100
0001
0100
0000
,  // measure 14
0010
0100
0010
0000
,  // measure 15
1000
0100
0010
0000
,  // measure 16
0100
0010
0001
0000
,  // measure 17
1000
0001
0100
0000
,  // measure 18
0010
1000
0001
0000
,  // measure 19
1001
0000
1000
0000
,  // measure 20
0100
0000
0010
0001
,  // measure 21
1000
0000
0001
0000
,  // measure 22
1001
0000
0000
0000
,  // measure 23
1000
0000
1000
0100
,  // measure 24
1000
0000
0001
0000
,  // measure 25
0100
0000
0001
0100
,  // measure 26
0001
0000
0100
0000
,  // measure 27
0010
0000
0100
0000
,  // measure 28
0001
0000
1000
0100
,  // measure 29
0010
0000
0001
0000
,  // measure 30
1001
0000
0000
0000
,  // measure 31
1000
1000
0001
0000
,  // measure 32
0001
0001
0100
0000
,  // measure 33
0010
0000
0100
0000
,  // measure 34
0001
0000
1000
0000
,  // measure 35
0100
0100
0010
0000
,  // measure 36
0100
0100
1000
0000
,  // measure 37
0001
0000
1000
0000
,  // measure 38
0010
0100
0010
0000
,  // measure 39
1000
0000
0100
0000
,  // measure 40
0010
0000
0001
0000
,  // measure 41
0100
0000
0010
0000
,  // measure 42
1000
0000
0001
0000
,  // measure 43
1002
0000
1000
0000
,  // measure 44
0100
0000
0010
0000
,  // measure 45
0023
0000
0100
0000
,  // measure 46
0200
0000
0330
0000
,  // measure 47
0010
0000
0001
0000
,  // measure 48
1000
0001
1000
0000
,  // measure 49
0010
0000
0100
0000
,  // measure 50
0001
0000
0000
0000
,  // measure 51
1000
0000
0100
0000
,  // measure 52
0010
0100
0010
0000
,  // measure 53
0100
0000
1000
0000
,  // measure 54
0001
0000
0000
0000
,  // measure 55
1000
0000
0010
0000
,  // measure 56
0100
0000
0001
0000
,  // measure 57
1000
0000
0100
0000
,  // measure 58
0011
0000
0000
0000
,  // measure 59
1000
0001
0100
0001
,  // measure 60
1000
0100
0010
0000
,  // measure 61
0100
0010
0001
0100
,  // measure 62
0010
1000
0001
0000
,  // measure 63
1000
0100
1000
0000
,  // measure 64
0001
0100
0001
0000
,  // measure 65
1000
0010
0100
0001
,  // measure 66
1000
0001
1000
0010
,  // measure 67
0220
0000
0000
0330
,  // measure 68
0010
0000
1000
0000
,  // measure 69
0100
0000
1000
0000
,  // measure 70
0001
0000
0100
0001
,  // measure 71
0100
0000
0000
0000
,  // measure 72
0001
0000
1000
0000
,  // measure 73
0100
0000
0010
0000
,  // measure 74
0100
0000
0010
0001
,  // measure 75
0010
0000
0001
0000
,  // measure 76
1000
0010
1000
0010
,  // measure 77
0100
0000
0010
0000
,  // measure 78
0100
0010
0100
0001
,  // measure 79
0100
0000
0001
0000
,  // measure 80
1000
0000
0100
0000
,  // measure 81
0010
0001
0010
0000
,  // measure 82
0001
0000
1000
0000
,  // measure 83
0010
0100
0010
0000
,  // measure 84
1000
1000
0001
0001
,  // measure 85
0100
0000
0010
0000
,  // measure 86
0100
0100
0001
0001
,  // measure 87
1000
0000
0100
0000
,  // measure 88
0010
0000
0001
0000
,  // measure 89
1000
0000
0100
0000
,  // measure 90
0010
0000
0001
0000
,  // measure 91
2002
0000
3003
0000
,  // measure 92
1000
0010
0001
0100
,  // measure 93
1000
0010
0001
0000
,  // measure 94
0001
0100
1000
0100
,  // measure 95
0001
1000
0100
0000
,  // measure 96
0010
0001
0100
0000
,  // measure 97
0010
1000
0100
0000
,  // measure 98
0010
0001
1000
0100
,  // measure 99
1000
0001
0100
0000
,  // measure 100
0010
0100
0010
1000
,  // measure 101
0001
0100
0001
1000
,  // measure 102
0100
0010
0100
1000
,  // measure 103
1001
0000
0000
0000
0001
0100
0001
0100
,  // measure 104
0001
0000
1000
0000
0100
0010
0100
0010
,  // measure 105
0100
0010
0001
1000
,  // measure 106
1001
0000
0001
0100
,  // measure 107
0110
0000
0010
1000
,  // measure 108
1001
0000
0001
0100
,  // measure 109
0001
0000
1000
0000
,  // measure 110
0100
0000
0010
0100
,  // measure 111
0010
0000
0001
0000
,  // measure 112
1000
0010
1000
0010
,  // measure 113
0100
0000
0001
0100
,  // measure 114
0002
0000
0000
0000
,  // measure 115
0000
0000
0003
0000
,  // measure 116
1000
1000
0100
0000
,  // measure 117
0010
0010
0100
0000
,  // measure 118
0010
0000
0001
0000
,  // measure 119
0100
0000
0010
0000
,  // measure 120
1000
1000
0001
0000
,  // measure 121
0100
0100
0001
0000
,  // measure 122
1000
0000
0010
0000
,  // measure 123
0110
0000
0000
0000
,  // measure 124
0010
1000
0001
1000
,  // measure 125
0100
0000
0010
0000
,  // measure 126
0001
0010
0001
0000
,  // measure 127
1000
0010
1000
0000
,  // measure 128
0101
0000
1010
0000
,  // measure 129
1100
0000
0011
0000
,  // measure 130
0110
0000
1001
0000
,  // measure 131
0101
0000
0000
0000
1000
0000
0010
0100
;

//---------------dance-single - ----------------
#NOTES:
     dance-single:
     :
     Beginner:
     3:
     0.184,0.300,0.149,0.080,0.000: // measure 1
0000
0000
0000
0000
,  // measure 2
0000
0000
0000
0000
,  // measure 3
1000
0000
0000
0000
,  // measure 4
0001
0000
0000
0000
,  // measure 5
0100
0000
0000
0000
,  // measure 6
0010
0000
0100
0000
,  // measure 7
0010
0000
0000
0000
,  // measure 8
0100
0000
0000
0000
,  // measure 9
0001
0000
0000
0000
,  // measure 10
1000
0000
1000
0000
,  // measure 11
1001
0000
0000
0000
,  // measure 12
0001
0000
0001
0000
,  // measure 13
0001
0000
0000
0000
,  // measure 14
0100
0000
0100
0000
,  // measure 15
0100
0000
0000
0000
,  // measure 16
0010
0000
0010
0000
,  // measure 17
0010
0000
0000
0000
,  // measure 18
1000
0000
0001
0000
,  // measure 19
1001
0000
0000
0000
,  // measure 20
1000
0000
0000
0000
,  // measure 21
0100
0000
0010
0000
,  // measure 22
0100
0000
0000
0000
,  // measure 23
0010
0000
0000
0000
,  // measure 24
0001
0000
0000
0000
,  // measure 25
0100
0000
0000
0000
,  // measure 26
0010
0000
0000
0000
,  // measure 27
0220
0000
0000
0000
,  // measure 28
0330
0000
0000
0000
,  // measure 29
2002
0000
0000
0000
,  // measure 30
3003
0000
0000
0000
,  // measure 31
1000
0000
0001
0000
,  // measure 32
0100
0000
0000
0000
,  // measure 33
0010
0000
0100
0000
,  // measure 34
0001
0000
0000
0000
,  // measure 35
1000
0000
0010
0000
,  // measure 36
0100
0000
0000
0000
,  // measure 37
0010
0000
0100
0000
,  // measure 38
0001
0000
0000
0000
,  // measure 39
1000
0000
0000
0000
,  // measure 40
0010
0000
0000
0000
,  // measure 41
0100
0000
0000
0000
,  // measure 42
0010
0000
1000
0000
,  // measure 43
0001
0000
0000
0000
,  // measure 44
1000
0000
0000
0000
,  // measure 45
2002
0000
0000
0000
,  // measure 46
3003
0000
0000
0000
,  // measure 47
1000
0000
1000
0000
,  // measure 48
1000
0000
1000
0000
,  // measure 49
1000
0000
0000
0000
,  // measure 50
0001
0000
0000
0000
,  // measure 51
0100
0000
0100
0000
,  // measure 52
0100
0000
0100
0000
,  // measure 53
0100
0000
0000
0000
,  // measure 54
0010
0000
0000
0000
,  // measure 55
1000
0000
1000
0000
,  // measure 56
0001
0000
0001
0000
,  // measure 57
0100
0000
0010
0000
,  // measure 58
0100
0000
0000
0000
,  // measure 59
0010
0000
1000
0000
,  // measure 60
0100
0000
0010
0000
,  // measure 61
0110
0000
0000
0000
,  // measure 62
1001
0000
0000
0000
,  // measure 63
1000
0000
0001
0000
,  // measure 64
0100
0000
0010
0000
,  // measure 65
0100
0000
0000
0000
,  // measure 66
0010
0000
1000
0000
,  // measure 67
2002
0000
3003
0000
,  // measure 68
1001
0000
0000
0000
,  // measure 69
1001
0000
0000
0000
,  // measure 70
0110
0000
0000
0000
,  // measure 71
0110
0000
0000
0000
,  // measure 72
0010
0010
0000
0000
,  // measure 73
0100
0100
0000
0000
,  // measure 74
0001
0001
0000
0000
,  // measure 75
1000
1000
0000
0000
,  // measure 76
0001
0000
0010
0000
,  // measure 77
0100
0000
1000
0000
,  // measure 78
0010
0000
0100
0000
,  // measure 79
0001
0000
1000
0000
,  // measure 80
1001
0000
0000
0000
,  // measure 81
0110
0000
0000
0000
,  // measure 82
0010
0000
1000
0000
,  // measure 83
0001
0000
0000
0000
,  // measure 84
1000
0000
0100
0000
,  // measure 85
0010
0000
0001
0000
,  // measure 86
1000
0000
0000
0000
,  // measure 87
0001
0000
0000
0000
,  // measure 88
1000
0000
0010
0000
,  // measure 89
1000
0000
0010
0000
,  // measure 90
0100
0000
0001
0000
,  // measure 91
0100
0000
0000
0000
,  // measure 92
0001
0000
1000
0000
,  // measure 93
0100
0000
0010
0000
,  // measure 94
0100
0000
0010
0000
,  // measure 95
0001
0000
1000
0000
,  // measure 96
1001
0000
0000
0000
,  // measure 97
0100
0000
0010
0000
,  // measure 98
0100
0000
0000
0000
,  // measure 99
0010
0000
1000
0000
,  // measure 100
1001
0000
0000
0000
,  // measure 101
0001
0000
1000
0000
,  // measure 102
0100
0000
0010
0000
,  // measure 103
0100
0000
0010
0000
,  // measure 104
0002
0000
0003
0000
,  // measure 105
2000
0000
3000
0000
,  // measure 106
0010
0000
0100
0000
,  // measure 107
0002
0000
0003
0000
,  // measure 108
1000
0000
0001
0000
,  // measure 109
1000
0000
0000
0000
,  // measure 110
0001
0000
0100
0000
,  // measure 111
0001
0000
0000
0000
,  // measure 112
1000
0000
0100
0000
,  // measure 113
1000
0000
0100
0000
,  // measure 114
0020
0000
0000
0000
,  // measure 115
0000
0000
0030
0000
,  // measure 116
0110
0000
1001
0000
,  // measure 117
0110
0000
0000
0000
,  // measure 118
0010
0000
1000
0000
,  // measure 119
0001
0000
0000
0000
,  // measure 120
1001
0000
0110
0000
,  // measure 121
1001
0000
0000
0000
,  // measure 122
0001
0000
1000
0000
,  // measure 123
0010
0000
0000
0000
,  // measure 124
0100
0000
0010
0000
,  // measure 125
1000
0000
0001
0000
,  // measure 126
1000
0000
0100
0000
,  // measure 127
0010
0000
0001
0000
,  // measure 128
1001
0000
0000
0000
,  // measure 129
0110
0000
0000
0000
,  // measure 130
1001
0000
0000
0000
,  // measure 131
0220
0000
0000
0000
0000
0000
0000
0330
;
