#TITLE:Gates of Mind;
#SUBTITLE:;
#ARTIST:DJ Sterbinszky;
#TITLETRANSLIT:;
#SUBTITLETRANSLIT:;
#ARTISTTRANSLIT:;
#CREDIT:;
#BANNER:sandstormar.png;
#BACKGROUND:sandstormar-bg.png;
#LYRICSPATH:;
#CDTITLE:;
#MUSIC:Gates of Mind dj strebinszky.mp3;
#OFFSET:-0.024;
#SAMPLESTART:56.280;
#SAMPLELENGTH:12.000;
#SELECTABLE:YES;
#BPMS:0.000=140.010,224.000=70.005,288.000=140.010;
#STOPS:288.000=1.286
,293.000=1.286
,298.000=1.286
,303.000=1.286
,308.000=1.286
,313.000=1.286
,318.000=1.286
,323.000=1.286
,328.000=1.286
;
#BGCHANGES:;

//---------------dance-single - ----------------
#NOTES:
     dance-single:
     :
     Challenge:
     10:
     0.564,1.000,0.155,0.294,0.772:
0000
0000
0000
0000
,
2000
0000
3002
0000
,
2003
0000
3020
0000
,
0230
0000
0302
0000
,
0203
0000
0320
0000
,
2030
0000
3200
0000
,
0320
0000
0032
0000
,
0103
0010
1000
0010
,
0100
0000
0001
0100
0000
0100
0010
0000
0010
1000
0000
1000
0010
0000
0010
0100
,
0000
0001
0010
0000
0100
1000
0000
0100
0010
0000
0001
1000
0000
0010
0100
0000
,
0001
0010
0000
0100
1000
0000
0010
0100
0000
0001
0100
0000
0010
1000
0000
0100
,
0010
0000
0001
0010
0000
0100
1000
0000
0010
0100
0000
0001
1000
0000
0010
0100
,
0000
0001
0100
0000
0010
1000
0000
0100
0010
0000
0001
0010
0000
0100
1000
0000
,
0010
0100
0000
0001
0100
0000
0010
1000
0000
0001
0100
0000
0001
0010
0000
0100
,
1000
0010
1000
0001
0100
0010
1000
0010
0100
0001
0010
0100
1000
0100
0010
0001
,
0100
0010
1000
0010
0100
0001
0010
0100
1000
0100
0010
0001
0020
0000
0100
0000
,
0130
0000
1000
0100
0000
2000
0000
0000
,
0000
3000
1100
0000
0000
0000
0110
0100
,
0010
0001
0011
0001
0000
0010
1100
0000
,
0000
0000
0110
0000
0000
0000
0011
0001
,
1000
0010
0101
0001
0000
0010
0011
0000
,
0000
0000
0110
0000
0000
0000
1100
1000
,
0100
0010
0110
0010
0000
0000
0011
0000
,
0000
0000
0101
0000
0000
0000
1001
0001
,
1000
1100
0000
0110
0000
0011
0000
000M
,
00M0
0M00
M000
0M00
00M0
000M
0000
0011
,
0000
0110
0000
0010
0100
0000
000M
00M0
,
0M00
M000
0M00
00M0
000M
0000
0000
0000
,
0010
0100
0000
1000
0000
0010
0000
M000
,
000M
0M00
00M0
M000
00M0
0000
1000
0001
,
0000
0000
1000
0000
0000
0000
0100
0000
0010
0000
0000
0001
0000
0000
0100
0000
,
0000
0010
0000
0000
1000
0000
0000
0010
0000
0000
0100
0000
0000
0001
0000
0000
,
1000
0010
0000
0100
0000
0001
0100
0000
,
0010
0000
0000
1000
0000
0000
0010
0000
0000
0100
0000
0000
0001
0000
0010
0000
,
0100
1000
0010
1010
0000
0101
0000
0000
,
0002
0000
0000
0103
0000
0000
0002
0000
0000
1003
0000
0000
0010
0000
0100
0000
,
0101
0000
0010
2000
0000
0000
0000
0000
,
3002
0000
0000
0103
0000
0000
0002
0000
0000
1003
0000
0000
0001
0000
1000
0000
,
0100
0000
0010
0001
0000
0100
0000
0000
,
0010
0000
0000
1000
0000
0000
0010
0000
0000
0100
0000
0000
0001
0000
0010
0000
,
0100
0000
1000
0100
0000
0010
0000
0000
,
0001
0000
0000
1000
0000
0000
0100
0000
0000
0000
0010
0000
0000
0000
0001
0000
,
0010
0000
0100
1000
0000
0000
0000
0000
,
0001
0000
0000
1000
0000
0000
0001
0000
0000
0000
0010
0000
0000
0000
0000
0000
,
0100
1000
0100
1000
0001
1000
0010
1000
0001
1000
0010
1000
0001
1000
0010
0000
,
1000
0001
0100
0010
1000
0001
0100
0010
1000
0001
0100
0010
1000
0001
0010
0000
,
0001
0100
0001
1000
0001
0010
0001
1000
0001
0010
0001
1000
0001
0100
0001
0010
,
0100
1000
0100
0010
0001
0100
0001
1000
0100
0010
0001
1000
0200
0000
0000
0000
,
0310
0000
0000
0001
0000
0000
0010
0000
0000
0100
0000
0000
1000
0000
0000
0000
,
0020
0000
0000
0230
0000
0000
0302
0000
0000
0203
0000
0000
0320
0000
0000
0030
,
0000
1000
0100
0000
0100
0010
0000
0001
0010
0000
0100
1000
0000
0000
0010
0000
,
0200
0000
0000
0302
0000
0000
0203
0000
0000
0320
0000
0000
2030
0000
0000
3000
,
0100
0000
0000
0010
0000
0000
0001
0000
0000
0100
0000
0000
0001
0000
0000
0000
,
0200
0000
0000
0320
0000
0000
2030
0000
0000
3002
0000
0000
0023
0000
0000
0030
,
0000
0100
0000
0000
1000
0000
0000
0010
0000
0000
0100
0000
0000
0001
0000
0000
,
1000
0000
0000
0010
0000
0000
1000
0000
0000
0000
1010
0000
0000
0000
0000
0000
,
1001
0000
0000
1000
0010
0000
0010
0100
0000
0001
0010
0000
0100
1000
0000
0100
0010
0000
0001
0010
0000
0100
1000
0000
0010
0100
0000
0001
0010
0000
0100
1000
,
0000
0010
0100
0000
0001
0010
0000
0010
0100
0000
1000
0010
0000
0010
0100
0000
0100
0001
0000
0001
0100
0000
0100
0010
0000
1000
0100
0000
0010
0001
0000
0100
,
0010
0000
1000
0010
0000
0100
0001
0000
0100
0010
0000
1000
0100
0000
0100
0010
0000
0001
0100
0000
0010
1000
0000
0100
0010
0000
0001
0100
0000
0001
0010
0000
,
0100
1000
0000
0010
0100
0000
0001
0010
0002
0000
0000
0000
0000
0000
0000
0000
0203
0000
0000
0000
0000
0000
0000
0000
0000
0000
0000
0000
0000
0000
0000
0000
,
0302
0000
0000
0000
0000
0000
0000
0000
0000
0000
0000
0000
0000
0000
0000
0000
0000
0000
0000
0000
0003
0010
0100
1000
0010
0100
0000
0001
0000
0100
0010
1000
,
0100
0010
0000
0100
0000
0010
0001
0100
0001
0100
0000
0010
0000
1000
0100
0010
0001
0010
0000
0100
0000
1000
0010
0100
0001
0100
0000
0010
0000
1000
0010
1000
,
0010
0100
0000
0001
0000
0100
0010
1000
0010
1000
0000
0010
0000
0010
0100
0001
1000
0010
0000
0100
0000
0001
0100
0010
1000
0010
0000
0100
0000
1000
0010
0100
,
0001
0100
0000
0010
0000
1000
0100
0010
0001
0010
0000
0100
0000
1000
0010
1000
0001
1000
0000
0010
0000
1000
0100
0010
0100
0010
0000
0100
0000
1000
0010
0100
,
0002
0000
0000
0000
0103
0000
0020
0000
0000
0000
2030
0000
0000
0000
3020
0000
0000
0000
0000
0000
0000
0000
0000
0000
0000
0000
0000
0000
0000
0000
0130
0001
,
1000
0000
0010
0200
0000
0302
0000
0023
0000
0000
0000
0000
0000
0000
0000
0000
,
0130
0000
1000
0001
0000
0000
0001
0010
0000
0000
0000
0000
0000
0000
0000
0000
,
0100
0000
0010
1000
0000
0100
0000
0010
0000
0000
0000
0000
0000
0000
0000
0000
,
0100
0000
0000
0000
0010
0000
0001
0000
0000
0000
0010
0000
0000
0000
0100
0000
0000
0000
0000
0000
0000
0000
0000
0000
0000
0000
0000
0000
0000
0000
1000
0001
,
1000
0000
0100
0010
0000
0001
0000
0020
0000
0000
0000
0000
0000
0000
0000
0000
,
0130
0000
1000
0010
0000
0100
0000
0002
0000
0000
0000
0000
0000
0000
0000
0000
,
0013
0000
0100
1000
0000
0010
0000
2000
0000
0000
0000
0000
0000
0000
3000
0000
,
1001
0000
0000
0000
1100
0000
0000
1100
0000
0000
0110
0000
0000
0110
0000
0000
,
0010
0000
0001
0000
0011
0000
0000
0000
0101
0000
0000
0101
0000
0000
0110
0000
,
0000
1010
0000
0000
1000
0000
0001
0000
1001
0000
0000
0000
0200
0000
0000
0320
,
0000
0000
0032
0000
0000
0203
0000
0000
0310
0000
1000
0000
1000
0000
0000
0000
,
0010
0000
0000
0100
0000
0000
0001
0000
0000
0100
0000
0000
0010
0000
1000
0000
,
0001
0000
0000
0000
0100
0000
0000
0010
0000
0000
1000
0000
0000
0010
0000
0000
,
0100
0000
0001
0000
0001
0000
0000
0000
0100
0000
0000
0010
0000
0000
1000
0000
,
0000
0010
0000
0000
0100
0000
0001
0000
0010
0000
0000
0000
0100
0000
0000
1000
,
0000
0000
0010
0000
0000
0100
0000
0000
0001
0000
0010
0000
0100
0000
0000
0000
,
1000
0000
0000
0001
0000
0000
1000
0000
0000
1000
0000
0000
0010
0000
0100
0000
,
0001
0000
0000
0000
1000
0010
1000
0010
1000
0010
1000
0010
1000
0010
1000
0010
,
1000
0010
1000
0010
1000
0100
1000
0100
1000
0100
1000
0100
1000
0100
1000
0100
,
1000
0100
1000
0100
0010
0001
0010
0001
0010
0001
0010
0001
0010
0001
0010
0001
,
0010
0001
0010
0001
0010
0100
1000
0001
0010
0100
1000
0001
0010
0100
1000
0001
,
0010
0100
1000
0001
0100
0010
1000
0001
0100
0010
1000
0001
0100
0010
1000
0001
,
0010
0001
1000
0001
0100
0001
1000
0001
0100
0001
1000
0010
0100
0001
0100
0010
,
1000
0100
0010
0001
0010
0100
1000
0001
0100
0010
1000
0001
0100
0010
1000
0100
,
0010
0001
0100
0010
1000
0010
0100
0001
1000
0010
1000
0001
1000
0010
0100
0001
,
2000
0000
0000
0000
3001
0000
0000
0100
0000
0000
0010
0000
0000
1000
0000
0000
,
0010
0100
0002
0000
0000
0000
0000
0000
,
0000
0000
0000
0000
0013
0000
0000
0100
0000
0000
1000
0000
0000
0010
0000
0000
,
0100
0001
2000
0000
0000
0000
0000
0000
,
0000
0000
0000
0000
3010
0000
0000
0100
0000
0000
0001
0000
0000
0100
0000
0000
,
0010
1000
0200
0000
0000
0000
0000
0000
,
0000
0000
0000
0000
0310
0000
0000
0001
0000
0000
0100
0000
0000
0010
0000
0000
,
1000
0001
0020
0000
0000
0000
0000
0000
,
0000
0000
0000
0000
0130
0000
0000
1000
0000
0000
0001
0000
0000
0010
0000
0000
,
0100
1000
2000
0000
0000
0000
0000
0000
,
0000
0000
0000
0000
3100
0000
0000
0010
0000
0000
0001
0000
0000
0100
0000
0000
,
0010
1000
0020
0000
0000
0000
0000
0000
,
0000
0000
0000
0000
0130
0000
0000
0001
0000
0000
0100
0000
0000
0010
0000
0000
,
1000
0000
0010
0000
0100
0000
0000
0000
0001
0100
0001
0100
0010
1000
0010
1000
,
0001
0010
0001
0010
0100
1000
0100
1000
0001
0100
0010
1000
0010
0100
0001
0100
,
0010
1000
0010
0100
0001
1000
0010
0100
0001
0100
0010
1000
0100
0010
0001
0010
,
0200
0000
2300
0000
3010
0110
0000
0101
,
0000
0022
0000
0000
0000
0000
0000
0000
,
0033
0000
0001
0100
0020
0000
0000
0000
0130
0000
2000
0000
0000
0000
3020
0000
,
0000
0230
0000
0000
0000
0000
0000
0000
,
0000
0000
0301
0000
0100
0020
0000
0000
,
1030
0200
0000
0000
0000
0000
0000
0000
,
0000
0000
0310
0000
0001
1000
0000
0010
,
0000
0200
0000
0000
0000
0000
0000
0000
,
0000
0000
0301
0000
1000
0010
0000
0100
,
0000
0002
0000
0000
0000
0000
0000
0000
,
0000
0000
0103
0010
1000
0000
0000
0000
0010
0000
0100
0000
0000
0000
0001
0000
,
0000
2000
0000
0000
0000
0000
0000
0000
,
0000
0000
3010
0000
0100
0001
0000
0100
,
0000
0000
0010
0000
1000
0000
0010
0100
0001
0100
0010
1000
0010
0100
0001
0100
,
0010
1000
0100
0010
0001
0010
0100
1000
0010
1000
0010
0100
0001
0100
0010
1000
,
0100
0010
0001
0010
0100
1000
0010
1000
0001
1000
0010
0100
0001
0100
0010
1000
,
0010
0100
0001
1000
2002
0000
0000
0000
0000
0000
0000
0000
0000
0000
0000
0000
,
3003
0000
0000
0000
;

//---------------dance-single - ----------------
#NOTES:
     dance-single:
     :
     Hard:
     9:
     0.566,1.000,0.147,0.258,0.680:
0000
0000
0000
0000
,
1000
0100
0010
0001
,
0010
0100
1000
0010
,
0100
0001
0100
0010
,
1000
0100
0010
0001
,
0010
0100
1000
0010
,
0100
0001
0100
0010
,
1000
0010
1000
0010
,
0100
0000
0001
0100
0000
0100
0010
0000
0010
1000
0000
1000
0010
0000
0010
0100
,
0000
0100
0001
0000
0001
0100
0000
0100
0010
0000
0010
1000
0000
1000
0100
0000
,
0100
0010
0000
0010
0001
0000
0001
0100
0000
0100
0010
0000
0010
1000
0000
0010
,
0000
0000
0100
0000
0000
0001
0000
0000
0100
0000
0000
0010
0000
0000
1000
0000
,
0000
0010
0000
0000
0100
0000
0000
0001
0000
0000
0100
0000
0000
0001
0000
0000
,
0100
0000
0000
0010
0000
0000
1000
0000
0000
0010
0000
0000
0100
0000
0000
0001
,
0010
0100
1000
0010
1000
0001
0100
0010
,
1000
0010
1000
0010
0100
0001
1000
0010
1000
0010
1000
0001
2000
0000
0100
0000
,
3100
0000
0000
0000
1000
0000
0100
0000
0000
1000
0000
0000
0100
0000
0000
0010
,
0000
0000
0001
0000
0000
0100
0000
0000
0010
0000
0000
1000
0000
0000
0001
0000
,
1000
0200
0000
0001
0000
0320
0000
0000
,
0000
0000
0000
0000
0000
0000
0000
0000
0000
0000
0031
0100
0000
0100
0010
1000
,
0010
0000
0010
0100
0000
0100
0001
0100
0010
0000
1000
0010
0000
0100
0001
0100
,
0001
0000
0010
0100
0000
1000
0001
1000
0010
0000
0000
0000
1000
0000
0100
0000
,
0010
0000
0001
0000
0010
0000
0200
0000
0000
0000
1000
0000
0000
1000
0000
0000
,
2300
0000
0000
0001
0000
0000
0001
0000
0000
0010
3000
0000
0010
0000
0001
0000
,
1000
0010
0000
0100
0000
0001
0000
0100
,
0000
0010
0000
0000
1000
0000
0000
0010
0000
0000
1000
0000
0000
0000
0001
0000
,
0000
0000
0100
0000
0000
0000
0100
0000
0010
0000
0000
0000
0001
0000
0000
0100
,
0000
0000
0010
0000
0000
0010
0000
0000
1000
0000
0000
1000
0000
0000
0000
0000
,
0010
2000
0000
3020
0000
0230
0000
0000
,
0000
0000
0000
0000
0000
0000
0301
0100
,
0000
0000
0010
0000
0000
0000
1000
0000
0100
0000
0000
0010
0000
0000
0001
0000
,
0000
0010
0000
0000
0100
0000
0000
0010
0000
0000
0100
0000
0000
1000
0000
0000
,
0002
0100
0000
0010
0000
1000
1003
0000
,
1100
0000
0000
0110
0000
0000
0011
0000
0000
0011
0000
0000
1001
0000
1000
0000
,
0010
0100
0001
0100
0000
0001
0000
0000
,
0011
0000
0000
0110
0000
0000
1100
0000
0000
1010
0000
0000
0101
0000
0001
0000
,
0010
0000
0010
0200
0000
0000
0000
0300
,
1100
0000
0000
0110
0000
0000
0011
0000
0000
0101
0000
0000
1010
0000
1000
0000
,
0200
0000
0010
0010
0000
0310
0000
0000
,
1100
0000
0000
0110
0000
0000
0011
0000
0000
0101
0000
0000
0101
0000
0001
0000
,
0200
0000
1000
1000
0000
0310
0000
0000
,
0110
0000
0000
0011
0000
0000
0011
0000
0000
0000
1002
0000
0000
0000
0010
0000
,
0010
0000
0010
0023
0000
0000
0000
0030
,
0011
0000
0000
0110
0000
0000
1100
0000
0000
0000
1001
0000
0000
0000
0000
0000
,
1000
0100
0001
0100
1000
0010
0001
0010
,
1000
0100
0010
0100
0001
0100
1000
0010
,
0001
0010
0100
0010
1000
0100
0010
0001
,
0010
0100
1000
0100
0010
0001
0010
0100
1000
0100
0010
0001
0020
0000
0000
0000
,
0130
0000
0000
0100
0000
0000
1000
0000
0000
1000
0000
0000
0010
0000
0000
0000
,
0020
0000
0000
0230
0000
0000
0302
0000
0000
0203
0000
0000
0320
0000
0000
0030
,
0000
1000
0000
0000
0100
0000
0000
0010
0000
0000
0001
0000
0000
0100
0000
0000
,
0200
0000
0000
0302
0000
0000
0203
0000
0000
0320
0000
0000
2030
0000
0000
3000
,
0100
0000
0000
0010
0000
0000
0001
0000
0000
0100
0000
0000
0001
0000
0000
0000
,
0200
0000
0000
0320
0000
0000
2030
0000
0000
3002
0000
0000
0023
0000
0000
0030
,
0000
0100
0000
0000
1000
0000
0000
0010
0000
0000
0100
0000
0000
0001
0000
0000
,
1000
0000
0000
0010
0000
0000
1000
0000
0000
0000
1010
0000
0000
0000
0000
0000
,
1001
0000
0000
1000
0010
0000
0010
0100
0000
0100
0001
0000
0001
0100
0000
0100
0010
0000
0010
1000
0000
1000
0010
0000
0010
0100
0000
0100
0001
0000
0001
0010
,
0000
0010
0100
0000
0100
1000
0000
1000
0100
0000
0100
0010
0000
0010
0001
0000
0001
0100
0000
0100
0010
0000
0010
1000
0000
1000
0100
0000
0100
0010
0000
0010
,
0001
0000
0001
0100
0000
0100
0010
0000
0010
1000
0000
1000
0010
0000
0010
0100
0000
0100
0001
0000
0001
0100
0000
0100
0010
0000
0010
1000
0000
1000
0010
0000
,
0010
0100
0000
0100
0010
0000
0010
1000
0002
0000
0000
0000
0000
0000
0000
0000
0203
0000
0000
0000
0000
0000
0000
0000
0000
0000
0000
0000
0000
0000
0000
0000
,
0302
0000
0000
0000
0000
0000
0000
0000
0000
0000
0000
0000
0000
0000
0000
0000
0000
0000
0000
0000
0003
0010
0000
1000
0000
0100
0000
0001
0000
0100
0000
1000
,
0000
0010
0000
0100
0000
0001
0000
0100
0000
0010
0000
1000
0000
0010
0000
0100
0000
0001
0000
0100
0000
0010
0000
1000
0000
0010
0000
0100
0000
1000
0000
1000
,
0000
0100
0000
0001
0000
0100
0000
1000
0000
1000
0000
0010
0000
0010
0000
0001
0000
0010
0000
0100
0000
0001
0000
0010
0000
0010
0000
0100
0000
1000
0000
0100
,
0000
0100
0000
0010
0000
1000
0000
0010
0000
0010
0000
0100
0000
1000
0000
1000
0000
1000
0000
0100
0000
0010
0000
0001
0000
0100
0000
0010
0000
0010
0000
1000
,
0002
0000
0000
0000
0103
0000
0020
0000
0000
0000
2030
0000
0000
0000
3020
0000
0000
0000
0000
0000
0000
0000
0000
0000
0000
0000
0000
0000
0000
0000
0130
0001
,
1000
0000
0010
0200
0000
0302
0000
0023
0000
0000
0000
0000
0000
0000
0000
0000
,
0130
0000
1000
0002
0000
0000
0103
0020
0000
0000
0000
0000
0000
0000
0000
0000
,
1030
0000
0010
0200
0000
0302
0000
0203
0000
0000
0000
0000
0000
0000
0000
0000
,
0310
0000
0000
0000
1000
0000
0200
0000
0000
0000
0320
0000
0000
0000
0032
0000
0000
0000
0000
0000
0000
0000
0000
0000
0000
0000
0000
0000
0000
0000
0013
0100
,
1000
0000
0100
0010
0000
0001
0000
0020
0000
0000
0000
0000
0000
0000
0000
0000
,
0130
0000
1000
0010
0000
0100
0000
0002
0000
0000
0000
0000
0000
0000
0000
0000
,
0013
0000
0100
1000
0000
0010
0000
2000
0000
0000
0000
0000
0000
0000
3000
0000
,
1001
0000
0000
0000
1000
0000
0000
0100
0000
0000
0010
0000
0000
0001
0000
0000
,
0100
0000
0001
0000
0011
0000
0000
0000
0001
0000
0000
0010
0000
0000
0100
0000
,
0000
1000
0000
0000
0001
0000
1000
0000
1001
0000
0000
0000
0200
0000
0000
0320
,
0000
0000
0032
0000
0000
0203
0000
0000
0310
0000
1000
0000
1000
0000
0000
0000
,
0010
0000
0000
0100
0000
0000
0001
0000
0000
0100
0000
0000
0010
0000
1000
0000
,
0001
0000
0000
0000
0100
0000
0000
0010
0000
0000
1000
0000
0000
0010
0000
0000
,
0100
0000
0001
0000
0001
0000
0000
0000
0100
0000
0000
0010
0000
0000
1000
0000
,
0000
0010
0000
0000
0100
0000
0001
0000
0010
0000
0000
0000
0100
0000
0000
1000
,
0000
0000
0010
0000
0000
0100
0000
0000
0001
0000
0010
0000
0100
0000
0000
0000
,
1000
0000
0000
0001
0000
0000
1000
0000
0000
1000
0000
0000
0010
0000
0100
0000
,
0001
0000
0000
0000
1000
0000
0000
0010
0000
0000
0100
0000
0000
0001
0000
0000
,
0100
0000
0010
0000
1000
0000
1000
0100
0000
0000
0100
0000
0000
0000
0100
0010
,
0000
0000
0010
0000
0001
0000
0000
0100
0000
0000
0010
0000
0000
1000
0000
0000
,
0010
0000
0100
0000
0001
0010
0001
0000
1000
0000
0100
0000
0010
0001
0010
0000
,
0100
0000
1000
0000
0001
0010
0001
0010
0001
0000
0000
0000
0010
0100
0010
0100
,
0010
0000
0000
0000
0100
1000
0100
1000
0100
0000
0000
0000
0010
0001
0100
0010
,
1000
0000
0000
0000
0001
0010
0100
1000
0001
0010
0100
1000
0001
0100
0010
1000
,
0010
0100
0001
0100
0010
0100
0001
0100
0010
1000
0010
0100
0001
0100
0010
1000
,
0020
0000
0000
0000
0130
0000
0000
0001
0000
0000
0100
0000
0000
0010
0000
0000
,
1000
0000
0100
0000
0010
0000
0001
0000
1000
0100
1000
0000
0001
0000
0100
0000
,
0010
1000
0010
0000
0100
0000
0000
0100
0000
0000
0001
0000
0000
0010
0000
0000
,
0100
0000
1000
0000
0001
0000
1000
0000
0010
0100
0001
0000
0100
0000
0010
0000
,
0010
1000
0010
0000
0100
0000
0000
0001
0000
0000
0100
0000
0000
0010
0000
0000
,
1000
0000
0100
0000
0010
0000
0001
0000
0100
0010
1000
0000
0010
0000
0100
0000
,
0001
0100
0010
0000
1000
0000
0000
0010
0000
0000
0100
0000
0000
0010
0000
0000
,
1000
0000
0001
0000
0010
0000
0001
0000
0100
0010
1000
0000
0010
0000
0100
0000
,
0001
0010
0001
0000
0100
0000
0000
0010
0000
0000
1000
0000
0000
0010
0000
0000
,
0100
0000
0001
0000
1000
0000
0001
0000
0100
0010
1000
0010
0100
0000
0001
0000
,
0100
0010
1000
0010
0100
0000
0000
0001
0000
0000
0100
0000
0000
0010
0000
0000
,
1000
0000
0100
0000
0010
0000
0001
0000
0100
0010
1000
0010
0100
0000
0001
0000
,
0100
0010
1000
0001
0010
0000
0000
0100
0000
0000
1000
0000
0000
0010
0000
0000
,
0100
0000
0001
0000
0100
0000
0001
0000
0010
0100
1000
0100
0010
0000
0001
0000
,
0100
0010
1000
0001
0010
0000
0010
0000
0100
1000
0100
1000
0100
1000
0100
1000
,
0100
1000
0100
0010
0100
0010
0100
0010
0100
0010
0100
0010
0001
0100
0010
1000
,
0002
0000
2003
0000
3010
0110
0000
0101
,
0000
0000
0011
0000
0001
0000
0010
0000
0100
1000
0010
0100
0001
0000
0100
0000
,
0010
0000
1000
0100
0020
0000
0000
0000
0130
0000
2000
0000
0000
0000
3020
0000
,
0000
0000
0130
0000
0001
0000
0100
0000
0001
1000
0010
0100
0010
0000
1000
0000
,
0010
0100
0001
0000
0100
0020
0000
0000
,
1030
0000
0100
0000
0010
0000
0001
0000
1000
0010
0100
0001
1000
0000
0010
0000
,
0100
0001
0010
0000
0100
1000
0000
0010
,
0000
0000
1000
0000
0010
0000
0100
0000
0001
0010
0001
0010
0001
0000
0100
0000
,
0001
0010
0100
0000
1000
0010
0000
0100
,
0000
0000
0001
0000
0010
0000
0100
0000
1000
0010
0100
0001
1000
0000
0010
0000
,
0100
0000
0010
1000
0100
0000
0000
0000
0010
0000
0001
0000
0000
0000
0010
0000
,
0000
0002
0000
0000
0000
0000
0000
0000
,
0000
0000
0013
0000
1000
0100
0000
0010
,
0000
0000
0010
0000
0001
0000
1000
0100
1000
0000
0001
0010
0001
0000
1000
0100
,
1000
0000
0010
0100
0001
0000
0010
0100
1000
0000
0001
0010
0100
1000
0001
0100
,
0001
1000
0001
0100
0001
1000
0010
0100
0001
1000
0001
0010
0100
0010
0100
1000
,
0001
2002
0000
0000
,
3003
0000
0000
0000
;

//---------------dance-single - ----------------
#NOTES:
     dance-single:
     :
     Medium:
     7:
     0.361,0.439,0.024,0.194,0.228:
0000
0000
0000
0000
,
2000
0000
0100
0000
,
0010
0000
0001
0000
,
0010
0000
3020
0100
,
0100
1000
1000
0100
,
1000
2030
0000
0100
,
0000
0001
0000
0100
,
0000
3010
0000
0100
,
0000
0000
0001
0000
0000
0100
0000
0000
0010
0000
0000
1000
0000
0000
0010
0000
,
0000
0100
0000
0000
0001
0000
0000
0100
0000
0000
0010
0000
0000
1000
0000
0000
,
0100
0000
0000
0010
0000
0000
0001
0000
0000
0100
0000
0000
0010
0000
0000
0010
,
0000
0000
0100
0000
0000
0001
0000
0000
0100
0000
0000
0010
0000
0000
1000
0000
,
0000
0010
0000
0000
0100
0000
0000
0001
0000
0000
0100
0000
0000
0001
0000
0000
,
0100
0000
0000
0010
0000
0000
1000
0000
0000
0010
0000
0000
0100
0000
0000
0000
,
0001
0010
0100
0000
1000
0100
0010
0000
,
0001
0100
0010
1000
0010
0100
0002
0100
,
0103
0000
0010
2000
0000
3100
0200
0000
,
0000
0000
0001
0000
0000
0000
0000
0010
,
0010
0320
0000
0032
0000
1000
2003
0000
,
0000
0000
0001
0000
0000
0000
3010
0100
,
0001
0100
0010
2000
0000
0100
0100
0000
,
0000
0000
0001
0000
0000
0000
3001
0010
,
0100
1000
0010
0200
0000
0000
0001
0000
,
0000
0000
0001
0000
0000
0000
0301
0010
,
0100
2000
0000
3002
0000
0203
0000
0310
,
0000
0010
0000
0000
1000
0000
0000
0010
0000
0000
1000
0000
0000
0000
0001
0000
,
0000
0000
0100
0000
0000
0000
0100
0000
0010
0000
0000
0000
0001
0000
0000
0100
,
0000
0000
0010
0000
0000
1000
0000
0000
0001
0000
0000
0100
0000
0000
0000
0000
,
0010
2000
0000
3020
0000
0230
0000
0000
,
0000
0000
0000
0000
0000
0000
0301
0100
,
0000
0000
0010
0000
0000
0000
1000
0000
0100
0000
0000
0010
0000
0000
0001
0000
,
0000
0010
0000
0000
0100
0000
0000
0010
0000
0000
0100
0000
0000
1000
0000
0000
,
0002
0100
0000
0010
0000
1000
1003
0000
,
1000
0000
0000
0100
0000
0000
0010
0000
0000
0001
0000
0000
0100
0000
0010
0000
,
1000
0010
0100
0001
0000
0001
0000
0000
,
0010
0000
0000
0100
0000
0000
1000
0000
0000
0010
0000
0000
0100
0000
0001
0000
,
0010
0000
0010
0200
0000
0000
0000
0300
,
1000
0000
0000
0100
0000
0000
0010
0000
0000
0001
0000
0000
0100
0000
0010
0000
,
0200
0000
0001
0001
0000
0301
0000
0000
,
0100
0000
0000
0010
0000
0000
1000
0000
0000
0010
0000
0000
0100
0000
0001
0000
,
0200
0000
1000
1000
0000
0310
0000
0000
,
0100
0000
0000
0001
0000
0000
0010
0000
0000
0000
1002
0000
0000
0000
0010
0000
,
0010
0000
0010
0023
0000
0000
0000
0030
,
0100
0000
0000
1000
0000
0000
0100
0000
0000
0000
1001
0000
0000
0000
0000
0000
,
0001
0000
0010
0001
0000
0010
0000
0000
,
0100
1000
0100
0000
0010
0001
1000
0000
,
0010
0100
0001
0000
0100
0010
1000
0000
,
0000
1000
0100
0010
0001
0010
0200
0000
,
1300
0000
0000
0100
0000
0000
0010
0000
0000
0001
0000
0000
0010
0000
0000
0000
,
0100
0000
0000
1000
0000
0000
0010
0000
0000
0100
0000
0000
0001
0000
0000
0000
,
0000
1000
0000
0000
0100
0000
0000
0010
0000
0000
0001
0000
0000
0100
0000
0000
,
0100
0000
0000
0001
0000
0000
0100
0000
0000
0010
0000
0000
1000
0000
0000
0000
,
0100
0000
0000
0010
0000
0000
0001
0000
0000
0100
0000
0000
0001
0000
0000
0000
,
0100
0000
0000
0010
0000
0000
1000
0000
0000
0001
0000
0000
0100
0000
0000
0000
,
0000
0010
0000
0000
1000
0000
0000
0010
0000
0000
0100
0000
0000
0001
0000
0000
,
1000
0000
0000
0010
0000
0000
1000
0000
0000
0000
1010
0000
0000
0000
0000
0000
,
2M02
00M0
0M00
00M0
,
0M00
00M0
0M00
00M0
,
0M00
00M0
0M00
00M0
,
3M03
0002
0203
0000
,
0302
00M0
0M00
M000
,
0M00
00M0
0M00
M000
,
0M00
00M0
0M00
M000
,
0M00
00M0
0M00
0000
,
0103
0000
0100
0020
0000
2030
0000
3020
0000
0000
0000
0000
0000
0000
0000
0130
,
0001
0000
0010
0100
0000
1000
0000
0020
0000
0000
0000
0000
0000
0000
0000
0000
,
0130
0000
0001
0100
0000
0000
0100
0020
0000
0000
0000
0000
0000
0000
0000
0000
,
1030
0000
0010
0100
0000
0001
0000
0200
0000
0000
0000
0000
0000
0000
0000
0000
,
0310
0000
1000
0100
0000
0010
0000
0002
0000
0000
0000
0000
0000
0000
0000
0013
,
0100
0000
1000
0010
0000
0100
0000
0002
0000
0000
0000
0000
0000
0000
0000
0000
,
0103
0000
0010
1000
0000
0100
0000
0020
0000
0000
0000
0000
0000
0000
0000
0000
,
0031
0000
0100
0010
0000
1000
0000
0002
0000
0000
0000
0000
0000
0000
0000
0003
,
1001
0000
0000
0000
1000
0000
0000
0100
0000
0000
0010
0000
0000
0001
0000
0000
,
0100
0000
0001
0000
0010
0000
0000
0000
0001
0000
0000
0010
0000
0000
0100
0000
,
0000
1000
0000
0000
0001
0000
1000
0000
0001
0000
0000
0000
0100
0000
0000
0010
,
0000
0000
0001
0000
0000
0100
0000
0000
0010
0000
1000
0000
0010
0000
0000
0000
,
0010
0000
0000
0100
0000
0000
0001
0000
0000
0100
0000
0000
0010
0000
1000
0000
,
0001
0000
0000
0000
0100
0000
0000
0010
0000
0000
1000
0000
0000
0010
0000
0000
,
0100
0000
0001
0000
0001
0000
0000
0000
0100
0000
0000
0010
0000
0000
1000
0000
,
0000
0010
0000
0000
0100
0000
0001
0000
0010
0000
0000
0000
0100
0000
0000
1000
,
0000
0000
0010
0000
0000
0100
0000
0000
0001
0000
0010
0000
0100
0000
0000
0000
,
1000
0000
0000
0001
0000
0000
1000
0000
0000
1000
0000
0000
0010
0000
0100
0000
,
0001
0000
0000
0000
1000
0000
0000
0010
0000
0000
0100
0000
0000
0001
0000
0000
,
0100
0010
1000
1000
0000
0100
0000
0100
,
0000
0000
0010
0000
0001
0000
0000
0100
0000
0000
0010
0000
0000
1000
0000
0000
,
0001
0010
0001
0000
0100
0000
0010
0000
,
1000
0000
0000
0000
0100
0000
0000
0000
0010
0000
0001
0000
0000
0100
0000
0000
,
0010
1000
0010
0000
0100
0000
0001
0000
,
0100
0000
0000
0000
0010
0000
0000
1000
0000
0000
0010
0000
0000
0100
0000
0000
,
0001
0010
0100
1000
0010
0100
0001
0000
,
2000
0000
0000
0000
3100
0000
0000
0010
0000
0000
0001
0000
0000
0010
0000
0000
,
0100
1000
0010
0000
1000
0000
0001
0000
,
0010
0000
0000
0000
0100
0000
0000
0100
0000
0000
0001
0000
0000
0010
0000
0000
,
0100
1000
0001
0000
0010
0000
0100
0000
,
0010
0000
0000
0000
0100
0000
0000
0001
0000
0000
0100
0000
0000
0010
0000
0000
,
1000
0100
0010
0000
0010
0000
0001
0000
,
1000
0000
0000
0000
1000
0000
0000
0010
0000
0000
0100
0000
0000
0010
0000
0000
,
1000
0001
0010
0000
0100
0000
0010
0000
,
0001
0000
0000
0000
0100
0000
0000
0010
0000
0000
1000
0000
0000
0010
0000
0000
,
0100
0001
1000
0000
0001
0010
0100
0000
,
1000
0000
0010
0000
0100
0000
0000
0001
0000
0000
0100
0000
0000
0010
0000
0000
,
1000
0100
0010
0000
0001
0100
0010
0000
,
1000
0000
0010
0000
1000
0000
0000
0001
0000
0000
1000
0000
0000
0010
0000
0000
,
0100
0001
0100
0000
0001
0010
0100
0000
,
1000
0100
0010
0000
0001
0100
0010
0000
,
1000
0010
0100
0000
0001
0010
0001
0000
,
0002
0000
2003
0000
3010
0100
0000
0001
,
0000
0010
0001
0010
0100
1000
0010
0100
,
0010
0000
1000
0100
0020
0000
0000
0000
0130
0000
2000
0000
0000
0000
3020
0000
,
0000
0130
0001
0100
0001
0010
0100
1000
,
0010
0100
0001
0000
0100
0020
0000
0000
,
1030
0100
0010
0001
1000
0100
1000
0010
,
0100
0001
0010
0000
0100
1000
0000
0010
,
0000
1000
0010
0100
0001
0010
0001
0100
,
0001
0010
0100
0000
1000
0010
0000
0100
,
0000
0001
0010
0100
1000
0100
1000
0010
,
0100
0000
0001
0100
0010
0000
0000
0000
1000
0000
0010
0000
0000
0000
0100
0000
,
0000
0002
0000
0000
0000
0000
0000
0000
,
0000
0000
0013
0000
0100
1000
0000
0010
,
0000
0100
0001
1000
1000
0010
0100
0001
,
1000
0010
0100
0001
1000
0001
0100
0010
,
1000
0010
0100
0001
0010
0100
0010
0001
,
1000
2002
0000
0000
,
3003
0000
0000
0000
;

//---------------dance-single - ----------------
#NOTES:
     dance-single:
     :
     Easy:
     4:
     0.222,0.245,0.075,0.115,0.069: // measure 1
0000
0000
0000
0000
,  // measure 2
2000
0000
3200
0000
,  // measure 3
0320
0000
0032
0000
,  // measure 4
0023
0000
0230
0000
,  // measure 5
2300
0000
3020
0000
,  // measure 6
0000
2030
0000
3200
,  // measure 7
0000
0320
0000
0032
,  // measure 8
0000
0023
0000
0130
,  // measure 9
0001
0010
0001
0010
,  // measure 10
0100
1000
0010
0100
,  // measure 11
0001
0100
0010
1000
,  // measure 12
0010
0100
0001
0010
,  // measure 13
0100
1000
0010
0100
,  // measure 14
0001
0010
0100
1000
,  // measure 15
0010
0100
0001
0010
,  // measure 16
0100
1000
0001
0020
,  // measure 17
0130
0110
0000
1100
,  // measure 18
0000
1100
0000
1001
,  // measure 19
0000
0101
0000
0100
,  // measure 20
0000
0110
0000
0010
,  // measure 21
0000
1010
0000
1000
,  // measure 22
0000
1100
0000
0100
,  // measure 23
0000
0110
0000
0010
,  // measure 24
0000
0011
0000
0001
,  // measure 25
0000
1001
0000
1000
,  // measure 26
0000
1010
0000
0010
,  // measure 27
0000
0110
0000
0100
,  // measure 28
0000
0101
0000
0001
,  // measure 29
0000
0011
0000
0010
,  // measure 30
0000
0110
0000
0010
,  // measure 31
0000
0100
0000
0010
,  // measure 32
0000
0001
0000
0010
,  // measure 33
0100
0000
0000
1000
0000
0000
0100
0000
,  // measure 34
0010
0000
0000
0001
0000
0000
0010
0000
0000
0001
0000
0000
0010
0000
0000
0000
,  // measure 35
0100
0000
1000
0000
,  // measure 36
0100
0000
0000
0010
0000
0000
0100
0000
0000
0010
0000
0000
0100
0000
0000
0000
,  // measure 37
1000
0000
0010
0000
,  // measure 38
0100
0000
0000
0001
0000
0000
0100
0000
0000
0001
0000
0000
0100
0000
0000
0000
,  // measure 39
0010
0000
1000
0000
,  // measure 40
0100
0000
0000
0010
0000
0000
0100
0000
0000
0010
0000
0000
0100
0000
0000
0000
,  // measure 41
1000
0000
0010
0000
,  // measure 42
1000
0000
0000
0100
0000
0000
0010
0000
0000
0000
0001
0000
0000
0000
0000
0000
,  // measure 43
0100
0000
0010
0000
,  // measure 44
1000
0000
0000
0001
0000
0000
1000
0000
0000
0000
0100
0000
0000
0000
0000
0000
,  // measure 45
0010
0001
0100
0010
,  // measure 46
1000
0000
0000
0100
0000
0000
0010
0000
0000
0000
0010
0000
0000
0000
0000
0000
,  // measure 47
0100
0001
1000
0010
,  // measure 48
0100
0000
0000
0001
0000
0000
0100
0000
0000
0000
0010
0000
0000
0000
0000
0000
,  // measure 49
0100
0000
0001
0000
,  // measure 50
0010
0000
0000
0100
0000
0000
1000
0000
0000
0010
0000
0000
0100
0000
0000
0000
,  // measure 51
0001
0000
0100
0000
,  // measure 52
0010
0000
0000
1000
0000
0000
0010
0000
0000
1000
0000
0000
0001
0000
0000
0000
,  // measure 53
0010
0000
0100
0000
,  // measure 54
1000
0000
0000
0010
0000
0000
1000
0000
0000
0100
0000
0000
0010
0000
0000
0000
,  // measure 55
0001
0000
0100
0000
,  // measure 56
0010
0000
0000
1000
0000
0000
0100
0000
0000
0000
0010
0000
0000
0000
0000
0000
,  // measure 57
2002
0000
0000
0000
,  // measure 58
0000
0000
0000
0000
,  // measure 59
0000
0000
0000
0000
,  // measure 60
3003
1000
0100
0000
,  // measure 61
0220
0000
0000
0000
,  // measure 62
0000
0000
0000
0000
,  // measure 63
0000
0000
0000
0000
,  // measure 64
0000
0000
0000
0000
0000
0000
0000
0330
,  // measure 65
0010
0000
0000
0001
0000
0000
0000
0100
0000
0000
0000
0000
0000
0000
0000
0000
,  // measure 66
0010
0000
0000
1000
0000
0000
0000
0100
0000
0000
0000
0000
0000
0000
0000
0000
,  // measure 67
0010
0000
0000
0001
0000
0000
0000
0010
0000
0000
0000
0000
0000
0000
0000
0000
,  // measure 68
0100
0000
0000
0100
0000
0000
0000
1000
0000
0000
0000
0000
0000
0000
0000
0000
,  // measure 69
0100
0000
0000
0010
0000
0000
0000
0001
0000
0000
0000
0000
0000
0000
0000
0000
,  // measure 70
0001
0000
0000
0100
0000
0000
0000
0010
0000
0000
0000
0000
0000
0000
0000
0000
,  // measure 71
1000
0000
0000
0010
0000
0000
0000
0100
0000
0000
0000
0000
0000
0000
0000
0000
,  // measure 72
0001
0000
0000
0100
0000
0000
0000
0010
0000
0000
0000
0000
0000
0000
0000
0000
,  // measure 73
1000
0000
1000
0000
0000
0010
0000
0000
,  // measure 74
0100
0000
0001
0000
0010
0000
0000
0100
,  // measure 75
0000
1000
0100
0010
,  // measure 76
0000
0001
0000
0000
0100
0000
0010
0000
,  // measure 77
1000
0000
0000
0010
0000
0000
0100
0000
,  // measure 78
0001
0000
0010
0000
0000
0100
0000
0000
,  // measure 79
1000
0000
0010
0000
0100
0000
0000
0001
,  // measure 80
0000
0100
0010
1000
,  // measure 81
0000
0100
0000
0000
0010
0000
0001
0000
,  // measure 82
0100
0000
0000
0010
0000
0000
1000
0000
,  // measure 83
0100
0010
0001
0010
,  // measure 84
0001
0100
0010
1000
,  // measure 85
0010
0100
0001
0010
,  // measure 86
0100
1000
0010
0100
,  // measure 87
0001
0100
0010
1000
,  // measure 88
0010
0100
0001
0010
,  // measure 89
0100
1000
0100
0010
,  // measure 90
0001
0100
0010
1000
,  // measure 91
0010
0000
0100
0000
0000
0001
0000
0000
,  // measure 92
0100
0010
1000
0010
,  // measure 93
0100
0000
0001
0000
0000
0100
0000
0000
,  // measure 94
0010
1000
0100
0010
,  // measure 95
0001
0000
1000
0000
0000
0010
0000
0000
,  // measure 96
0100
0001
0010
0100
,  // measure 97
2000
0000
0100
0000
0000
0100
0000
0000
,  // measure 98
3100
0100
0010
0001
,  // measure 99
0100
0000
0010
0000
0000
1000
0000
0000
,  // measure 100
0100
0010
0001
0100
,  // measure 101
0010
0000
1000
0000
0000
0010
0000
0000
,  // measure 102
0100
0001
0010
0100
,  // measure 103
1000
0000
0100
0000
0000
0010
0000
0000
,  // measure 104
0001
0100
0010
1000
,  // measure 105
0010
0000
0100
0000
0000
0001
0000
0000
,  // measure 106
0010
0100
0000
0000
,  // measure 107
0000
0000
2000
0000
0000
0001
0000
0010
,  // measure 108
0000
3001
0000
0000
0000
0000
0000
0000
,  // measure 109
0000
0000
2000
0000
0000
0001
0000
0010
,  // measure 110
0000
3001
0000
0000
0000
0000
0000
0000
,  // measure 111
0000
0000
0020
0000
0000
0100
0000
0000
,  // measure 112
0000
1030
0000
0000
0000
0000
0000
0000
,  // measure 113
0000
0000
2000
0000
0000
0100
0000
0001
,  // measure 114
0000
3100
0000
0000
0000
0000
0000
0000
,  // measure 115
0000
0000
0002
0000
0000
0010
0000
1000
,  // measure 116
0000
0013
0000
0000
0000
0000
0000
0000
,  // measure 117
0000
0000
0020
0000
0000
0100
0000
0100
,  // measure 118
0000
0031
0000
0000
0000
0000
0000
0000
,  // measure 119
0000
0000
0002
0000
0000
0010
0000
1000
,  // measure 120
0000
0013
0000
0000
0000
0000
0000
0000
,  // measure 121
0000
0000
0020
0000
0000
0001
0000
0100
,  // measure 122
0000
0031
0000
0000
0010
0000
0001
0000
,  // measure 123
1000
2002
0000
0000
,  // measure 124
0000
0000
3003
0000
;
