#TITLE:Wavin' Flag;
#SUBTITLE:;
#ARTIST:K'naan;
#TITLETRANSLIT:;
#SUBTITLETRANSLIT:;
#ARTISTTRANSLIT:;
#CREDIT:348;
#BANNER:;
#BACKGROUND:;
#LYRICSPATH:;
#CDTITLE:;
#MUSIC:Wavin' Flag.mp3;
#OFFSET:-0.279;
#SAMPLESTART:60.080;
#SAMPLELENGTH:15.000;
#SELECTABLE:YES;
#BPMS:0.000=152.000;
#STOPS:;
#BGCHANGES:;

//---------------dance-single - ----------------
#NOTES:
     dance-single:
     :
     Beginner:
     1:
     0.115,0.139,0.045,0.000,0.000:
0000
0000
0000
0000
,
0000
0000
0000
0000
,
1000
0000
0000
0000
,
1000
0000
1000
0000
,
0001
0000
0000
0000
,
0001
0000
0001
0000
,
0001
0000
0000
1000
,
0001
0000
0000
0001
,
1000
0000
0000
1000
,
0001
0000
0000
0000
,
0100
0000
0000
0010
,
0100
0000
0000
0100
,
0010
0000
0000
0010
,
0100
0000
0000
0000
,
0001
0000
0000
0000
,
0001
0000
0000
0000
,
0100
0000
0000
0000
,
0100
0000
0000
0000
,
0010
0000
0000
0000
,
0010
0000
0000
0000
,
1000
0000
0000
0000
,
1000
0000
0000
0000
,
0001
1000
0000
0000
,
0001
1000
0000
0000
,
0010
0100
0000
0000
,
0010
0100
0000
0000
,
0010
1000
0000
0000
,
0010
1000
0000
0000
,
0001
0100
0000
0000
,
0001
0100
0000
0000
,
0100
0000
0100
0000
,
0100
0000
0000
0000
,
0010
0000
0010
0000
,
0010
0000
0000
0000
,
1000
0000
1000
0000
,
1000
0000
0000
0000
,
0001
0000
0001
0000
,
0001
0000
0000
0000
,
1001
0000
0000
0000
,
0110
0000
0000
0000
,
1000
0000
0000
0000
,
0001
0000
0000
0000
,
0110
0000
0000
0000
,
1001
0000
0000
0000
,
0010
0000
0000
0000
,
0100
0000
0000
0000
,
0001
0000
0000
0000
,
1000
0000
0000
0000
,
0010
0000
0000
0000
,
0100
0000
0000
0000
,
0010
0000
0000
0000
,
0100
0000
0000
0000
,
0001
0000
0000
0000
,
1000
0000
0000
0000
,
0001
0000
0000
0000
,
1000
0000
1000
0000
,
1000
0000
0000
0000
,
0001
0000
0001
0000
,
0100
0000
0000
0000
,
0010
0000
0010
0000
,
0010
0000
0000
0000
,
0100
0000
0100
0000
,
0110
0000
0000
0000
;

//---------------dance-single - ----------------
#NOTES:
     dance-single:
     :
     Easy:
     4:
     0.277,0.291,0.215,0.117,0.000: // measure 1
0000
0000
0000
0000
,  // measure 2
0000
0000
0000
0000
,  // measure 3
1100
0000
0101
0000
,  // measure 4
1000
0100
0010
0001
,  // measure 5
0011
0000
1010
0000
,  // measure 6
0001
0010
0100
1000
,  // measure 7
0001
0010
0001
0100
,  // measure 8
0001
0000
1000
0001
,  // measure 9
1000
0100
1000
0010
,  // measure 10
1000
0000
0010
0000
,  // measure 11
0100
0010
1000
0001
,  // measure 12
0100
0000
0010
0100
,  // measure 13
0010
1000
0001
0100
,  // measure 14
0010
0000
1000
0000
,  // measure 15
0001
0000
0100
0001
,  // measure 16
0100
0000
0001
1000
,  // measure 17
0001
0000
1000
0010
,  // measure 18
1000
0000
0001
0001
,  // measure 19
1000
0000
0010
0100
,  // measure 20
0010
0000
1000
0100
,  // measure 21
1000
0000
0001
0100
,  // measure 22
0001
0000
1001
0000
,  // measure 23
2000
0000
3100
0100
,  // measure 24
0200
0000
0310
0010
,  // measure 25
0020
0000
0031
0001
,  // measure 26
0002
0000
1003
1000
,  // measure 27
1001
0000
0010
0100
,  // measure 28
0011
0000
0100
0010
,  // measure 29
1100
0000
1000
0001
,  // measure 30
0110
0000
1001
0000
,  // measure 31
0100
0001
0100
0010
,  // measure 32
2000
0000
0010
3000
,  // measure 33
0010
1000
0001
0100
,  // measure 34
0002
0000
0100
0003
,  // measure 35
1000
0100
0001
0010
,  // measure 36
2000
0000
0100
3000
,  // measure 37
0001
0010
1000
0010
,  // measure 38
0002
0000
0013
0000
,  // measure 39
0011
0000
0100
1000
,  // measure 40
1100
0000
0001
0100
,  // measure 41
0101
0000
1000
0010
,  // measure 42
1000
0001
0100
0010
,  // measure 43
1100
0000
0010
0001
,  // measure 44
0011
0000
1000
0010
,  // measure 45
1010
0000
0001
0100
,  // measure 46
0010
1000
0001
0100
,  // measure 47
1001
0000
0100
0000
,  // measure 48
0110
0000
0001
0000
,  // measure 49
1001
0000
0010
0000
,  // measure 50
0110
0000
1000
0000
,  // measure 51
0011
0000
1000
0000
,  // measure 52
1100
0000
0001
0000
,  // measure 53
1010
0000
0100
0000
,  // measure 54
0101
0000
0010
0000
,  // measure 55
1000
0100
0001
0100
,  // measure 56
2000
0000
3001
0010
,  // measure 57
0001
0010
1000
0010
,  // measure 58
0002
0000
1000
1003
,  // measure 59
1000
0100
0001
0010
,  // measure 60
2000
0000
0001
3001
,  // measure 61
0001
0010
1000
0100
,  // measure 62
0002
0000
0103
0010
,  // measure 63
0200
0000
0000
0000
,  // measure 64
0000
0000
0000
0000
,  // measure 65
0000
0000
0000
0000
,  // measure 66
0300
0000
0000
0000
;

//---------------dance-single - ----------------
#NOTES:
     dance-single:
     :
     Medium:
     5:
     0.361,0.408,0.341,0.278,0.018: // measure 1
0000
0000
0000
0000
,  // measure 2
0000
0000
0000
0000
,  // measure 3
1100
0000
0011
1100
,  // measure 4
0001
1000
0001
0110
,  // measure 5
0101
0000
1010
0101
,  // measure 6
0010
0100
0010
1001
,  // measure 7
0002
0010
0100
1000
,  // measure 8
0103
0000
0000
0000
0000
0001
0010
0000
0000
0011
0000
0000
,  // measure 9
2000
0001
0010
0100
,  // measure 10
3010
1000
0001
1100
,  // measure 11
0020
0100
1000
0100
,  // measure 12
1030
0000
0000
0000
0000
0100
1000
0000
0000
1100
0000
0000
,  // measure 13
0200
0010
0001
0010
,  // measure 14
0301
0010
0001
1010
,  // measure 15
2002
3003
0001
0101
,  // measure 16
1000
0100
1000
0101
,  // measure 17
0220
0330
1000
1100
,  // measure 18
0001
0010
0100
0011
,  // measure 19
2200
3300
0001
1000
,  // measure 20
0202
0303
0100
0010
,  // measure 21
2020
3030
0022
0033
,  // measure 22
0100
0010
1000
0001
,  // measure 23
1000
0100
0010
0200
,  // measure 24
0000
1300
0001
0020
,  // measure 25
0000
0031
1000
0002
,  // measure 26
0000
0103
0010
1000
,  // measure 27
0001
0100
1000
0010
,  // measure 28
0001
0000
1000
1100
,  // measure 29
1000
0100
0001
0100
,  // measure 30
1000
0000
0001
0011
,  // measure 31
0100
0001
0001
1000
,  // measure 32
0020
0100
0000
0100
,  // measure 33
1030
0100
0100
0010
,  // measure 34
0200
1000
0000
1000
,  // measure 35
1300
0001
0001
0010
,  // measure 36
0002
0010
0000
0010
,  // measure 37
1003
0010
0010
1000
,  // measure 38
0002
0000
2000
3003
,  // measure 39
1000
0100
0010
0001
,  // measure 40
1000
0100
0001
0100
,  // measure 41
1000
0100
0001
0010
,  // measure 42
0001
0100
2000
3001
,  // measure 43
0001
0100
0010
1000
,  // measure 44
0001
0010
1000
0010
,  // measure 45
0001
0010
1000
0100
,  // measure 46
1000
0010
0002
1003
,  // measure 47
1000
0000
0001
0001
,  // measure 48
0101
0000
1000
1000
,  // measure 49
1100
0000
1000
1000
,  // measure 50
1010
0000
0001
0001
,  // measure 51
0011
0000
0100
0100
,  // measure 52
1001
0000
0010
0010
,  // measure 53
0110
0000
0100
0100
,  // measure 54
0110
0000
1001
0000
,  // measure 55
0200
1000
0001
1000
,  // measure 56
0301
0000
0000
0000
0000
1000
0001
0000
0000
1001
0000
0000
,  // measure 57
0020
0001
1000
0001
,  // measure 58
1030
0000
0011
0101
,  // measure 59
2000
0100
0001
0100
,  // measure 60
3001
0000
0000
0000
0000
0100
0010
0000
0000
0110
0000
0000
,  // measure 61
0002
0010
1000
0010
,  // measure 62
1003
0011
0001
1100
,  // measure 63
0020
0000
0000
0000
,  // measure 64
0000
0000
0000
0000
,  // measure 65
0000
0000
0000
0000
,  // measure 66
0030
0000
0000
0000
;

//---------------dance-single - ----------------
#NOTES:
     dance-single:
     :
     Hard:
     7:
     0.501,0.495,0.502,0.511,0.238: // measure 1
0000
0000
0000
0000
,  // measure 2
0000
0000
0000
0000
,  // measure 3
0100
0011
0100
1010
,  // measure 4
1001
0000
1000
0100
0000
0100
0010
0000
0010
0001
0000
0000
,  // measure 5
0010
0101
0010
1100
,  // measure 6
0110
0000
0010
1000
0000
1000
0001
0000
0001
0100
0000
0000
,  // measure 7
0002
0000
0203
0000
0320
0000
2030
3002
,  // measure 8
0000
0000
0000
0003
0000
1000
0010
0000
0100
0001
0000
0000
,  // measure 9
2000
3020
0230
0302
,  // measure 10
1003
0000
1000
0100
0000
1000
0010
0000
1000
0001
0000
0000
,  // measure 11
2000
0000
3200
0000
0302
0000
0203
2300
,  // measure 12
0000
0000
0000
3000
0000
0001
0010
0000
0100
1000
0000
0000
,  // measure 13
0002
0023
2030
3020
,  // measure 14
0031
0000
0001
1000
0000
0001
0100
0000
0001
0010
0000
0000
,  // measure 15
0000
0011
0000
0001
1000
0000
1100
0000
,  // measure 16
0000
1010
0000
0010
0100
0000
0101
0000
,  // measure 17
0000
1100
0000
1000
0010
0000
1010
0000
,  // measure 18
0000
0011
0000
0001
0100
0000
0101
0000
,  // measure 19
1000
0002
0000
0003
1100
0000
1010
0000
,  // measure 20
0001
2000
0000
3000
0011
0000
0101
0000
,  // measure 21
0100
0020
0000
0030
1100
0000
0101
0000
,  // measure 22
0010
0200
0000
0300
0011
0000
1010
0000
,  // measure 23
0001
0000
0000
0010
0000
0000
0100
0000
1000
0100
0000
0000
,  // measure 24
1000
0000
0000
0100
0000
0000
1000
0000
0001
0010
0000
0000
,  // measure 25
0001
0000
0000
1000
0000
0000
0010
0000
0100
0010
0000
0000
,  // measure 26
0100
0000
0000
0001
0000
0000
1000
0000
0010
0100
0000
0000
,  // measure 27
1001
0000
0000
0000
0000
1000
0100
0000
0000
1100
0000
0000
,  // measure 28
0110
0000
0000
0000
0000
0001
0010
0000
0000
0011
0000
0000
,  // measure 29
1001
0000
0000
0000
0000
0001
0100
0000
0000
0101
0000
0000
,  // measure 30
0110
0000
0000
0000
0000
1000
0010
0000
0000
1010
0000
0000
,  // measure 31
1002
0000
0000
1003
0000
0000
0010
0000
0100
0010
0000
0000
,  // measure 32
2000
0100
0010
3001
,  // measure 33
0120
0000
0000
0130
0000
0000
1000
0000
0001
1000
0000
0000
,  // measure 34
0020
1000
0001
1030
,  // measure 35
2001
0000
0000
3001
0000
0000
0100
0000
0010
0100
0000
0000
,  // measure 36
0002
0010
0100
1003
,  // measure 37
0210
0000
0000
0310
0000
0000
0001
0000
1000
0001
0000
0000
,  // measure 38
0220
0330
1001
0110
,  // measure 39
1000
0000
0000
0100
0000
0000
0001
0000
0200
0000
0000
0000
1300
0000
0000
0000
,  // measure 40
0001
0000
0000
0010
0000
0000
1000
0000
0020
0000
0000
0000
0031
0000
0000
0000
,  // measure 41
0100
0000
0000
0001
0000
0000
1000
0000
0020
0000
0000
0000
0130
0000
0000
0000
,  // measure 42
1000
0000
0000
0001
0000
0000
1000
0000
0001
0000
0000
0000
0110
0000
0000
0000
,  // measure 43
1000
0000
0000
0100
0000
0000
0001
0000
0020
0000
0000
0000
1030
0000
0000
0000
,  // measure 44
0001
0000
0000
0010
0000
0000
1000
0000
0200
0000
0000
0000
0301
0000
0000
0000
,  // measure 45
0001
0000
0000
0100
0000
0000
0010
0000
2000
0000
0000
0000
3100
0000
0000
0000
,  // measure 46
0010
0000
0000
0100
0000
0000
0010
0000
0100
0000
0000
0000
1001
0000
0000
0000
,  // measure 47
1100
0000
0000
0000
0000
1000
0001
0000
0000
0011
0000
0000
,  // measure 48
0101
0000
0000
0000
0000
0001
1000
0000
0000
1010
0000
0000
,  // measure 49
1100
0000
0000
0000
0000
0010
0100
0000
0000
0011
0000
0000
,  // measure 50
0101
0000
0000
0000
0000
0010
0100
0000
0000
1010
0000
0000
,  // measure 51
0110
0000
0000
0000
0000
1000
0010
0000
0000
1001
0000
0000
,  // measure 52
1001
0000
0000
0000
0000
0001
0100
0000
0000
0110
0000
0000
,  // measure 53
0110
0000
0000
0000
0000
0001
1000
0000
0000
1001
0000
0000
,  // measure 54
1000
1001
0001
1001
,  // measure 55
0200
0000
0302
0000
2003
0000
3020
0230
,  // measure 56
0000
0000
0000
0300
0000
0010
1000
0000
0010
0001
0000
0000
,  // measure 57
0020
2030
3002
0203
,  // measure 58
0301
0000
0001
1000
0000
1000
0010
0000
0010
0100
0000
0000
,  // measure 59
0002
0000
0023
0000
0230
0000
0320
0032
,  // measure 60
0000
0000
0000
0003
0000
0100
0001
0000
1000
0100
0000
0000
,  // measure 61
2000
3200
0320
0230
,  // measure 62
1300
0000
1000
0001
0000
0001
0100
0000
0100
0010
0000
0000
,  // measure 63
0220
0000
0000
0000
,  // measure 64
0000
0000
0000
0000
,  // measure 65
0000
0000
0000
0000
,  // measure 66
0330
0000
0000
0000
;

//---------------dance-single - ----------------
#NOTES:
     dance-single:
     :
     Challenge:
     9:
     0.673,0.699,0.663,0.529,0.695: // measure 1
0000
0000
0000
0000
,  // measure 2
0000
0000
0000
0000
,  // measure 3
0011
0000
0000
1100
0000
0001
1000
0000
0000
1001
0000
0000
,  // measure 4
1000
0100
1000
0100
0010
0001
0010
0001
1000
0001
1000
0001
,  // measure 5
0100
0000
0000
1010
0000
0010
0100
0000
0000
0110
0000
0000
,  // measure 6
0001
0100
0001
0100
0010
1000
0010
1000
0001
1000
0001
1000
,  // measure 7
0002
0103
2001
3010
,  // measure 8
1010
0000
0000
0011
0000
1000
0100
0000
0100
0010
0000
0010
,  // measure 9
0002
0103
2100
3010
,  // measure 10
0001
0010
0001
1000
0100
1000
0001
0100
0001
1000
0010
1000
,  // measure 11
0020
0130
0210
0301
,  // measure 12
0101
0000
0000
1100
0000
0001
0010
0000
0100
1000
0000
0010
,  // measure 13
0200
0301
1020
0130
,  // measure 14
1000
0010
0100
0001
0100
0010
1000
0100
0010
0001
0010
0100
,  // measure 15
2000
0000
0000
3010
0000
0010
1000
0000
1000
0010
0000
0000
,  // measure 16
0012
0000
0000
0103
0000
0100
0001
0000
0001
0100
0000
0000
,  // measure 17
0210
0000
0000
0301
0000
0001
1000
0000
1000
0010
0000
0000
,  // measure 18
0120
0000
0000
1030
0000
1000
0001
0000
0001
0100
0000
0000
,  // measure 19
0202
0000
0000
0303
0000
1000
0100
0000
0010
0001
0000
0000
,  // measure 20
2020
0000
0000
3030
0000
0100
0001
0000
1000
0010
0000
0000
,  // measure 21
2002
0000
0000
3003
0000
0010
0100
0000
0001
1000
0000
0000
,  // measure 22
0001
0010
0100
0010
0001
1000
0010
0100
0001
0100
0010
1000
,  // measure 23
0001
0000
0000
0110
0000
0001
0010
0000
0010
0100
0000
0100
,  // measure 24
1000
0000
0000
0110
0000
1000
0001
0000
0001
0100
0000
0100
,  // measure 25
0010
0000
0000
1100
0000
0010
0100
0000
0001
1000
0000
0100
,  // measure 26
1000
0000
0000
0011
0000
1000
0100
0000
0100
0010
0000
0010
,  // measure 27
0001
1000
0001
1000
0000
0010
0100
0000
0000
1001
0000
0000
,  // measure 28
0100
0010
0100
0010
0000
1000
0001
0000
0000
0110
0000
0000
,  // measure 29
1000
0100
0010
0001
0000
1000
0001
0000
0000
1001
0000
0000
,  // measure 30
1000
0001
1000
0010
1000
0010
0100
0001
0100
0001
1000
0001
,  // measure 31
2000
3010
0120
1030
,  // measure 32
1001
0000
1000
0100
0000
0001
0100
0000
1000
0001
0000
0000
,  // measure 33
0021
0130
0210
1300
,  // measure 34
0110
0000
0001
0010
0000
1000
0010
0000
0001
1000
0000
0000
,  // measure 35
1002
0103
0210
0301
,  // measure 36
1100
0000
0001
0010
0000
0100
1000
0000
0001
1000
0000
0000
,  // measure 37
1002
0013
2001
3100
,  // measure 38
1000
0001
0010
0100
1000
0001
1000
0000
0000
1001
0000
0000
,  // measure 39
1002
0000
0000
0103
0000
0000
1000
0000
0102
0000
0000
0000
1003
0000
0000
0000
,  // measure 40
2010
0000
0000
3001
0000
0000
0010
0000
2001
0000
0000
0000
3010
0000
0000
0000
,  // measure 41
0120
0000
0000
1030
0000
0000
0100
0000
1020
0000
0000
0000
0130
0000
0000
0000
,  // measure 42
0201
0000
0000
0310
0000
0000
0001
0000
0210
0000
0000
0000
0301
0000
0000
0000
,  // measure 43
0012
0000
0000
0103
0000
0000
1001
0000
2010
0000
0000
0000
3100
0000
0000
0000
,  // measure 44
1200
0000
0000
1300
0000
0000
0110
0000
0021
0000
0000
0000
0031
0000
0000
0000
,  // measure 45
2100
0000
0000
3010
0000
0000
0110
0000
0102
0000
0000
0000
0013
0000
0000
0000
,  // measure 46
0201
0000
0000
0310
0000
0000
1001
0000
0120
0000
0000
0000
1030
0000
0000
0000
,  // measure 47
1200
0000
0000
0310
0000
0010
0001
0000
0001
1000
0000
0000
,  // measure 48
0021
0000
0000
0130
0000
0100
1000
0000
1000
0001
0000
0000
,  // measure 49
2001
0000
0000
3100
0000
0100
1000
0000
0001
0010
0000
0000
,  // measure 50
1002
0000
0000
0013
0000
0010
0001
0000
1000
0100
0000
0000
,  // measure 51
1020
0000
0000
0031
0000
1000
0001
0000
0001
0100
0000
0000
,  // measure 52
0201
0000
0000
1300
0000
0001
1000
0000
1000
0100
0000
0000
,  // measure 53
0120
0130
2001
3001
,  // measure 54
0110
0000
0001
0100
0000
0100
0010
0000
0010
1000
0000
0000
,  // measure 55
0012
1003
1020
0130
,  // measure 56
1001
0000
0000
0110
0000
1000
0100
0000
0001
0100
0000
1000
,  // measure 57
0020
0130
0102
0013
,  // measure 58
1000
0100
1000
0100
0010
0100
0010
0001
0010
0001
1000
0001
,  // measure 59
2000
3100
1002
0013
,  // measure 60
2001
0000
0000
3001
0000
0100
0001
0000
1000
0010
0000
1000
,  // measure 61
0001
0010
0001
0010
0100
0010
0100
1000
0100
1000
0010
1000
,  // measure 62
0010
0100
0010
0100
0001
0100
0001
1000
0001
1000
0000
0000
,  // measure 63
2002
0000
0000
0000
,  // measure 64
0000
0000
0000
0000
,  // measure 65
0000
0000
0000
0000
,  // measure 66
3003
0000
0000
0000
;
