#TITLE:Untouched;
#SUBTITLE:;
#ARTIST:The Veronicas;
#TITLETRANSLIT:;
#SUBTITLETRANSLIT:;
#ARTISTTRANSLIT:;
#GENRE:;
#CREDIT:;
#MENUCOLOR:;
#BANNER:Licenses - Untouched.png;
#BACKGROUND:Licenses - Untouched-BG.png;
#LYRICSPATH:Licenses - Untouched.lrc;
#CDTITLE:;
#MUSIC:Licenses - Untouched.mp3;
#OFFSET:-0.750;
#SAMPLESTART:65.850;
#SAMPLELENGTH:12.000;
#SELECTABLE:YES;
#LISTSORT:;
#BPMS:0.000=177.000;
#STOPS:;
#TICKCOUNT:0.000=2;
#BGCHANGES:31.750=Tunnel11.avi=1.000=1=0=1,
47.750=Space2.avi=0.973=0=0=1,
63.750=Tunnel15.avi=1.000=0=0=1,
79.750=Space1.avi=1.000=0=0=1,
87.750=Dancers1.avi=0.973=0=0=1,
95.750=Heart1.avi=1.000=0=0=1,
103.750=Star2.avi=0.973=0=0=1,
111.750=Heart1.avi=1.000=0=1=1,
119.750=Star2.avi=0.973=0=1=1,
125.750=Dancers2.avi=1.022=0=0=1,
127.750=Tunnel11.avi=1.000=0=1=1,
143.750=Space2.avi=0.973=0=1=1,
159.750=Tunnel15.avi=1.000=0=1=1,
175.750=Space1.avi=1.000=0=1=1,
183.750=Dancers1.avi=0.973=0=1=1,
191.750=Bluey1A.avi=0.590=0=0=1,
199.750=Star3.avi=1.000=0=0=1,
207.750=Bluey1B.avi=0.590=0=0=1,
215.750=Heart1.avi=1.000=0=1=1,
223.750=Bluey1A.avi=0.590=0=1=1,
231.750=Star3.avi=1.000=0=1=1,
239.750=Bluey1B.avi=0.590=0=1=1,
247.750=Star2.avi=0.973=0=1=1,
255.750=Numbers3.avi=1.000=0=0=1,
279.750=Licenses - Untouched-BG.png=1.000=0=0=0;
#KEYSOUNDS:;
#ATTACKS:;

//---------------dance-single - BEGINNER----------------
#NOTES:
     dance-single:
     BEGINNER:
     Beginner:
     3:
     0.205,0.357,0.090,0.050,0.000:
0000
0000
0000
0000
,
0000
0000
0000
0000
,
0000
0000
0000
0000
,
0000
0000
0000
0000
,
0002
0000
0000
0000
,
0003
0000
0000
0000
,
2000
0000
0000
0000
,
3000
0000
0000
0000
,
0001
0000
0000
0000
,
0000
0000
0001
0000
,
0001
0000
0000
0000
,
0000
0000
1000
0000
,
1000
0000
0000
0000
,
0000
0000
1000
0000
,
1000
0000
0000
0000
,
0000
0000
1001
0000
,
1001
0000
0000
0000
,
0000
0000
0010
0000
,
0010
0000
0000
0000
,
0000
0000
0100
0000
,
0100
0000
0000
0000
,
0000
0000
0010
0000
,
0010
0000
0000
0000
,
1000
0000
0001
0000
,
1000
1000
1000
0000
,
0001
0001
0001
0000
,
0010
0010
0010
0000
,
0010
0010
0010
0000
,
0100
0100
0100
0000
,
0100
0100
0100
0000
,
1000
1000
1000
0000
,
1001
1001
1001
0000
,
0001
0001
0001
0000
,
0100
0100
0100
0000
,
0001
0001
0001
0000
,
0100
0100
0100
0000
,
0010
0010
0010
0000
,
1000
1000
1000
0000
,
0010
0010
0010
0000
,
1000
1000
1000
0000
,
1001
1001
1001
0000
,
0001
0001
0001
0000
,
1000
1000
1000
0000
,
0001
0001
0001
0000
,
0010
0010
0010
0000
,
0100
0100
0100
0000
,
0010
0000
1000
0000
,
0001
0000
0100
0000
,
0010
0000
0010
0000
,
1000
0000
0001
0000
,
0010
0000
0010
0000
,
0001
0000
1000
0000
,
0010
0000
0100
0000
,
0001
0000
0010
0000
,
0000
0000
1000
0000
,
0001
0000
1000
0000
,
1001
0000
0001
0000
,
1000
0000
0100
0000
,
1000
0000
0001
0000
,
0100
0000
1000
0000
,
0001
0000
0010
0000
,
0001
0000
0100
0000
,
0000
0000
0010
0000
,
1000
0000
0100
0000
,
0002
0000
0000
0000
,
0003
0000
1000
0000
,
2000
0000
0000
0000
,
3000
0000
0010
0000
,
0020
0000
0000
0000
,
0030
0000
0010
0000
,
0010
0000
1000
0000
,
0001
0000
0100
0100
;

//---------------dance-single - BASIC----------------
#NOTES:
     dance-single:
     BASIC:
     Easy:
     5:
     0.363,0.643,0.319,0.229,0.000:
0000
0000
0000
0000
,
0000
0000
0000
0000
,
0000
0000
0000
0000
,
0000
0000
0000
0000
,
2000
0000
0000
0000
,
3000
0000
0001
0000
,
0002
0000
0000
0000
,
0003
0000
1000
0000
,
1000
0000
0100
0000
,
1000
0000
0010
0100
,
1000
0000
0100
0000
,
0010
0000
0010
0100
,
0001
0000
0100
0000
,
1000
0000
0010
0100
,
0001
0000
0001
0000
,
1000
0000
1000
0001
,
1002
0000
1003
0000
,
1000
0000
0010
0100
,
2001
0000
3001
0000
,
0100
0000
0001
0100
,
0120
0000
0130
0000
,
1000
0000
0001
0100
,
1010
0000
0101
0000
,
0010
1000
0001
0100
,
1000
0100
1000
0000
,
0001
0100
0001
0000
,
1000
0010
0001
0010
,
1000
0010
0001
0010
,
1010
1010
1000
1000
,
0101
0101
0001
0001
,
0100
0010
1000
0001
,
0110
0110
1001
1001
,
0010
0100
1000
0001
,
0020
0030
0010
0001
,
0100
0000
0001
0000
,
1000
0001
0010
0100
,
1000
0010
0100
0001
,
1000
0001
0100
0100
,
1010
1010
0101
0101
,
0011
0011
1100
1100
,
1001
0100
1001
0100
,
1001
0010
1001
0010
,
0010
1000
0001
0100
,
0010
0001
1000
0100
,
1000
0001
0100
1000
,
0001
0010
1000
0001
,
0020
0030
0002
0003
,
2000
3000
0200
0300
,
0102
0000
0103
0000
,
0010
0001
0010
1000
,
2010
0000
3001
0000
,
0001
0100
0001
1000
,
0120
0000
0130
0000
,
1000
0001
0010
0010
,
1000
0100
0001
0100
,
1000
0010
0001
0010
,
1020
0000
1030
0000
,
0010
1000
0001
0100
,
0102
0000
1003
0000
,
1000
0100
0010
0001
,
2001
0000
3001
0000
,
0010
0100
0010
1000
,
0001
0010
1000
0100
,
0010
0001
1000
0100
,
0202
0000
0000
0000
,
0303
0000
1000
0001
,
2000
0000
0000
0000
,
3000
0000
0001
1000
,
0002
0000
0010
0000
,
0013
0000
0010
0100
,
0020
0030
0002
0003
,
2000
3000
0100
0100
;

//---------------dance-single - DIFFICULT----------------
#NOTES:
     dance-single:
     DIFFICULT:
     Medium:
     7:
     0.442,0.464,0.299,0.189,0.000:
0000
0000
0000
0000
,
0000
0000
0000
0000
,
0000
0000
0000
0000
,
0000
0000
0000
0000
,
0020
0000
0000
0000
,
0030
0000
0000
0000
0010
1000
0010
1000
,
0200
0000
0000
0000
,
0300
0000
0000
0000
1000
0001
1000
0001
,
0200
0001
0000
0001
,
0000
0000
0301
0000
0010
1000
0010
0000
,
2000
0001
0000
0001
,
0000
0000
3001
0000
0010
0100
0010
0000
,
0200
0010
0000
0010
,
0000
0000
0310
0000
0001
0100
0010
1000
,
0002
1000
0000
1000
,
0000
0000
1003
0000
0010
0100
1000
0000
,
2100
0001
0000
3001
,
0100
0000
0010
0000
0010
1000
0001
0100
,
0002
1000
0000
1000
,
0013
0000
0010
0000
1000
0100
0010
0001
,
0200
1000
0000
0001
,
0310
0000
0010
0000
1000
0010
0100
0001
,
0100
0000
1010
0000
,
0110
0000
0101
0100
,
0100
0010
1001
1001
,
0010
0100
1001
1001
,
0010
0000
1000
0100
0010
0001
0000
0000
,
1000
0100
0010
0001
0000
0000
1000
0000
,
1100
0001
1100
0001
,
0101
1000
0101
1000
,
0001
0100
1000
0000
0100
0000
0001
0000
,
1000
0100
0001
0000
0100
0000
1000
0000
,
0001
0100
0001
0000
1000
0100
1000
0000
,
0100
0010
0001
0100
,
1010
1010
0101
0101
,
0010
1000
0010
0000
0100
0000
0000
0000
,
1000
0001
0100
0010
,
0100
0000
0001
0100
0000
0010
1000
0000
,
0010
1000
0001
0100
,
0010
0100
0001
0000
0010
0100
1000
0000
,
0100
1000
0100
0000
0001
0010
0001
0000
,
1000
0010
1000
0000
0100
0001
0100
0000
,
1000
0100
1000
0000
0010
0001
0010
0000
,
0100
0010
0100
0000
0001
1000
0001
0000
,
1000
0100
1000
0000
0001
0100
0001
0000
,
1000
0010
1000
0000
0001
0010
0001
0000
,
0010
0000
0011
0000
,
0110
0000
1100
0100
,
2100
0000
3100
0000
,
0001
1000
0011
0001
,
0102
0000
0103
0000
,
1000
0001
0101
0100
,
2010
0000
3010
0000
,
0010
0100
0001
1000
,
0000
0000
0100
0010
0001
0000
0010
0000
,
0100
1000
0100
0000
0011
0000
0100
0000
,
1002
0000
0013
0000
,
1000
0001
1010
0100
,
0201
0000
1300
0000
,
0100
0001
1100
0001
,
0102
0000
0013
0000
,
0010
0100
0010
0010
,
0000
0000
1000
0000
0001
0100
1000
0000
,
0001
0000
0100
0000
0010
1000
0001
0100
,
0020
0000
0000
0000
,
0030
0000
0000
0000
1000
0001
1000
0001
,
2000
0000
0000
0000
,
3000
0000
0000
0000
0010
0100
0010
0100
,
0020
0000
0100
0000
,
0130
0000
0000
0000
0010
0100
0010
0100
,
0020
0000
1000
0000
,
0001
0000
0100
0130
;

//---------------dance-single - EXPERT----------------
#NOTES:
     dance-single:
     EXPERT:
     Hard:
     8:
     0.543,0.643,0.189,0.159,0.000:
0000
0000
0000
0000
,
0000
0000
0000
0000
,
0000
0000
0000
0000
,
0000
0000
0000
0000
0001
1000
0001
0100
,
0002
0000
0000
0000
,
0003
0000
0000
0000
1000
0001
1000
0100
,
2000
0000
0000
0000
,
3000
0000
0000
0000
0001
1000
0001
0010
,
0001
0000
0100
0000
1000
1000
0100
0000
,
0001
0000
0100
0000
0010
1000
0010
0100
,
0001
0000
0010
0000
0001
0001
0010
0000
,
0100
0000
1000
0000
0010
1000
0010
0100
,
0010
0000
1000
0000
0100
0100
1000
0000
,
0010
0100
0001
0000
1000
0001
0100
0010
,
1000
0000
0010
0000
1000
1000
0100
0000
,
0001
0100
0010
0000
1000
0010
0100
0001
,
0102
1000
0100
0010
,
0100
0000
1003
0000
0010
0100
1000
0001
,
2000
0001
0100
0010
,
0100
0000
3001
0000
0010
0100
0001
1000
,
0020
1000
0001
0100
,
1000
0000
0100
0000
1030
0001
0100
0001
,
0101
0000
0000
0010
1000
0000
0000
0001
,
0100
0000
0000
0010
1000
0000
0001
0000
,
0100
0001
1100
1100
,
0001
0010
1010
1010
,
0001
0000
1000
0100
0010
0001
0000
0000
,
1000
0100
0010
0001
0000
0000
1000
0100
,
1100
0000
0011
0000
1100
0000
1000
0100
,
0000
0100
0000
0010
0001
0010
0100
1000
,
0100
0010
0001
0000
0100
0000
1000
0000
,
0001
0100
0001
0000
0101
0000
1100
0000
,
0001
0100
1000
0100
0001
0010
1000
0010
,
0001
0000
0100
0000
0010
1000
0001
0000
,
0102
0000
1000
0000
0103
0000
1000
0010
,
0100
0001
0200
0000
0010
0000
1300
0000
,
0010
1000
0010
1000
0001
0100
0001
0100
,
0010
0000
1000
0100
0000
0010
0001
0100
,
0010
0100
0010
0100
0001
1000
0001
1000
,
0100
0010
0001
1000
0001
0010
0100
1000
,
1001
1000
0001
0000
1000
0001
0100
0001
,
0010
0001
1000
0000
0010
0100
0001
1000
,
0001
0100
0001
0100
1000
0100
0001
0100
,
0010
0100
0001
0100
0001
0010
1000
0000
,
0010
0100
1000
0010
0100
0000
0010
0100
,
0001
0100
0010
0100
1000
0100
0010
1000
,
0001
0000
0000
0001
0100
0000
0000
0100
,
0010
0000
0000
0010
1000
0000
0001
0000
,
0102
0000
1000
0000
0103
0000
1000
0100
,
0000
0100
0010
0000
0001
0000
1000
0000
,
2010
0000
0001
0000
3010
0000
0001
0100
,
0000
0010
1000
0000
0010
0000
0100
0000
,
1200
0000
0001
0000
0310
0000
0001
0100
,
0000
0010
1000
0000
0010
0000
0100
0000
,
1000
0100
0010
0001
0100
0000
0010
1000
,
0000
0001
0010
0000
0100
0000
1000
0000
,
0210
0000
1000
0000
0310
0000
0001
0010
,
0000
0100
1000
0000
0001
0000
1000
0000
,
0120
0000
0001
0000
1030
0000
0001
0100
,
0000
0001
0010
0000
0100
0000
1000
0000
,
1002
0000
0100
0000
0013
0000
0100
0010
,
0000
0010
0001
0000
1000
0000
0100
0000
,
1000
0100
0010
0000
0010
0100
1000
0001
,
0100
0010
1000
0000
0010
1000
0001
0100
,
0020
0000
0000
0000
,
0030
0000
0000
0000
0100
0001
1000
0010
,
0200
0000
0000
0000
,
0300
0000
0000
0000
0010
1000
0001
0100
,
0002
0000
1000
0000
,
1003
0000
0000
0000
1000
0100
0010
0001
,
0010
0000
0000
0010
0100
0000
0000
0100
,
1000
0000
0000
1000
0001
0000
0100
0000
;
