#TITLE:Trapeze;
#SUBTITLE:(Daniel Kandi Remix);
#ARTIST:Ferry Teyle and Static Blue;
#TITLETRANSLIT:;
#SUBTITLETRANSLIT:;
#ARTISTTRANSLIT:;
#CREDIT:;
#BANNER:bn.png;
#BACKGROUND:bg.png;
#LYRICSPATH:;
#CDTITLE:;
#MUSIC:Trapeze (Daniel Kandi Remix).mp3;
#OFFSET:-0.060;
#SAMPLESTART:83.220;
#SAMPLELENGTH:20.000;
#SELECTABLE:YES;
#BPMS:0.000=137.000,62.000=68.500,94.000=137.000,154.000=138.000,158.000=137.000;
#STOPS:;
#BGCHANGES:;

//---------------dance-single - Pandemonium X----------------
#NOTES:
     dance-single:
     Pandemonium X:
     Hard:
     7:
     0.239,0.292,0.106,0.144,0.171: // measure 1
0000
0000
0000
0000
,  // measure 2
0000
0000
0000
0000
,  // measure 3
0000
0000
0000
0000
,  // measure 4
0000
0000
0000
0000
,  // measure 5
0000
0000
0000
0000
,  // measure 6
0000
0000
0000
0000
,  // measure 7
0000
0000
0000
0000
,  // measure 8
0000
0000
0000
0000
0000
0000
0000
0000
1000
0001
0000
0000
0000
0000
0000
0000
,  // measure 9
0001
1000
0000
0000
0001
0010
0000
0000
0001
0100
0000
0000
0000
0000
0000
0000
,  // measure 10
0000
0000
0000
0000
0000
0000
0000
0000
1000
0010
0000
0000
0000
0000
0000
0000
,  // measure 11
1000
0001
0000
0000
1000
0100
0000
0000
1000
0010
0000
0000
0000
0000
0000
0000
,  // measure 12
0000
0000
0000
0000
0000
0000
0000
0000
1000
0001
0000
0000
0000
0000
0000
0000
,  // measure 13
0010
0100
0000
0000
0100
0010
0000
0000
0010
0100
0000
0000
0000
0000
0000
0000
,  // measure 14
0000
0000
0000
0000
0000
0000
0000
0000
0100
0010
0000
0000
0000
0000
0000
0000
,  // measure 15
1000
0001
0000
0000
0001
1000
0000
0000
1000
0001
0000
0000
0000
0000
0000
0000
,  // measure 16
0000
0000
0000
0000
0000
0000
0000
0000
1001
1000
0000
0001
0000
1000
0000
0000
,  // measure 17
0000
0000
0000
0000
0000
0000
0100
0000
1000
0000
0000
0000
0000
0000
0100
0010
,  // measure 18
0000
0000
0000
0000
0000
0000
0000
0000
0010
0001
0000
0100
0000
0001
0000
0000
,  // measure 19
0000
0000
0000
0000
0000
0000
0100
0000
0001
0000
0000
0000
0000
0000
0100
0010
,  // measure 20
0000
0000
0000
0000
0000
0000
0000
0000
0010
1000
0000
0100
0000
1000
0000
0000
,  // measure 21
0000
0000
0000
0000
0000
0000
0010
0000
0100
0000
0000
0000
0000
0000
0001
1000
,  // measure 22
0000
0000
0000
0000
0000
0000
0000
0000
1000
0001
0000
1000
0000
0010
0000
0000
,  // measure 23
0000
0000
0000
0000
0000
0000
0100
0000
0010
0000
0000
0000
0000
0000
0100
0001
,  // measure 24
0000
0000
2200
0000
,  // measure 25
0000
0000
3300
0000
,  // measure 26
0100
0000
0000
1000
0000
0000
0100
0000
0020
0000
0000
0000
0000
0000
0000
0000
,  // measure 27
0000
0000
0030
0000
,  // measure 28
0010
0000
0000
0001
0000
0000
0100
0000
0020
0000
0000
0000
0000
0000
0000
0000
,  // measure 29
0000
0000
0030
0000
,  // measure 30
0010
0000
0000
1000
0000
0000
1000
0000
0002
0000
0000
0000
0000
0000
0000
0000
,  // measure 31
0000
0000
0003
0000
,  // measure 32
1000
0000
0000
0001
0000
0000
0010
0000
0002
0000
0000
0000
0010
0000
0000
0000
,  // measure 33
0000
0010
0000
0013
,  // measure 34
0010
0000
0000
0001
0000
0000
0100
0000
0020
0000
0000
0000
0100
0000
0000
0000
,  // measure 35
0000
0100
0000
0130
,  // measure 36
0100
0000
0000
0010
0000
0000
1000
0000
0200
0000
0000
0000
1000
0000
0000
0000
,  // measure 37
0000
1000
0000
1300
,  // measure 38
1000
0000
0000
0010
0000
0000
0200
0000
0020
0000
0000
0000
0000
0000
0000
0000
,  // measure 39
0000
0000
0330
0000
,  // measure 40
0000
0000
0000
0000
1000
0001
0000
0101
,  // measure 41
0000
0110
0000
0100
0010
0000
0010
0000
,  // measure 42
0100
0110
1001
1000
,  // measure 43
0001
0000
0010
0001
0100
0000
0010
0000
,  // measure 44
0100
0000
0010
0000
0100
0010
0000
1000
,  // measure 45
0000
0001
0000
1000
0000
0100
1000
0000
,  // measure 46
0100
1100
1010
0100
,  // measure 47
0010
1000
0001
0010
0000
0000
0000
0000
,  // measure 48
0000
0000
0000
0000
0010
0002
0000
0010
,  // measure 49
0000
0010
0000
0013
0000
0000
0000
0000
,  // measure 50
0000
1001
2100
0000
,  // measure 51
3000
0000
0001
0100
0000
0000
0000
0000
,  // measure 52
0000
0000
0000
0000
0001
2000
0000
0100
,  // measure 53
0000
0100
0000
3100
0000
0000
0000
0000
,  // measure 54
0000
0101
1200
0000
,  // measure 55
0300
0000
0000
0000
1000
0000
0001
0000
0000
0000
1000
0000
0000
0010
0000
0000
,  // measure 56
0000
1000
0000
0000
1000
0100
0000
0000
2002
0000
0000
0000
0000
0000
0000
0000
,  // measure 57
0000
0000
0000
0003
,  // measure 58
0001
0000
0000
0001
0000
0000
0001
0000
0002
0000
0000
0000
0000
0000
0000
0000
,  // measure 59
0000
0000
0000
3000
,  // measure 60
1000
0000
0000
1000
0000
0000
1000
0000
1003
0000
0000
0000
0001
0000
0000
0000
,  // measure 61
0100
0001
0010
0001
,  // measure 62
0100
0010
1000
0001
0010
0000
0001
0000
,  // measure 63
1000
0000
0001
0000
0100
0001
0010
0001
,  // measure 64
1000
0000
0100
0000
0000
1000
0000
0000
2002
0000
0000
0000
0000
0000
0000
0000
,  // measure 65
3000
0003
0000
0000
;

//---------------dance-single - Pandemonium X----------------
#NOTES:
     dance-single:
     Pandemonium X:
     Medium:
     4:
     0.168,0.219,0.136,0.121,0.038:
0000
0000
0000
0000
,
0000
0000
0000
0000
,
0000
0000
0000
0000
,
0000
0000
0000
0000
,
0000
0000
0000
0000
,
0000
0000
0000
0000
,
0000
0000
0000
0000
,
0000
0000
1010
0000
,
0010
0010
0000
0000
,
0000
0000
1100
0000
,
0100
1000
0100
1000
0000
0000
0000
0000
,
0000
0000
0011
0000
,
0001
0001
0000
0000
,
0000
0000
0101
0000
,
0001
0100
0001
0100
0000
0000
0000
0000
,
0000
0000
2002
3003
,
0000
0000
0000
0000
0000
0000
0001
0000
1000
0000
0000
0000
0000
0000
0000
0100
,
0000
0000
0000
0000
0000
0000
0000
0000
1000
0000
0000
0001
0000
0100
0000
0000
,
0000
0000
0001
0000
,
0000
0000
0000
0000
0000
0000
0000
0000
1000
0001
0000
0100
0000
0001
0000
0000
,
0000
0000
0000
0000
0000
0000
0001
0000
0001
0000
0000
0000
0000
0000
0000
0100
,
0000
0000
0000
0000
0000
0000
0000
0000
0010
0000
0000
0010
0000
1000
0000
0000
,
0000
0000
0000
0000
0000
0000
1000
0000
0001
0000
0000
0000
0000
0000
0000
1000
,
0000
0000
0002
0000
,
0000
0000
0000
0003
,
1000
0001
0200
0000
,
0000
0000
0300
0000
,
0100
0010
2000
0000
,
0000
0000
3000
0000
,
1000
0010
0200
0000
,
0000
0000
0300
0000
,
0010
1000
2002
0000
,
0000
0000
3003
0000
,
1000
0100
2200
0000
,
0000
0000
3300
0000
,
1000
0100
0022
0000
,
0000
0000
0033
0000
,
0001
0100
0202
0000
,
0000
0000
0303
0000
,
0000
0000
0000
0000
1000
0001
0000
0100
,
0000
0001
0000
0000
0000
0000
0000
0000
,
0000
0101
1100
0000
,
0000
0000
1000
0100
0000
0000
0000
0000
,
0000
0000
0000
0000
1000
0100
0000
1000
,
0000
0010
0000
0100
0000
0000
0000
0000
,
0000
0110
1001
0000
,
0000
0000
0001
1000
0000
0000
0000
0000
,
0000
0000
0000
0000
0001
0100
0000
0001
,
0000
0100
0000
0001
0000
0000
0000
0000
,
0000
0101
1100
0000
,
0000
0000
0100
1000
0000
0000
0000
0000
,
0000
0000
0000
0000
1000
0100
0000
1000
,
0000
0010
0000
0100
0000
0000
0000
0000
,
0000
0110
1001
0000
,
0000
0000
0001
0100
0000
0000
0000
0000
,
0000
0000
0001
0000
,
1000
0000
0001
0000
,
0001
0100
0010
0000
,
0010
0000
0010
0000
,
0010
1000
0001
0001
,
1000
1000
0001
0100
,
0010
0010
0100
0010
,
1000
0001
1000
0100
,
0010
0001
2002
0000
,
3000
0003
0000
0000
;

//---------------dance-single - Pandemonium X----------------
#NOTES:
     dance-single:
     Pandemonium X:
     Easy:
     2:
     0.104,0.219,0.030,0.091,0.000:
0000
0000
0000
0000
,
0000
0000
0000
0000
,
0000
0000
0000
0000
,
0000
0000
0000
0000
,
0000
0000
0000
0000
,
0000
0000
0000
0000
,
0000
0000
0000
0000
,
0000
0000
0001
0000
,
0001
0001
0000
0000
,
0000
0000
1000
0000
,
1000
1000
0000
0000
,
0000
0000
0010
0000
,
0100
0100
0100
0000
,
0000
0000
0010
0000
,
0010
0010
0010
0000
,
0000
0000
1001
0000
,
0000
0000
0001
0000
,
0000
0000
1000
0000
,
0000
0000
0010
0000
,
0100
0000
0010
0000
,
0000
0000
0001
0000
,
0000
0000
1000
0000
,
0000
0000
0001
0000
,
0100
0000
0020
0000
,
0000
0030
0000
0000
,
1000
0000
0200
0000
,
0000
0000
0300
0000
,
0010
0000
0002
0000
,
0000
0000
0003
0000
,
0001
0000
2000
0000
,
0000
0000
3000
0000
,
0000
0000
0020
0000
,
0000
0000
0030
0000
,
0100
0000
0020
0000
,
0000
0000
0030
0000
,
1000
0000
0200
0000
,
0000
0000
0300
0000
,
1000
0000
0002
0000
,
0000
0000
0003
0000
,
0000
0000
0001
0000
,
0000
0000
0000
0000
,
0000
1000
0001
0000
,
0000
0000
0000
0100
0000
0000
0000
0000
,
0000
0000
0000
0000
0010
0000
0000
0001
,
0000
0010
0000
0001
0000
0000
0000
0000
,
0000
0000
1001
0000
,
0000
0000
0000
0100
0000
0000
0000
0000
,
0000
0000
0110
0000
,
0000
0000
0000
0000
,
0010
1000
0100
0000
,
0000
0000
0000
1000
0000
0000
0000
0000
,
0000
0000
0100
1000
,
0010
0100
0010
0000
,
0000
1000
0001
0000
,
0000
0000
0000
0100
0000
0000
0000
0000
,
0000
0000
0002
0000
,
0000
0000
0003
0000
,
0000
0000
2000
0000
,
0000
0000
0000
0000
,
0000
3000
0010
0010
,
0100
0100
0010
1000
,
0001
0100
0001
0010
,
0001
0100
0010
1000
,
0100
1000
2020
0000
,
3000
0030
0000
0000
;

//---------------dance-single - Pandemonium X----------------
#NOTES:
     dance-single:
     Pandemonium X:
     Beginner:
     1:
     0.045,0.072,0.030,0.000,0.000:
0000
0000
0000
0000
,
0000
0000
0000
0000
,
0000
0000
0000
0000
,
0000
0000
0000
0000
,
0000
0000
0000
0000
,
0000
0000
0000
0000
,
0000
0000
0000
0000
,
0000
0000
0010
0000
,
0000
0000
0000
0000
,
0000
0000
1000
0000
,
0000
0000
0000
0000
,
0000
0000
0100
0000
,
0000
0000
0000
0000
,
0000
0000
0001
0000
,
0000
0000
0000
0000
,
0000
0000
0110
0000
,
0000
0000
0010
0000
,
0000
0000
1000
0000
,
0000
0000
0001
0000
,
0000
0000
0001
0000
,
0000
0000
1000
0000
,
0000
0000
0010
0000
,
0000
0000
0100
0000
,
0000
0000
1000
0000
,
0000
0000
0000
0000
,
0000
0000
0001
0000
,
0000
0000
0000
0000
,
0000
0000
0100
0000
,
0000
0000
0000
0000
,
0000
0000
0010
0000
,
0000
0000
0000
0000
,
0000
0000
1000
0000
,
0000
0000
0000
0000
,
0000
0000
0001
0000
,
0000
0000
0000
0000
,
0000
0000
0010
0000
,
0000
0000
0000
0000
,
0000
0000
0100
0000
,
0000
0000
0000
0000
,
0000
0000
1001
0000
,
0000
0000
0000
0000
,
0000
0000
1000
0000
,
0000
0000
0000
0000
,
0000
0000
0010
0000
,
0000
0000
0000
0000
,
0000
0000
0100
0000
,
0000
0000
0000
0000
,
0000
0000
0001
0000
,
0000
0000
0000
0000
,
0000
0000
0001
0000
,
0000
0000
0000
0000
,
0000
0000
1000
0000
,
0000
0000
0000
0000
,
0000
0000
0010
0000
,
0000
0000
0100
0000
,
0000
0000
1001
0000
,
0000
0000
0000
0000
,
0001
0000
0001
0000
,
0000
0000
0000
0000
,
1000
0000
1000
0000
,
0000
0000
0000
0000
,
0010
0000
0010
0000
,
0000
0000
0100
0000
,
0000
0000
1001
0000
;
