#TITLE:Sorry Sorry;
#SUBTITLE:;
#ARTIST:Super Junior;
#TITLETRANSLIT:;
#SUBTITLETRANSLIT:;
#ARTISTTRANSLIT:;
#CREDIT:;
#BANNER:;
#BACKGROUND:;
#LYRICSPATH:;
#CDTITLE:;
#MUSIC:Sorry Sorry.mp3;
#OFFSET:-0.553;
#SAMPLESTART:15.175;
#SAMPLELENGTH:11.980;
#SELECTABLE:YES;
#BPMS:0.000=130.000;
#STOPS:;
#BGCHANGES:;

//---------------dance-single - ----------------
#NOTES:
     dance-single:
     :
     Easy:
     3:
     0.267,0.292,0.133,0.000,0.000:
0000
0000
0000
0000
,
0000
0000
0000
0000
,
0000
0100
0000
0001
,
0000
0010
0000
1000
,
0001
0100
0010
1000
,
0001
0100
0010
1000
,
0001
0001
1000
1000
,
0010
0010
0100
0100
,
0001
1000
0001
1000
,
0100
0000
0100
0100
,
0010
0000
0001
0001
,
1000
0100
0010
1001
,
0001
0100
0001
0000
,
0010
1000
0010
0000
,
0001
0000
1000
1000
,
0001
0000
0100
1001
,
0100
0100
0010
0010
,
0100
0010
0100
0110
,
0001
0001
1000
1000
,
1001
0000
0000
0000
,
0001
0001
1000
1000
,
0001
1000
0001
1001
,
0010
0010
0100
0100
,
0110
0000
0000
0000
,
1000
0100
0100
0000
,
0001
0010
0010
0000
,
0001
0100
1000
0100
,
0010
0001
0010
1000
,
0001
0000
1000
1001
,
1000
0000
0001
1001
,
0100
0000
0001
0001
,
0010
0100
1000
1000
,
1000
1000
1000
1001
,
0001
0001
0001
1001
,
0010
0010
0010
0110
,
0100
0100
0100
0110
,
0001
0100
1000
0100
,
0010
0001
0010
1000
,
0001
0100
0010
1000
,
1000
0000
0100
0000
,
0001
0010
0001
0010
,
0100
0000
0100
1000
,
0001
0000
0100
1000
,
0001
1000
0100
0010
,
0100
0100
0010
0010
,
0001
0000
0010
0100
,
0100
0000
1000
0001
,
0001
0000
1000
0010
,
1001
0000
1000
0100
,
0000
0010
0000
0001
,
0000
0100
0000
1000
,
0000
1001
0000
0110
,
0001
0001
0100
0000
,
1000
1000
0010
0000
,
0010
0100
0010
0100
,
0001
0001
1000
1000
,
1000
0100
0100
0100
,
0001
0100
0100
0100
,
1000
0010
0010
0010
,
0001
0010
0010
0010
;

//---------------dance-single - ----------------
#NOTES:
     dance-single:
     :
     Hard:
     8:
     0.457,0.429,0.213,0.027,0.000:
0000
0000
0000
0000
,
0000
0000
0000
0000
,
1000
1000
0100
0000
0001
0001
0100
0000
,
0010
0100
1000
0000
0010
0100
0001
0000
,
0001
1001
0010
0110
,
1000
1100
0001
0101
,
1000
0010
0100
0001
,
0001
1000
0001
1000
0001
1000
0001
0000
,
1000
1000
0100
0100
,
0010
0001
0010
0001
0100
1000
0100
0000
,
0010
1000
0010
1000
0100
0001
0100
0000
,
1000
0100
1000
0100
0010
0001
0001
0000
,
0001
0001
1000
1000
,
0010
0100
0001
0010
1000
0100
0001
0000
,
0010
0100
1000
0100
0001
0010
1000
0000
,
0001
0100
0001
0100
0010
1000
1000
0000
,
0101
0000
1100
0000
0100
0000
0010
0100
,
0000
0001
0000
0010
0100
0000
1001
0000
,
1000
0000
1000
0000
0010
0000
0100
0010
,
0000
0002
0000
0000
1000
0000
1003
0000
,
0011
0000
1010
0000
0010
0000
0001
1000
,
0000
0100
0000
0010
0001
0000
1001
0000
,
0001
0000
0001
0000
1000
0000
0001
0010
,
0000
2000
0000
0000
0001
0000
3001
0000
,
1000
0100
0100
0100
0100
0100
0100
0010
,
0001
0100
0010
1000
0100
0010
0001
0000
,
1000
0000
0100
0000
0010
0001
0010
0000
,
0001
0100
0010
1000
0100
1000
0100
0000
,
0001
0100
0010
1000
0100
0000
1001
0000
,
1000
0100
0010
0001
0100
0010
1000
0001
,
0100
0100
0010
1000
0001
0100
0010
0000
,
1000
0100
0010
0001
,
0001
0101
1000
1100
,
0010
0001
0010
0001
1000
0100
1000
0000
,
1000
1100
0001
0101
,
0010
1000
0010
1000
0001
0100
0001
0000
,
0001
1001
0010
0110
,
1000
0001
1000
0001
0100
0010
0100
0000
,
0010
0110
1000
1001
,
0001
0001
0100
0000
0010
1000
0100
0000
,
0001
1000
0010
0100
,
0010
0001
0010
0001
0100
1000
0100
0000
,
0010
1000
0010
1000
0100
0001
0100
0000
,
1000
0100
1000
0100
0010
0001
0001
0000
,
0001
0001
1000
1000
,
0010
0100
0001
0010
1000
0100
0001
0000
,
0010
0100
1000
0100
0001
0010
1000
0000
,
0001
0100
0001
0100
0010
1000
1000
0000
,
0001
0000
0001
0000
0001
0001
0001
0000
,
1000
0000
1000
0000
1000
1000
1000
0000
,
0100
0010
0001
0000
0100
0010
1000
0000
,
0100
0010
0001
0100
0010
1000
1001
0000
,
1000
0100
1000
0000
0010
0001
0010
0000
,
0001
0100
0001
0000
0010
1000
0010
0000
,
1100
0101
0011
1010
,
0100
0010
0100
0010
0100
0010
0100
0000
,
0001
0000
0100
0000
0001
0001
0100
0000
,
0010
0010
1000
0100
0010
0010
0001
0000
,
1000
1000
0100
0010
0001
0001
0100
0000
,
0001
0100
0001
0100
0010
1000
0010
0200
,
0000
0300
0000
0000
;

//---------------dance-single - ----------------
#NOTES:
     dance-single:
     :
     Challenge:
     9:
     0.550,0.589,0.445,0.027,0.080:
0000
0000
0000
0000
,
0000
0000
0000
0000
,
0010
1000
0100
0000
0010
0001
0100
0000
,
0001
1000
0100
0000
0001
1000
0010
0000
,
0001
0100
0001
0100
0001
0000
0000
0000
0010
1000
0010
1000
0010
0000
0000
0000
,
0001
0010
0001
0010
0001
0000
0000
0000
1000
0100
1000
0100
1000
0000
0000
0000
,
1001
0110
1100
0011
,
0001
1000
1100
0011
0001
1000
0101
1010
,
0100
0010
0001
1000
,
0010
0100
0001
1000
0010
0100
0001
1000
,
0100
0010
0001
0100
0010
1000
0100
0010
,
0001
0001
1000
1000
0010
0100
1001
0000
,
0010
0100
0001
1000
,
0001
0100
0001
0100
0010
1000
0010
1000
,
0001
0100
0010
1000
0001
0100
0010
1000
,
0100
0010
0001
1000
0010
0100
1001
0000
,
1001
0000
0101
0000
1010
0000
0010
0100
,
0000
0001
0000
0010
1000
1000
1000
0000
,
0110
0000
1100
0000
0011
0000
0001
1000
,
0000
0200
0000
0000
0001
0010
0310
0000
,
1100
0000
0011
0000
0101
0000
0010
1000
,
0000
0100
0000
0010
0001
0100
0100
0000
,
0101
0000
1010
0000
1100
0000
0010
0001
,
0000
2000
0000
0000
0100
0001
3001
0000
,
1000
0001
0001
0001
0001
0001
0001
0100
,
0010
1000
0100
0100
0010
0101
1100
0000
,
0010
0000
1000
0001
1000
0000
0010
0000
1000
0000
0100
0000
0010
0000
0000
0000
,
0001
1000
0001
1000
0010
0100
1001
0000
,
0001
0100
0001
0100
0010
1000
0100
0100
,
1000
0100
1000
0100
0010
0001
0100
0100
,
0010
1000
0001
1000
0010
0000
0100
0000
,
0001
0000
0100
0001
0100
0000
0010
0000
1000
0000
0100
0000
0100
0000
0100
0000
,
0010
0011
0100
1100
,
0010
0000
0101
0000
0010
1000
1010
0000
,
0100
0101
0010
1010
,
0100
0000
1100
0000
0010
0001
0011
0000
,
1000
0100
1000
0000
0010
0001
0010
0000
,
0010
0001
0101
0010
1000
1100
0010
0000
,
0001
0100
0001
0000
0010
1000
0010
0000
,
1000
1000
0001
0001
0010
0100
1001
0110
,
0100
0010
0001
1000
,
0010
0100
0001
1000
0010
0100
0001
1000
,
0100
0010
0001
0100
0010
1000
0100
0010
,
0001
0001
1000
1000
0010
0100
1001
0000
,
0010
0100
0001
1000
,
0001
0100
0001
0100
0010
1000
0010
1000
,
0001
0100
0010
1000
0001
0100
0010
1000
,
0100
0010
0001
1000
0010
0100
1001
0000
,
1000
0000
1000
0100
0010
0000
0001
0100
,
0010
0000
0010
1000
0001
0100
0010
0000
,
0001
0001
1001
0000
1000
1000
1001
0000
,
0010
0100
0101
0000
0010
0100
1010
0000
,
1000
0001
0100
0001
1000
0000
0000
0000
0001
1000
0010
1000
0001
0000
0000
0000
,
0010
1000
0100
1000
0010
0000
0000
0000
0100
0001
0010
0001
0100
0000
0000
0000
,
0010
1001
0100
1001
,
0010
0100
0011
1100
0010
0100
1010
0101
,
1000
0000
1000
0000
0010
0001
0001
0000
,
0001
0100
0010
1000
0100
0010
1001
0000
,
1000
0100
1000
0100
0010
0001
0010
0001
,
0100
0001
0010
1000
0100
0001
0010
2000
,
0000
3000
0000
0000
;

//---------------dance-single - ----------------
#NOTES:
     dance-single:
     :
     Medium:
     5:
     0.351,0.319,0.116,0.000,0.000:
0000
0000
0000
0000
,
0000
0000
0000
0000
,
1000
0100
0001
0100
,
0010
1000
0010
0001
,
1000
0100
1000
0000
0001
0000
0001
0000
,
0001
0100
0001
0000
1000
0000
1000
0000
,
0010
0100
0010
0100
,
0001
0000
0001
0000
1000
0001
1000
0000
,
0100
0100
0010
0010
,
0001
0000
0100
0000
0001
0100
0001
0000
,
1000
0000
0100
0000
1000
0100
1000
0000
,
0010
0000
0001
0000
0100
0100
0100
0000
,
1000
1000
0001
0001
,
0010
0000
0100
0000
0010
0100
0010
0000
,
0100
0000
0010
0000
0100
0010
0100
0000
,
0001
0000
1000
0000
0001
0001
0001
0000
,
0001
0101
0001
0001
,
1000
1010
1000
1000
,
0001
0011
0001
0001
,
1000
1100
1000
1000
,
0010
0001
0100
1001
,
0010
1000
0100
1001
,
0001
1000
0100
1000
,
0010
0001
1000
1001
,
1000
1000
1000
0000
0001
0001
0001
0000
,
0100
0000
0010
0000
0100
0010
0100
0000
,
0001
0100
0001
0100
,
0010
1000
0010
1000
,
0001
0000
0100
0000
0010
1000
0010
0000
,
1000
0000
0100
0000
0010
0001
0010
0000
,
0001
0100
0010
1000
,
0001
0001
1000
1000
,
0001
0001
1001
1001
,
1000
0000
1000
0000
0010
0001
0010
0000
,
1000
0001
1001
1001
,
0010
0000
1000
0000
0100
0001
0100
0000
,
1000
0100
0010
0001
,
0100
0000
0010
0000
0001
1000
0001
0000
,
0001
0100
0010
1000
,
0001
0100
1000
0010
,
0100
0100
0010
0010
,
0001
0000
0100
0000
0001
0100
0001
0000
,
1000
0000
0100
0000
1000
0100
1000
0000
,
0010
0000
0001
0000
0100
0100
0100
0000
,
1000
1000
0001
0001
,
0010
0000
0100
0000
0010
0100
0010
0000
,
0100
0000
0010
0000
0100
0010
0100
0000
,
0001
0000
1000
0000
0001
0001
0001
0000
,
1000
0000
1000
0000
0001
0100
0001
0000
,
0001
0000
0001
0000
0010
1000
0010
0000
,
1000
0000
1000
0000
0010
0001
0010
0000
,
0001
0000
0001
0000
1000
0100
1000
0000
,
0001
0100
1000
1000
,
1000
0010
0001
0001
,
0001
1001
1000
1001
,
0010
0100
0010
0000
0100
0000
0100
0000
,
0001
0001
0010
1000
,
0001
0000
1000
0000
0001
1000
0001
0000
,
0100
0010
1000
0001
,
0100
0000
0001
0000
0100
0001
0100
0001
;

//---------------dance-single - ----------------
#NOTES:
     dance-single:
     :
     Beginner:
     1:
     0.138,0.133,0.027,0.000,0.000: // measure 1
0000
0000
0000
0000
,  // measure 2
0000
0000
0000
0000
,  // measure 3
0000
0100
0000
0100
,  // measure 4
0000
0100
0000
0100
,  // measure 5
0000
0001
0000
0001
,  // measure 6
0000
0001
0000
0001
,  // measure 7
0000
1000
0000
1000
,  // measure 8
0000
1000
0000
0000
,  // measure 9
1000
0000
1000
0000
,  // measure 10
0010
0000
0010
0000
,  // measure 11
0001
0000
0001
0000
,  // measure 12
0100
0000
0100
0000
,  // measure 13
0100
0000
0100
0000
,  // measure 14
0001
0000
0001
0000
,  // measure 15
0010
0000
0010
0000
,  // measure 16
1000
0000
1000
0000
,  // measure 17
0001
0000
0000
0000
,  // measure 18
1001
0000
0000
0000
,  // measure 19
1000
0000
0000
0000
,  // measure 20
1001
0000
0000
0000
,  // measure 21
0010
0000
0000
0000
,  // measure 22
0100
0000
0000
0000
,  // measure 23
0010
0000
0000
0000
,  // measure 24
0100
0000
0000
0000
,  // measure 25
1000
0000
1000
0000
,  // measure 26
0001
0000
0001
0000
,  // measure 27
0010
0000
0010
0000
,  // measure 28
0100
0000
0100
0000
,  // measure 29
0001
0001
0000
0000
,  // measure 30
1000
1000
0000
0000
,  // measure 31
0010
0010
0000
0000
,  // measure 32
1001
0000
0000
0000
,  // measure 33
0001
0000
0001
0000
,  // measure 34
0100
0000
0100
0000
,  // measure 35
0010
0000
0010
0000
,  // measure 36
1000
0000
1000
0000
,  // measure 37
0001
0000
0100
0000
,  // measure 38
0100
0000
0001
0000
,  // measure 39
1000
0000
0010
0000
,  // measure 40
0010
0000
1000
0000
,  // measure 41
0001
0000
0001
0000
,  // measure 42
0010
0000
0010
0000
,  // measure 43
0100
0000
0100
0000
,  // measure 44
1000
0000
1000
0000
,  // measure 45
1000
0000
1000
0000
,  // measure 46
0100
0000
0100
0000
,  // measure 47
0010
0000
0010
0000
,  // measure 48
0001
0000
0001
0000
,  // measure 49
1000
0000
0001
0000
,  // measure 50
0000
1000
0000
0100
,  // measure 51
0000
0010
0000
0001
,  // measure 52
0000
0000
0001
0000
,  // measure 53
1000
1000
0000
0000
,  // measure 54
0010
0010
0000
0000
,  // measure 55
0100
0000
0010
0000
,  // measure 56
0001
0000
1000
0000
,  // measure 57
0001
0000
0001
0000
,  // measure 58
1000
0000
1000
0000
,  // measure 59
0010
0000
0010
0000
,  // measure 60
0100
0000
0100
0100
;
