#TITLE:Scream;
#SUBTITLE:;
#ARTIST:BoA;
#TITLETRANSLIT:;
#SUBTITLETRANSLIT:;
#ARTISTTRANSLIT:;
#GENRE:;
#CREDIT:;
#BANNER:;
#BACKGROUND:;
#LYRICSPATH:;
#CDTITLE:;
#MUSIC:Scream.mp3;
#OFFSET:-5.580;
#SAMPLESTART:45.360;
#SAMPLELENGTH:12.000;
#SELECTABLE:YES;
#BPMS:0.000=119.010;
#STOPS:;
#BGCHANGES:;
#KEYSOUNDS:;

//---------------dance-single - Blank----------------
#NOTES:
     dance-single:
     Blank:
     Hard:
     8:
     0.453,0.615,0.421,0.214,0.081,343.000,57.000,29.000,0.000,0.000,0.000,0.453,0.615,0.421,0.214,0.081,343.000,57.000,29.000,0.000,0.000,0.000: // measure 1
0000
0000
0000
0000
,  // measure 2
0000
0000
0000
0000
,  // measure 3
0000
0000
0000
0000
,  // measure 4
0000
0000
0000
0000
,  // measure 5
0001
1000
0001
0000
0000
0000
0000
0000
0000
0000
0000
0000
0000
0000
0000
0000
,  // measure 6
0100
0010
0100
0000
0000
0000
0000
0000
0000
0000
0000
0000
0000
0000
0000
0000
,  // measure 7
0001
0000
0010
0100
0000
0000
0000
0000
0000
0000
0000
0000
1000
0000
0001
0000
,  // measure 8
0100
0010
0100
1000
0100
0001
1001
0000
,  // measure 9
0001
0010
0000
0100
1000
0000
0000
2002
,  // measure 10
0000
0000
3003
0100
0010
1000
0001
0000
,  // measure 11
0010
0100
0000
1000
0001
0000
0000
2200
,  // measure 12
0000
0000
3300
0001
0100
0010
0100
0000
,  // measure 13
0001
0010
0000
0100
1000
0000
0000
0022
,  // measure 14
0000
0000
0033
0100
0010
1000
0001
0000
,  // measure 15
0010
0100
0000
1000
0001
0000
0000
2020
,  // measure 16
0000
0000
3030
0100
0001
0010
0100
0000
,  // measure 17
0011
0000
0000
0000
1100
0000
0001
0100
0001
0000
1000
0100
1000
0000
0010
0000
,  // measure 18
0011
0000
0000
0000
1010
0000
0100
0000
1100
0000
0100
0000
0022
0000
0000
0033
,  // measure 19
0101
0000
0000
0000
1001
0000
1000
0100
1000
0000
0001
0100
0001
0000
1000
0000
,  // measure 20
0001
0100
0001
1000
0100
0010
1000
0010
0001
1000
0010
0000
2002
0000
0000
3003
,  // measure 21
0110
0000
0100
0001
0010
0100
1000
0001
,  // measure 22
0000
0100
0010
1000
0000
0011
0000
1010
,  // measure 23
0000
0100
0001
0010
0100
0010
0001
1000
,  // measure 24
0010
1000
0001
0200
0000
0300
0011
0000
,  // measure 25
1010
0100
0001
0010
0100
1000
0001
0100
,  // measure 26
0000
0001
0010
0100
0000
0011
0000
1010
,  // measure 27
0000
0100
0001
0010
0001
1000
0010
0100
,  // measure 28
0000
0010
1000
0100
0000
0011
0000
1100
,  // measure 29
0001
0101
1000
1100
,  // measure 30
0001
0000
0000
0000
1001
0000
0000
0000
0100
0001
0010
0000
1000
0000
0000
0000
,  // measure 31
0010
0001
0000
1000
0010
0000
0000
0202
,  // measure 32
0000
0000
0303
1000
0010
1000
0100
0000
,  // measure 33
0010
0001
0000
1000
0010
0000
0000
2200
,  // measure 34
0000
0000
0000
0000
3300
0000
0002
0000
0010
0000
0100
0000
2000
0000
0000
3003
,  // measure 35
0100
0001
0000
0010
0100
0000
0000
0022
,  // measure 36
0000
0000
0033
1000
0010
0100
0001
0000
,  // measure 37
1000
0100
0000
0010
0100
0000
0000
0022
,  // measure 38
0000
0000
0033
1000
0010
0100
0001
1000
,  // measure 39
1100
0000
0000
0000
0011
0000
0100
0001
0100
0000
0010
1000
0010
0000
0100
0000
,  // measure 40
0011
0000
0000
0000
1010
0000
0100
0000
0011
0000
1000
0000
0022
0000
0000
0033
,  // measure 41
1010
0000
0000
0000
0101
0000
1000
0100
1000
0000
0001
0100
0001
0000
0010
0000
,  // measure 42
0100
1000
0100
0010
1000
0010
0001
0100
0010
0001
0010
0000
1010
0000
0000
0000
,  // measure 43
1100
0010
0001
0100
0010
1000
0001
0010
,  // measure 44
0000
0100
1000
0010
0000
0101
0000
1100
,  // measure 45
0000
0001
0010
0100
0010
0001
1000
0010
,  // measure 46
1000
0001
0010
0100
0000
0000
0011
0000
,  // measure 47
1010
0100
0001
0010
0001
1000
0010
0100
,  // measure 48
0000
0001
0010
0100
0000
0011
0000
1010
,  // measure 49
0000
0100
0001
0010
0001
1000
0010
0100
,  // measure 50
0000
0010
1000
0100
0000
0011
1001
0000
,  // measure 51
0110
0100
0001
0010
0100
1000
0001
0100
,  // measure 52
0000
0010
1000
0100
0000
0011
0000
1010
,  // measure 53
0000
0100
0001
0010
0001
1000
0010
0100
,  // measure 54
0010
1000
0100
0001
0000
0000
1010
0000
,  // measure 55
0011
0100
0010
1000
0001
0010
0100
0010
,  // measure 56
0000
0001
0100
0010
0000
1010
0000
0101
,  // measure 57
0000
0001
0010
0100
0010
0001
1000
0010
,  // measure 58
0000
0100
0001
0010
0000
0011
0000
1100
,  // measure 59
0001
0100
0000
0010
1000
0000
0100
0000
,  // measure 60
1000
0001
0000
0100
0010
1000
0001
0010
,  // measure 61
0100
1000
0000
0001
0100
0000
0010
0000
,  // measure 62
2000
0000
0000
3002
0000
0000
0023
0000
,  // measure 63
0000
0200
0000
0000
0000
0000
0000
0000
,  // measure 64
0000
0000
0000
0000
,  // measure 65
0330
0000
0000
0000
;

//---------------dance-single - Blank----------------
#NOTES:
     dance-single:
     Blank:
     Medium:
     6:
     0.284,0.331,0.266,0.104,0.000,219.000,36.000,14.000,0.000,0.000,0.000,0.284,0.331,0.266,0.104,0.000,219.000,36.000,14.000,0.000,0.000,0.000: // measure 1
0000
0000
0000
0000
,  // measure 2
0000
0000
0000
0000
,  // measure 3
0000
0000
0000
0000
,  // measure 4
0000
0000
0000
0000
,  // measure 5
0000
0000
0000
0000
,  // measure 6
0000
0000
0000
0000
,  // measure 7
0000
0000
0000
0000
,  // measure 8
0000
0000
0000
0000
,  // measure 9
0010
0100
0000
0001
1000
0000
0000
0200
,  // measure 10
0000
0000
0000
0300
0010
0001
1000
0000
,  // measure 11
0010
0100
0000
0001
0010
0000
0000
0200
,  // measure 12
0000
0000
0000
0300
1000
0001
1000
0000
,  // measure 13
0010
0100
0000
0001
1000
0000
0000
0200
,  // measure 14
0000
0000
0000
0300
0010
0001
1000
0000
,  // measure 15
0010
0100
0000
0001
0010
0000
0000
0200
,  // measure 16
0000
0000
0000
0300
1000
0001
1000
0000
,  // measure 17
0101
1100
0000
0000
,  // measure 18
1010
0101
0000
0000
,  // measure 19
0011
1010
0000
0000
,  // measure 20
0100
0001
0010
0100
1000
0000
0011
0000
,  // measure 21
1100
0000
0001
0100
1000
0000
0100
0001
,  // measure 22
0000
1000
0100
1000
0000
0011
0000
1010
,  // measure 23
0000
0100
0001
0000
0010
0100
1000
0000
,  // measure 24
0001
0000
1000
0001
0000
0000
1010
0000
,  // measure 25
0011
0000
0100
1000
0010
0000
0100
0001
,  // measure 26
0000
0010
0100
1000
0000
0011
0000
1010
,  // measure 27
0000
0100
0001
0000
1000
0100
1000
0000
,  // measure 28
0010
0000
0100
0001
0000
1000
0000
1000
,  // measure 29
0000
0100
0000
0010
,  // measure 30
0000
0100
0000
1000
,  // measure 31
0001
0100
0000
0010
1000
0000
0000
0200
,  // measure 32
0000
0000
0000
0300
0010
0001
1000
0000
,  // measure 33
0010
0100
0000
0001
0010
0000
0000
0002
,  // measure 34
0000
0000
0000
0000
0000
0000
0003
0000
2000
0000
0001
0000
0200
0000
0000
3300
,  // measure 35
0001
0100
0000
0010
1000
0000
0000
0002
,  // measure 36
0000
0000
0000
0003
1000
0010
0100
0000
,  // measure 37
0001
0010
0000
0100
1000
0000
0000
0002
,  // measure 38
0000
0000
0000
0003
1000
0010
1000
0000
,  // measure 39
0011
0101
0000
0000
,  // measure 40
1010
1001
0000
0000
,  // measure 41
0101
1100
0000
0000
,  // measure 42
0010
0100
0001
1000
0010
0000
0011
0000
,  // measure 43
1100
0000
0001
0100
0010
0000
1000
0100
,  // measure 44
0000
0010
0001
0100
0000
1010
0000
0011
,  // measure 45
0000
0100
1000
0000
0010
0100
0001
0000
,  // measure 46
1000
0000
0100
0010
0000
0000
0011
0000
,  // measure 47
1010
0000
0100
0001
0010
0000
0001
0100
,  // measure 48
0000
0010
1000
0001
0000
0011
0000
1010
,  // measure 49
0000
0100
0001
0000
0010
0100
1000
0000
,  // measure 50
0001
0000
1000
0010
0000
0000
1001
0000
,  // measure 51
1100
0000
0010
0001
0100
0000
0010
1000
,  // measure 52
0000
0001
0010
0100
0000
0011
0000
1100
,  // measure 53
0000
0001
0100
0000
0010
1000
0100
0000
,  // measure 54
1000
0000
0001
0100
0000
0000
1010
0000
,  // measure 55
0101
0000
1000
0100
0010
0000
0001
0010
,  // measure 56
0000
0001
0100
0010
0000
1010
0000
1100
,  // measure 57
0000
0010
0001
0000
1000
0001
0100
0000
,  // measure 58
0010
0000
1000
0100
0000
0010
0000
0001
,  // measure 59
1000
0000
0000
0000
,  // measure 60
0000
0000
0000
0000
,  // measure 61
0000
0000
0000
0000
,  // measure 62
0002
0000
0000
2003
0000
0000
3200
0000
,  // measure 63
0000
0302
0000
0000
0000
0000
0000
0000
,  // measure 64
0000
0000
0000
0000
,  // measure 65
0003
0000
0000
0000
;

//---------------dance-single - Blank----------------
#NOTES:
     dance-single:
     Blank:
     Easy:
     4:
     0.222,0.260,0.148,0.163,0.000,168.000,20.000,22.000,0.000,0.000,0.000,0.222,0.260,0.148,0.163,0.000,168.000,20.000,22.000,0.000,0.000,0.000: // measure 1
0000
0000
0000
0000
,  // measure 2
0000
0000
0000
0000
,  // measure 3
0000
0000
0000
0000
,  // measure 4
0000
0000
0000
0000
,  // measure 5
0000
0000
0000
0000
,  // measure 6
0000
0000
0000
0000
,  // measure 7
0000
0000
0000
0000
,  // measure 8
0000
0000
0000
0000
,  // measure 9
0010
0000
0100
1002
,  // measure 10
0200
0303
0010
1000
,  // measure 11
0001
0000
0010
2100
,  // measure 12
0002
3003
0010
0100
,  // measure 13
0001
0000
1000
0120
,  // measure 14
2000
3030
0100
0001
,  // measure 15
0010
0000
0001
2001
,  // measure 16
0020
3030
0001
0010
,  // measure 17
0001
0001
0000
0000
,  // measure 18
0010
0100
0000
0000
,  // measure 19
0010
0010
0000
0000
,  // measure 20
0001
1000
0010
0100
,  // measure 21
1001
0000
0010
0000
0001
0000
0000
0100
,  // measure 22
0000
0000
0010
1000
0000
0001
0000
0001
,  // measure 23
0000
0010
0100
1000
,  // measure 24
0001
0100
0010
1010
,  // measure 25
0101
0000
1000
0000
0100
0000
0000
0010
,  // measure 26
0000
0000
0100
1000
0000
0001
0000
0010
,  // measure 27
0000
0001
1000
0010
,  // measure 28
0100
0000
0001
0000
0000
1000
0000
0100
,  // measure 29
0000
0010
0000
0100
,  // measure 30
0000
1000
0000
0010
,  // measure 31
0100
0000
0001
0012
,  // measure 32
0200
0303
0010
1000
,  // measure 33
0100
0000
0010
0102
,  // measure 34
2000
3003
0020
0230
,  // measure 35
0301
0000
1000
2100
,  // measure 36
0020
3030
0001
0100
,  // measure 37
0001
0000
0010
1200
,  // measure 38
0002
0303
1000
0010
,  // measure 39
0100
0100
0000
0000
,  // measure 40
0001
0010
0000
0000
,  // measure 41
0100
0100
0000
0000
,  // measure 42
1000
0001
0100
0010
,  // measure 43
1001
0000
0010
0000
1000
0000
0000
0100
,  // measure 44
0000
0000
0010
0001
0000
1000
0000
1000
,  // measure 45
0000
0010
0100
0001
,  // measure 46
0010
0001
1000
1010
,  // measure 47
0101
0000
0010
0000
0100
0000
0000
0010
,  // measure 48
0000
0000
0001
0100
0000
0010
0000
0010
,  // measure 49
0000
1000
0001
0010
,  // measure 50
0100
0010
0001
1010
,  // measure 51
1100
0000
0001
0000
0100
0000
0100
0010
,  // measure 52
0000
0000
1000
0001
0000
0010
0000
0010
,  // measure 53
0000
0001
1000
0010
,  // measure 54
0100
0010
1000
0011
,  // measure 55
1100
0000
0001
0000
0100
0000
0100
0010
,  // measure 56
0000
0000
1000
0100
0000
0010
0000
0010
,  // measure 57
0000
0001
1000
0001
,  // measure 58
0100
0000
0010
0000
0000
1010
0000
0101
,  // measure 59
0000
0000
0000
0000
,  // measure 60
0000
0000
0000
0000
,  // measure 61
0000
0000
0000
0000
,  // measure 62
0020
0000
0000
0230
0000
0000
0320
0000
,  // measure 63
0000
0032
0000
0000
0000
0000
0000
0000
,  // measure 64
0000
0000
0000
0000
,  // measure 65
0003
0000
0000
0000
;
