#TITLE:Our Velocity;
#SUBTITLE:;
#ARTIST:Maxïmo Park;
#TITLETRANSLIT:;
#SUBTITLETRANSLIT:;
#ARTISTTRANSLIT:;
#CREDIT:;
#BANNER:;
#BACKGROUND:;
#LYRICSPATH:;
#CDTITLE:;
#MUSIC:Our Velocity.mp3;
#OFFSET:-5.040;
#SAMPLESTART:45.000;
#SAMPLELENGTH:15.000;
#SELECTABLE:YES;
#BPMS:0.000=192.000;
#STOPS:;
#BGCHANGES:;

//---------------dance-single - ----------------
#NOTES:
     dance-single:
     :
     Hard:
     8:
     0.640,0.644,0.278,0.118,0.000:
1000
0000
0001
0000
0100
0010
0100
0000
,
0001
1000
0001
1000
,
0100
0000
0010
0000
0100
0010
0100
0000
,
0010
0000
0001
0000
1000
0001
1000
0001
,
0100
0000
0010
0000
1000
0001
1000
0000
,
0001
0000
1000
0000
0100
0000
0010
0001
,
1000
0000
0010
1000
0000
1000
0001
0000
,
2000
0010
0001
3100
,
0022
0000
0033
0000
1000
0001
1000
0001
,
0100
0000
0010
0000
1000
0000
0001
0100
,
0001
0000
1000
0010
0000
0010
1000
0000
,
0001
0000
1000
0000
0010
0100
0010
0100
,
0001
0000
1000
0000
0100
0010
0100
1000
,
0010
0000
0100
0000
0010
0000
1000
0001
,
1000
0000
0001
0000
0100
0010
0100
0001
,
1000
0000
0010
0000
1000
0100
0010
0001
,
1000
0000
0001
0000
0100
0000
0010
0200
,
0000
0301
1000
0100
,
0010
0000
0001
0000
1000
0000
0001
2000
,
0000
3001
0100
0010
,
1000
0000
0001
0100
0000
0001
0000
0200
,
0000
0301
0100
0001
,
1000
0100
0000
0010
0000
0100
0000
0010
,
0000
0000
0100
0000
0010
0001
0001
0001
,
1000
0000
0001
1000
0000
0001
0000
0100
,
0000
0010
0000
0100
0001
0100
0001
1000
,
0100
0000
0010
0000
0001
0000
1000
0010
,
0000
0010
1000
0000
0001
0100
0001
0100
,
0001
0000
1000
0000
0100
0000
0010
0001
,
0000
0001
1000
0000
0010
0100
0001
1000
,
0001
0000
1000
0100
0000
0011
0000
1001
,
0000
0000
0110
0000
0001
1000
0010
1000
,
0100
0000
0010
0100
1000
0000
0010
0100
,
0000
0100
0001
0000
1010
0000
1001
0000
,
0001
0000
1000
0100
1000
0000
0001
0010
,
0000
0010
0100
0000
0110
0000
1001
0000
,
1000
0000
0010
0100
0001
0000
1000
0001
,
0000
1000
0001
0100
0010
0000
1010
0000
,
1001
0000
0001
1000
0100
0000
0010
0100
,
0000
1000
0100
0000
0010
0000
0001
1000
,
0001
0000
1000
0010
1000
0000
0001
0100
,
0000
0100
0001
1000
0100
0000
0010
0000
,
0001
0000
1000
0000
0010
0000
0100
0001
,
0000
0001
1000
0001
1000
0000
0110
0000
,
1001
0000
0001
0100
0001
0100
0010
1000
,
0010
0000
1000
0100
1000
0100
0010
0001
,
0010
0000
0001
0100
0010
0100
0001
1000
,
0001
0000
1000
0001
1000
0000
0110
0000
,
1001
0000
1000
0001
1000
0100
0010
0100
,
0000
0100
1000
0000
0001
1000
0001
0000
,
1000
0000
0010
0100
0001
0010
0001
1000
,
0010
0000
0100
0001
0000
1001
0000
0110
,
0000
0000
1000
0010
0000
0010
1000
0000
,
0001
0000
0100
0000
0001
1000
0000
0001
,
1000
0000
0001
0000
1000
0100
0010
0001
,
0000
1000
0100
0000
0101
0000
1100
0000
,
1001
0000
0000
0001
0002
0000
0000
0010
,
0000
1000
0000
0100
0103
0000
1010
0000
,
0110
0000
0000
1000
2000
0000
0000
0010
,
0000
0001
0000
0100
3100
0000
0011
0000
,
2000
0000
0000
0001
3002
0000
0000
0100
,
0000
1000
0000
0010
0013
0000
1001
0000
,
2000
0000
0000
0010
3020
0000
0000
0001
,
0000
0100
0000
1000
1030
0000
0101
0000
,
1001
0000
1000
0001
1000
0000
0010
0100
,
0000
0010
0100
0000
0001
0000
1000
0000
,
0100
0000
0010
0001
0010
0000
0001
1000
,
0000
1000
0001
0000
1000
0000
0010
0000
,
1000
0010
1000
0001
1000
0000
0001
0010
,
0000
0010
0001
0000
1000
1000
1000
0000
,
0001
0100
0010
0100
0010
0000
0010
1000
,
0000
1000
0001
0000
0100
0100
0100
0000
,
0010
0100
0001
0100
0010
0100
0001
0100
,
0010
1000
0001
1000
0100
0100
0100
0000
,
0010
0001
1000
0100
0010
0001
1000
0010
,
0100
0001
1000
0001
1000
0010
1000
0010
,
0100
0001
1000
0100
0010
0001
1000
0010
,
1000
0001
0010
0100
0010
0001
1000
0010
,
0100
0001
1000
0001
1000
0010
0100
0010
,
0100
0001
0100
0001
1000
0000
0001
0000
,
2002
0000
3003
0000
1000
0100
1000
0001
,
0000
0100
0001
0100
0000
0010
1000
0000
,
0001
0000
1000
0000
0100
0010
0001
1000
,
0000
0001
1000
0010
0100
0010
1000
0001
,
0101
0000
0001
1000
0001
0000
1000
0100
,
0000
0100
0010
0000
0110
0000
1001
0000
,
1000
0010
1000
0000
0001
0000
1000
0001
,
0000
0001
0100
0000
0110
0000
1001
0000
,
0001
0010
0001
1000
0100
0000
1000
0100
,
0000
0010
0001
0100
0010
0000
0110
0000
,
1001
0000
0000
0000
;

//---------------dance-single - ----------------
#NOTES:
     dance-single:
     :
     Medium:
     7:
     0.507,0.530,0.093,0.059,0.000:
1000
0000
0001
0000
0100
0000
0010
1000
,
0010
1000
0001
0010
,
0001
0000
0100
0000
0010
0000
1000
0100
,
1000
0001
1000
0010
,
0100
0000
0000
0000
0000
0010
1000
0010
,
1000
0000
0000
0000
0000
0001
1000
0001
,
1000
0000
0000
0001
0000
0000
0100
0000
,
0010
1000
0100
0010
,
0001
0000
0000
0000
0000
1000
0001
1000
,
0001
0000
0000
0000
0000
0001
0100
0001
,
0100
0000
0010
1000
0000
1000
0010
0000
,
1000
0000
0001
0000
1000
0001
1000
0000
,
0001
0000
1000
0000
0100
0010
0100
0000
,
1000
0010
0100
0001
,
1000
0000
0010
0000
0100
0001
0100
0000
,
0001
1000
0100
0010
,
0001
0000
1000
0000
0010
0000
0100
0001
,
0000
1000
0001
1000
,
0100
0000
0010
0000
0100
0000
1000
0100
,
0000
0010
0001
1000
,
0010
0000
0100
0000
0001
0000
1000
0001
,
0000
1000
0010
0100
,
0001
0100
0000
0001
0000
1000
0000
1001
,
0000
0000
0000
0000
0000
1000
0001
1000
,
0001
1000
0100
1000
,
0010
0000
0100
0000
0001
0100
0001
0000
,
1000
0100
0001
0100
,
1000
0000
0010
0000
0100
0010
0100
0000
,
0001
1000
0100
0010
,
0001
0000
1000
0000
0010
1000
0010
1000
,
0000
0001
0000
0100
0000
0001
0000
1001
,
0000
0000
0000
0000
0100
0010
0100
0010
,
0100
0000
0010
0001
0010
0000
0000
0001
,
0000
1000
0010
0000
0100
0000
0001
0000
,
1000
0000
0001
0000
1000
0000
0100
0010
,
0000
0010
0100
0000
0010
0000
0001
0000
,
1001
0000
0000
1000
0010
0000
0000
0100
,
0001
0000
1000
0001
1000
0000
0001
0000
,
1000
0000
0000
0001
0010
0000
0000
0100
,
0000
1000
0000
0100
0010
0100
0010
0001
,
0010
0000
0001
1000
0001
0000
0000
1000
,
0000
0010
0100
0000
0001
0000
1000
0000
,
0200
0000
0010
0000
,
1300
0000
1000
0001
1000
0000
0001
0000
,
0101
0100
0010
0100
,
0001
0100
1000
0100
,
0010
1000
0010
0001
,
0010
0000
0100
0000
0001
0100
0000
0100
,
0001
0000
1000
0000
0100
1000
0100
0000
,
1000
0001
0010
0100
,
0010
0000
0001
0000
1000
0001
1000
0000
,
0001
0000
0100
0001
0000
1000
0000
0001
,
0100
0000
0010
0000
1000
0100
1000
0000
,
0001
0000
0010
0000
0001
1000
0000
1000
,
0001
0000
1000
0000
0010
0000
0100
0001
,
0000
0001
0100
0010
1000
0000
0010
0000
,
0110
0000
0000
0100
0020
0000
0000
1000
,
0000
1000
0000
1030
0010
0000
0100
0000
,
0001
0000
0000
0001
2000
0000
0000
0001
,
0000
0001
0000
3001
1000
0000
0010
0000
,
0200
0000
0000
0302
0000
0000
0000
1000
,
0000
1000
0000
1003
0001
0000
1000
0000
,
0020
0000
0000
0230
0000
0000
0000
0010
,
0000
0010
0000
0310
0100
0000
0010
0000
,
1010
0000
0000
1000
0001
0000
0000
1000
,
0000
0010
0000
0100
0001
0000
1000
0000
,
0100
0000
0000
0010
0001
0000
0000
1000
,
0000
0010
0000
0100
0001
0000
1000
0000
,
0001
0000
1000
0000
0010
0100
0010
0000
,
1000
0000
0001
0000
1000
1000
1000
0000
,
0010
0000
0100
0000
0001
0100
0001
0000
,
1000
0000
0100
0000
0010
0010
0010
0000
,
0100
0000
0010
0000
0001
0010
0001
0000
,
1000
0000
0010
0000
0100
0100
0100
0000
,
0010
1000
0010
0000
0100
0001
0100
0000
,
0001
0000
1000
0000
0100
0100
0100
0000
,
0010
0001
0010
0001
0000
1000
0000
0001
,
0000
0100
0001
0000
1000
0000
0010
0000
,
0100
0010
0100
0010
0000
1000
0000
0001
,
0000
1000
0100
0000
0011
0000
1001
0000
,
1010
0000
0010
0000
0100
0001
0100
0001
,
0000
0001
1000
0000
0100
1000
0100
0000
,
0010
0000
0001
0000
1000
0010
0100
0001
,
0000
0001
1000
0000
0001
0010
0001
0100
,
0010
0000
0000
0010
0100
0000
0000
0001
,
0000
0100
0000
0010
1000
0000
0001
0000
,
1000
0000
0000
0100
0010
0000
0000
0001
,
0000
0010
0000
0001
1000
0000
0001
0000
,
1000
0000
0010
1000
0010
0000
0100
0001
,
0100
0000
0001
1000
0001
0000
0110
0000
,
1001
0000
0000
0000
;

//---------------dance-single - ----------------
#NOTES:
     dance-single:
     :
     Beginner:
     2:
     0.206,0.265,0.042,0.000,0.000:
1000
0000
0001
0000
,
0100
0000
0000
0000
,
0010
0000
0100
0000
,
0001
0000
0000
0000
,
1000
0000
0000
0000
,
0010
0000
0000
0000
,
0100
0000
0010
0000
,
0100
0000
0000
0000
,
0010
0000
0000
0000
,
1000
0000
0000
0000
,
0001
0000
1000
0000
,
0001
0000
1000
0000
,
1001
0000
0001
0000
,
0100
0000
0000
0000
,
0001
0000
0100
0000
,
0001
0000
0000
0000
,
1000
0000
0100
0000
,
1000
0000
0000
0000
,
0001
0000
1000
0000
,
0001
0000
0000
0000
,
1000
0000
0010
0000
,
0100
0000
0000
0000
,
0001
0000
0010
0000
,
0100
0000
0000
0000
,
0010
0000
0001
0000
,
1000
0000
0001
0000
,
1000
0000
0010
0000
,
0100
0000
0000
0000
,
0001
0000
0100
0000
,
0010
0000
1000
0000
,
0100
0000
0010
0000
,
0001
0000
0000
0000
,
1001
0000
1000
0000
,
0001
0000
0100
0100
,
0100
0000
0010
0000
,
0100
0000
0001
0000
,
1000
0000
0100
0000
,
0010
0000
0001
0001
,
0001
0000
1000
0000
,
0001
0000
0100
0000
,
0110
0000
0010
0000
,
1000
0000
0001
0001
,
0001
0000
1000
0000
,
0100
0000
0010
0000
,
0110
0000
0100
0000
,
0010
0000
0001
0000
,
1000
0000
0010
0000
,
0100
0000
0001
0000
,
1000
0000
0100
0000
,
0010
0000
0000
0000
,
0010
0000
0001
0000
,
1000
0000
0001
0000
,
0100
0000
0001
0000
,
1000
0000
0010
0000
,
0100
0000
0000
0000
,
0001
0000
0000
0000
,
1000
0000
0000
0000
,
0001
0000
1000
0000
,
0001
0000
0000
0000
,
0100
0000
0001
0000
,
0100
0000
0000
0000
,
0010
0000
1000
0000
,
0010
0000
0000
0000
,
0100
0000
0010
0000
,
0100
0000
0001
0000
,
1000
0000
0100
0000
,
0010
0000
0100
0000
,
0010
0000
0001
0000
,
1000
0000
0001
0000
,
0100
0000
0010
0010
,
0010
0000
0100
0000
,
0001
0000
1000
1000
,
1000
0000
0001
0000
,
1000
0000
0010
0010
,
0010
0000
0100
0000
,
0001
0000
1000
0000
,
1001
0000
0001
0000
,
0100
0000
0100
0000
,
0010
0000
0010
0000
,
1000
0000
1000
0000
,
0001
0000
1000
0000
,
0001
0000
0100
0000
,
0001
0000
1000
0000
,
0100
0000
0000
0000
,
0010
0000
0100
0000
,
1000
0000
0100
0000
,
0010
0000
0001
0000
,
0010
0000
0001
0001
,
0001
0000
1000
0000
,
0010
0000
0100
0100
,
0100
0000
0000
0000
;

//---------------dance-single - ----------------
#NOTES:
     dance-single:
     :
     Easy:
     5:
     0.376,0.455,0.093,0.194,0.000:
1000
0100
1000
0000
,
0001
0100
0001
0000
,
1000
0010
0100
0001
,
1000
0001
1000
0000
,
0002
0000
0000
1000
,
2000
0000
0000
3003
,
1000
0001
0100
0010
,
0200
0000
0000
0310
,
0002
0000
0000
0100
,
0200
0000
0000
0303
,
0001
1000
0100
0010
,
0100
0010
0110
0000
,
1000
0001
1000
0001
,
0100
0010
0000
0010
,
0100
0001
1000
0100
,
0010
0100
0000
0010
,
0001
0000
1000
0000
,
0001
0000
0000
1000
,
0001
0000
1000
0000
,
0100
0000
0000
0010
,
0100
0000
0010
0000
,
0001
0000
0000
1000
,
0001
0000
1000
0000
,
0010
0000
0000
0000
,
0100
0001
0100
0001
,
1000
0100
1000
0000
,
0001
0010
0001
1000
,
0010
0000
0110
0000
,
0100
0001
1000
0100
,
0010
0001
1000
0001
,
1000
0010
0100
0001
,
1000
0001
0100
0000
,
0110
0000
0010
1000
,
0001
1000
0100
0100
,
0010
0000
0001
0010
,
0001
1000
0010
0010
,
0100
0000
0010
0000
,
1000
0001
1000
0001
,
0100
0000
0010
0000
,
1000
0010
0100
0001
,
1001
0000
1000
0001
,
1000
0010
0100
0100
,
0001
0000
1000
0010
,
0100
0001
1000
0001
,
2001
0000
3020
0000
,
0230
0000
0302
0000
,
1003
0001
1000
0100
,
0010
0100
0010
0001
,
2000
0000
3020
0000
,
0230
0000
0302
0000
,
2003
0000
3200
0000
,
0310
0100
0010
0001
,
2000
0000
3020
0000
,
2030
0000
3002
0000
,
1003
0100
1000
0001
,
0100
0001
1000
0001
,
0200
0000
0001
0000
,
0310
0100
0001
1000
,
0200
0000
0010
0000
,
1300
0100
1000
0001
,
0100
0000
0000
0002
0000
0000
0000
0000
,
1003
0010
0100
0001
,
1000
0000
0000
0020
0000
0000
0000
0000
,
0130
0001
1000
0100
,
1000
0000
0001
0100
,
0001
1000
0010
0000
,
0100
0000
0001
1000
,
0001
1000
0100
0000
,
0010
0000
0001
0010
,
0001
0100
0100
0100
,
0010
1000
0100
0010
,
0100
0010
0010
0010
,
0100
0010
0001
1000
,
0001
1000
1000
1000
,
0010
0100
0001
1000
,
0001
1000
1001
1001
,
1001
0000
0001
1000
,
0100
0010
0001
0100
,
0010
0000
0100
0010
,
1000
0001
1000
0001
,
1000
0000
0001
0100
,
0001
1000
0010
1000
,
0100
0000
0010
0001
,
0100
0000
0010
0000
,
0110
0000
0010
1000
,
0001
0100
0001
1000
,
0100
0100
0010
0010
,
0100
1000
0100
1000
,
0001
0000
0100
0001
,
1000
0010
0100
0110
,
1001
0000
0000
0000
;

//---------------dance-double - ----------------
#NOTES:
     dance-double:
     :
     Hard:
     9:
     0.664,0.682,0.379,0.126,0.000:
00000100
00000000
00001000
00000000
00000100
00010000
00000100
00010000
,
00001000
01000000
00100000
01000000
,
00010000
00000000
10000000
00000000
01000000
00100000
01000000
00100000
,
10000000
00000000
00010000
00000000
01000000
00001000
00010000
00001000
,
00000200
00000000
00000000
00000000
00000301
00000100
00000001
00000100
,
00000020
00000000
00000000
00000000
00001030
00000100
00001000
00000100
,
00010000
00000000
00001000
01000000
00000000
01000000
00100000
00000000
,
20000000
00000000
00100000
00000000
30010000
10000000
00010000
00000000
,
00210000
00000000
00000000
00000000
00301000
00010000
00001000
00010000
,
00000200
00000000
00000000
00000000
00001300
00000010
00001000
00000001
,
00000100
00000000
00000010
00001000
00000000
00001000
00000100
00000000
,
00010000
00001000
00022000
00033000
,
00101000
00000000
01010000
00000000
00100000
10000000
00100000
01000000
,
00010000
00000000
00100000
00000000
00001000
00000000
00010000
00000100
,
00010000
00000000
00000100
00000000
00001000
00000100
00000001
00000100
,
00001000
00000000
00000010
00000000
00000100
00000010
00000100
00000010
,
00002000
00000000
00000010
00000000
00000001
00000000
00000100
00003100
,
00000000
00000100
00010000
00000000
00001000
00010000
00001000
00000000
,
01000000
00000000
00010000
10000000
00000000
01010000
00000000
01001000
,
00000000
00010000
00001000
00000000
00010000
00000100
00010000
00000100
,
00001000
00000000
00000001
00001000
00000000
00001010
00000000
00010100
,
00000000
00000100
00010000
00000000
00001000
01000000
00001000
01000000
,
00100000
10000000
00000000
11000000
00000000
00110000
00000000
00100000
,
00001000
00000000
00010000
00000000
00000100
00001000
00000100
00000001
,
00000100
00000000
00000010
00000000
00000001
00001000
00000010
00001000
,
00000100
00000000
00010000
00000000
00001000
00010000
00001000
00000000
,
01000000
00000000
00010000
00000000
10000000
00100000
01000000
00010000
,
00100000
00000000
00001000
00000000
00100000
00001000
00100000
00000000
,
00001000
00000000
00100000
00000000
00001000
00000000
00010000
00000100
,
00000000
00000100
00010000
00000000
00000100
00001000
00000100
00001000
,
00000000
00000011
00000000
00000101
00000000
00001010
00000000
00001001
,
00000000
00001000
00000010
00000000
00001000
00000100
00001000
00000100
,
00010000
00000000
00001000
00010000
00001000
00000000
00001000
01000000
,
00000000
01000000
00100000
00000000
10100000
00000000
01010000
00000000
,
10010000
00000000
10000000
01000000
00010000
00000000
00010000
01000000
,
00000000
01000000
10000000
00000000
00110000
00000000
01010000
00000000
,
00100000
00000000
01000000
00001000
01000000
00000000
00001000
00010000
,
00000000
00010000
00001000
00000010
00000001
00000000
00001000
00000000
,
00001001
00000000
00000001
00000100
00000010
00000000
00000100
00000010
,
00000000
00000010
00001000
00000100
00010000
00000100
00010000
00001000
,
01001000
00000000
00010000
00100000
00010000
00000000
10000000
01000000
,
00000000
01000000
10000000
00010000
01000000
00000000
01001000
00000000
,
00011000
00010000
00001000
00000010
,
00001000
00010000
00001000
00010000
00000100
00000100
00000100
00000000
,
00001000
00000100
00001000
00000100
00000010
00000100
00000010
00000100
,
00010000
00000100
00010000
00000100
00010000
00001000
00010000
00001000
,
00100000
00001000
00100000
00001000
00100000
00010000
00100000
00010000
,
10000000
00010000
10000000
01000000
00100000
00010000
01000000
00010000
,
10010000
00000000
10000000
01000000
00010000
01000000
00010000
00002000
,
00000000
00010000
00010000
00000000
00000100
00000000
00013000
00000000
,
00010000
00000000
00000010
00000000
00001000
00000010
00000100
00000010
,
00001000
00000000
00000100
00001000
00000100
00010000
00000000
00010100
,
00000000
00000000
00010000
00000010
00000000
00000010
00000100
00000000
,
00000010
00000000
00001000
00000000
00000100
00010000
00000100
00010000
,
01000000
00000000
10000000
00000000
00010000
00100000
00010000
00100000
,
00000000
00001000
00010000
00000000
00010100
00000000
00001100
00000000
,
00000012
00000000
00000000
00001000
00001000
00000000
00000000
00000010
,
00000000
00000100
00000000
00001000
00001000
00000000
00000100
00000000
,
00002003
00000000
00000000
00000010
00000010
00000000
00000000
00000100
,
00000000
00000001
00000000
00000010
00000010
00000000
00003100
00000000
,
00010100
00000000
00000000
00010000
00002000
00000000
00000000
00100000
,
00000000
00010000
00000000
01000000
01000000
00000000
00013000
00000000
,
01000000
00000000
00000000
00100000
02000000
00000000
00000000
10000000
,
00000000
00010000
00000000
00100000
03100000
00000000
01000000
00000000
,
01010000
00000000
00010000
10000000
00010000
00000000
10000000
01000000
,
00000000
00100000
00010000
00000000
10000000
00000000
00010000
00000000
,
01000000
00000000
00001000
01000000
00001000
00000000
00100000
00001000
,
00000000
00001000
00010000
00000000
00000100
00000000
00001100
00000000
,
00010100
00000000
00010000
00001000
00010000
00000000
00001000
01000000
,
00000000
01000000
00001000
00000000
01000000
01000000
01000000
00000000
,
00100000
10000000
01000000
00010000
01000000
00000000
10000000
00010000
,
00000000
00010000
01000000
00000000
00010000
00010000
00010000
00000000
,
10000000
01000000
00010000
01000000
00100000
00010000
00000000
00110000
,
00000000
00000000
00101000
00000000
00001000
00001000
00001000
00000000
,
00010000
00001000
00100000
00001000
00010000
00000100
00000000
00001100
,
00000000
00001000
00000001
00000000
00001000
00000001
00001001
00000000
,
00001000
00000010
00000100
00000010
00001000
00000100
00000010
00000100
,
00001000
00000100
00000010
00000001
00000100
00001000
00000100
00000001
,
00001000
00000100
00010000
00001000
00100000
00001000
01000000
00100000
,
01000000
00100000
10000000
01000000
00010000
00000000
01010000
00000000
,
22000000
00000000
33000000
00000000
10000000
01000000
00010000
01000000
,
00000000
00010000
00001000
00000100
00000000
00000001
00000100
00000001
,
00001000
00000000
00000100
00000000
00001000
00000100
00001000
00000100
,
00000000
00000010
00000001
00000000
00000011
00000000
00001001
00000000
,
00001010
00000000
00000010
00001000
00000100
00000000
00010000
00010000
,
00000000
00010000
00001000
00000000
01000000
00001000
01000000
00000000
,
00100000
10000000
01000000
00000000
10000000
00000000
00010000
00100000
,
00000000
00100000
00001000
00000000
00011000
00000000
00010100
00000000
,
00001100
00000000
00001000
00000001
00001000
00000000
00000001
00000010
,
00000000
00000010
00000001
00000100
00000010
00000000
00000100
00000000
,
00000110
00000000
00000000
00000000
;

//---------------dance-double - ----------------
#NOTES:
     dance-double:
     :
     Medium:
     7:
     0.535,0.530,0.109,0.143,0.000:
00010000
00000000
01000000
00000000
00100000
00000000
01000000
00010000
,
01000000
00010000
10000000
00000000
,
00010000
00000000
00100000
00000000
00001000
00000000
00010000
00001000
,
00010000
00000100
00001000
00000001
,
00000200
00000000
00000000
00000000
00000300
00000001
00000100
00000001
,
00002000
00000000
00000000
00000000
00003000
00000100
00001000
00000100
,
00001000
00000000
00000000
00000100
00000000
00000000
00010000
00000000
,
00002000
00000000
00000000
00000000
00003000
01000000
00010000
00000000
,
20000000
00000000
00000000
00000000
30000000
00010000
10000000
00010000
,
00200000
00000000
00000000
00000000
00300000
00010000
00100000
00010000
,
00100000
00000000
00000000
00001000
00000000
00000000
00010000
00000000
,
00000100
00001000
00001001
00000000
,
00000001
00000000
00000100
00000000
00000010
00001000
00000010
00000000
,
00001000
00000100
00010000
00001000
,
01000000
00000000
00100000
00000000
10000000
00010000
10000000
00000000
,
01000000
00100000
00010000
00100000
,
00002000
00000000
00100000
00000000
01000000
00000000
00010000
00013000
,
00000000
00001000
01000000
00100000
,
20000000
00000000
00100000
00000000
00010000
00000000
01000000
31000000
,
00000000
00000000
10000000
00000000
00010000
00100000
00010000
00000000
,
00200000
00000000
00010000
00000000
00000100
00000000
00001000
00301000
,
00000000
00000000
00100000
00000000
00001000
00010000
00001000
00000000
,
00020000
00001000
00000000
00000100
00000000
00001000
00000000
00030100
,
00000000
00000000
00010000
00000000
00000100
00001000
00000100
00001000
,
00000001
00000000
00000000
00001000
00000000
00000010
00000000
00001000
,
00000000
00000010
00001000
00000000
00000100
00000000
00010000
00000000
,
00001000
00000000
01000000
00000000
00100000
00000000
01000000
00010000
,
00000000
00010000
01000000
00000000
00010000
10000000
00010000
00000000
,
10000000
00000000
01000000
00000000
00100000
00000000
00010000
00100000
,
00000000
00100000
00010000
00000000
00100000
00001000
00100000
00000000
,
00001000
00010000
00000100
00000010
,
00000100
00000000
00010000
00000000
00001000
00010000
00001000
00010000
,
00001000
00000000
00000000
00001000
00100000
00000000
00100000
00010000
,
00000000
00010000
10000000
00000000
00100000
00000000
01000000
00000000
,
00010000
00000000
10000000
01000000
10000000
00000000
00010000
00100000
,
00000000
00100000
00010000
00000000
10000000
00000000
00010000
00000000
,
10010000
00000000
00000000
10000000
00100000
00000000
00000000
01000000
,
00010000
00000000
01000000
00010000
01000000
00000000
00010000
00000000
,
00100000
00000000
00000000
00100000
00010000
00000000
00000000
00100000
,
00001000
00010000
00000100
00001000
,
00001100
00000000
00000010
00000001
00000010
00000000
00000001
00001000
,
00000000
00001000
00000010
00000000
00001000
00000010
00001000
00000000
,
00000100
00000000
00001000
00000000
00000100
00000000
00010000
00001000
,
00000000
00001000
00010000
00000000
00001000
01000000
00001000
01000000
,
00010000
10000000
01000000
00010000
,
01000000
10000000
00100000
00010000
,
00100000
10000000
01000000
00100000
,
00010000
00100000
00001000
00100000
,
00001000
00000000
00010000
00000000
00001000
00010000
00001000
00020000
,
00000000
00000100
00000100
00030100
,
00010000
00000100
00001000
00000100
,
00000010
00000000
00000002
00000010
00000000
00000010
00000000
00000013
,
00000000
00000000
00001000
00000000
00000001
00001000
00000001
00000000
,
00001000
00000000
00000010
00000000
00001000
00000010
00000000
00000010
,
00010000
00000000
00001000
00000000
00010000
00000000
00001000
00100000
,
00000000
00100000
00010000
00000000
10000000
00010000
10000000
00000000
,
00020000
00000000
00000000
00100000
00100000
00000000
00000000
01000000
,
00000000
10000000
00000000
01000000
01000000
00030000
10000000
00000000
,
00200000
00000000
01000000
01000000
00000000
00000000
00000000
10000000
,
00000000
01000000
00000000
10000000
10000000
00000000
01300000
00000000
,
01200000
00000000
00000000
10300000
00000000
00000000
00000000
00010000
,
00000000
00100000
00000000
00001000
00010000
00000000
00000100
00000000
,
00002100
00000000
00000000
00003010
00000000
00000000
00000000
00000100
,
00000000
00000001
00000000
00001000
00000100
00000000
00001100
00000000
,
00010100
00000000
00000100
00010000
00001000
00000000
00010000
00001000
,
00000000
00001000
00010000
00000000
00001000
00000000
00100000
00000000
,
00010000
00000000
01000000
00010000
10000000
00000000
00100000
10000000
,
00000000
10000000
01000000
00000000
00100000
00010000
01000000
00000000
,
00010000
00000000
00100000
00001000
00100000
00000000
00001000
00010000
,
00000000
00010000
00000100
00000000
00010000
00010000
00010000
00000000
,
00000100
00000000
00001000
00000100
00001000
00000000
00000001
00000010
,
00000000
00000010
00000001
00000000
00000100
00000100
00000100
00000000
,
00000010
00000000
00001000
00000100
00010000
00000000
00001000
00010000
,
00000000
00001000
00010000
00000000
00001000
00001000
00001000
00000000
,
00100000
00001000
00100000
00010000
00100000
00000000
00010000
01000000
,
00010000
00000000
00100000
00000000
00010000
00010000
00010000
00000000
,
10000000
01000000
10000000
00000000
00010000
00000000
00100000
00000000
,
00010000
00100000
00010000
00000000
00100000
00000000
00001000
00000000
,
00010000
00001000
00010000
00000000
00000100
00000000
00001000
00000000
,
00000001
00001000
00000001
00000000
00001000
00000010
00001000
00000000
,
00000202
00000000
00000303
00000000
00000001
00000000
00001000
00000100
,
00000000
00000100
00001000
00000001
00000000
00001000
00000001
00000000
,
00001000
00000000
00000100
00000000
00010000
00001000
00010000
00001000
,
00000000
00001000
01000000
00010000
01000000
00000000
01010000
00000000
,
10010000
00000000
10000000
00000000
00010000
00000000
01000000
00100000
,
00000000
00100000
01000000
00000000
00010000
00100000
00010000
00000000
,
00100000
00000000
00001000
00000000
00010000
00000000
00000100
00000010
,
00000000
00000010
00000100
00000000
00010000
00000000
00001000
00000000
,
01001000
00000000
00000000
00100000
01000000
00000000
01000000
00100000
,
00000000
10000000
01000000
00100000
00010000
00000000
00110000
00000000
,
10010000
00000000
00000000
00000000
;

//---------------dance-double - ----------------
#NOTES:
     dance-double:
     :
     Easy:
     5:
     0.364,0.379,0.067,0.084,0.000: // measure 1
00010000
01000000
00001000
00001000
,  // measure 2
00010000
00000100
00000000
00001000
,  // measure 3
00000100
00000010
00000100
00000100
,  // measure 4
00000010
00000001
00000000
00000010
,  // measure 5
00000002
00000000
00000000
00001003
,  // measure 6
00002000
00000000
00000000
00003100
,  // measure 7
00000200
00000000
00001000
00010000
,  // measure 8
00002000
00000000
00003300
00000100
,  // measure 9
00020000
00000000
00000000
00031000
,  // measure 10
00002000
00000000
00000000
01003000
,  // measure 11
01000000
00000000
00010000
10000000
,  // measure 12
01000000
00000000
00100000
01000000
,  // measure 13
00100000
00010000
00100000
00001000
,  // measure 14
00100000
00001000
00000000
00010000
,  // measure 15
00000100
00010000
00000100
00001000
,  // measure 16
00000100
00001000
00000000
00000001
,  // measure 17
00000100
00000000
00000010
00001000
,  // measure 18
00000001
00000000
00001000
00000000
,  // measure 19
00000100
00000000
00001000
00000100
,  // measure 20
00010000
00000000
00001000
00000000
,  // measure 21
00100000
00000000
00001000
00100000
,  // measure 22
00001000
00000000
01000000
00000000
,  // measure 23
00010000
00000000
10000000
00010000
,  // measure 24
10000000
00010000
00100000
00010000
,  // measure 25
01000000
00000000
00100000
01000000
,  // measure 26
00010000
00000000
00100000
00000000
,  // measure 27
00001000
00010000
00001000
00010000
,  // measure 28
00000100
00000000
00001000
00000000
,  // measure 29
00000100
00000010
00000001
00000010
,  // measure 30
00000001
00001000
00000010
00000000
,  // measure 31
00001000
00000010
00000100
00000001
,  // measure 32
00001000
00000000
00000001
00000000
,  // measure 33
00001001
00000000
00001000
00000100
,  // measure 34
00010000
00000100
00010000
00001000
,  // measure 35
01000000
01000000
00100000
10000000
,  // measure 36
01000000
01000000
00100000
00010000
,  // measure 37
00100000
00000000
00010000
00000000
,  // measure 38
00100000
00000000
00001000
00010000
,  // measure 39
00011000
00000000
00010000
00000000
,  // measure 40
00000100
00001000
00000100
00001000
,  // measure 41
00000001
00000000
00000010
00000001
,  // measure 42
00000100
00000010
00000100
00000010
,  // measure 43
00001000
00000000
00000100
00001000
,  // measure 44
00000100
00000000
00010000
00000100
,  // measure 45
00010100
00000000
00000010
00000001
,  // measure 46
00000010
00000000
00000001
00001000
,  // measure 47
00000001
00000000
00001000
00000010
,  // measure 48
00000100
00000001
00001000
00000100
,  // measure 49
00010000
00000000
00001000
00010000
,  // measure 50
00001000
00000000
00010000
00000000
,  // measure 51
00001000
00100000
00010000
00100000
,  // measure 52
00010000
10000000
00100000
01000000
,  // measure 53
01100000
00000000
00100000
10000000
,  // measure 54
00010000
00000000
10000000
00010000
,  // measure 55
01000000
00000000
00010000
00100000
,  // measure 56
00010000
00100000
00001000
00010000
,  // measure 57
00012000
00000000
00103000
00000000
,  // measure 58
00100000
00001000
00010000
00000100
,  // measure 59
00002000
00000000
00003100
00000000
,  // measure 60
00000010
00000001
00000100
00000010
,  // measure 61
00002000
00000000
00003001
00000000
,  // measure 62
00000001
00001000
00000010
00010000
,  // measure 63
00002000
00000000
01003000
00000000
,  // measure 64
01000000
00010000
10000000
00100000
,  // measure 65
01000000
00000000
01000000
00100000
,  // measure 66
10000000
00010000
00100000
00001000
,  // measure 67
00010000
00000000
00001000
00010000
,  // measure 68
00001000
00010000
00000100
00000010
,  // measure 69
00000100
00000000
00000010
00000001
,  // measure 70
00000100
00000010
00000100
00000100
,  // measure 71
00000000
00000010
00001000
00000100
,  // measure 72
00010000
00000100
00010000
00010000
,  // measure 73
00000000
00001000
00100000
00001000
,  // measure 74
01000000
00010000
01000000
01000000
,  // measure 75
00000000
00100000
10000000
00010000
,  // measure 76
10000000
00010000
01000000
01000000
,  // measure 77
01100000
00100000
01000000
00010000
,  // measure 78
00100000
00001000
00010000
00001000
,  // measure 79
00010000
00000100
00000010
00000001
,  // measure 80
00000100
00000010
00001000
00000010
,  // measure 81
00000110
00000000
00000010
00001000
,  // measure 82
00000100
00001000
00000010
00001000
,  // measure 83
00000100
00010000
00001000
00100000
,  // measure 84
00001000
00000000
00100000
00010000
,  // measure 85
00100000
00000000
01000000
00000000
,  // measure 86
00100000
00010000
00100000
00001000
,  // measure 87
00010000
00000000
00001000
00000000
,  // measure 88
00010000
00000100
00001000
00000100
,  // measure 89
00000010
00000000
00000001
00000000
,  // measure 90
00000100
00000000
00000010
00000100
,  // measure 91
00000110
00000000
00000000
00000000
;
