#TITLE:O... Saya;
#SUBTITLE:;
#ARTIST:A.R. Rahman;
#TITLETRANSLIT:;
#SUBTITLETRANSLIT:;
#ARTISTTRANSLIT:;
#GENRE:;
#CREDIT:Telperion;
#BANNER:slumdog-512.png;
#BACKGROUND:Summer_Contest2010-bg.png;
#LYRICSPATH:;
#CDTITLE:;
#MUSIC:O... Saya.mp3;
#OFFSET:-4.200;
#SAMPLESTART:38.243;
#SAMPLELENGTH:15.422;
#SELECTABLE:YES;
#BPMS:0.000=124.500,24.000=78.778,33.000=84.075,36.000=84.072,37.000=94.662,41.000=110.250,45.000=110.730,52.000=124.500;
#STOPS:52.000=0.407
;
#BGCHANGES:;
#KEYSOUNDS:;

//---------------dance-single - Telperion----------------
#NOTES:
     dance-single:
     Telperion:
     Hard:
     9:
     0.548,0.589,0.128,0.155,0.616:
2000
0000
0000
0000
,
3200
0000
0000
0000
,
0302
0000
0000
0000
,
0023
0000
0000
0000
,
0230
0000
0000
0000
,
0302
0000
0000
0000
,
2003
0001
0001
0001
,
3001
0001
1000
0001
,
1000
0000
0000
0001
1000
0000
1000
0010
0000
0100
0000
0000
0010
0000
0100
0001
,
0000
0100
0000
0000
0010
0000
1000
0100
0000
0010
0000
0000
0001
0000
0010
0001
,
0000
0100
0000
0010
1000
0000
1000
0001
0000
0100
0000
0010
0100
0000
0100
0001
,
0000
0010
0000
0100
0010
0000
0100
0010
0000
0110
0000
0000
0001
0000
1000
0001
,
0000
1001
0000
0000
0010
0000
1000
0100
0000
1100
0000
0000
0010
0000
0001
0100
,
0001
1000
0011
1000
,
1010
1000
0001
0010
0011
0001
1000
0010
,
0100
0010
0000
1000
0100
0000
0010
0000
0100
1000
0000
0010
0100
0000
0001
0000
,
0010
0001
0000
1000
0010
0000
1000
0000
0001
0100
0000
0010
1000
0000
0000
0000
,
0001
0010
0000
0001
0100
0000
0100
0000
0010
1000
0000
0100
0001
0000
0100
0000
,
0010
0100
0000
0010
0001
0000
0001
0000
1000
0001
0000
0010
0001
0000
0000
0000
,
1000
0001
0000
0001
1000
0000
0100
0000
0010
0001
0000
0001
0010
0000
0100
0000
,
1000
0001
0000
0001
0100
0000
0010
0000
1000
0010
0000
0010
0100
0000
1000
0000
,
0100
0001
0000
0001
1000
0000
0100
0000
0010
0100
0000
1000
0001
0000
0100
0000
,
0010
0100
0000
0100
0001
0000
1000
0000
0100
0010
0000
0100
1000
0000
0001
0000
,
0100
1000
0000
0100
0001
0000
1000
0000
0100
0001
0000
0100
1000
0000
0001
0000
,
0100
1000
0000
0100
0001
0000
1000
0000
0100
0001
0000
0100
1000
0001
1000
0001
,
0200
0000
0000
0000
0310
0000
0010
0000
0100
0001
0000
0001
0010
0000
0100
0000
,
0100
1000
0000
1000
0010
0000
0100
0000
1000
0100
0000
0010
1000
0000
0100
0000
,
0010
0001
0100
0010
1000
0100
0001
0100
,
1000
0010
0100
0010
1000
0010
0001
0010
,
0100
0010
0000
0010
1000
0000
0100
0000
1000
0001
0000
0100
1000
0000
0100
0000
,
1000
0100
0000
0001
0100
0010
1000
0001
0100
0001
1000
0000
1000
0000
0000
0000
,
0100
1000
0100
0001
0010
0001
0100
2000
,
0002
0000
3003
0000
,
0000
0000
1000
0001
,
1000
0100
1000
0001
1000
0001
1000
0000
0100
0010
0001
0100
0001
0010
0001
0000
,
0100
0010
1000
0010
0100
0000
0001
0000
0010
0001
0100
0010
0100
0000
0000
0000
,
0001
0100
0010
1000
0100
0000
0000
0100
1000
0010
0000
0100
1000
0000
0100
0000
,
0010
1000
0100
1000
0010
0000
0000
0100
0001
0010
0000
0001
0100
0000
0010
0000
,
0220
0000
0000
0300
,
2000
0030
3001
1001
,
1000
0100
0000
0010
0001
0010
0100
0000
2000
0000
0000
0000
3010
0000
0000
0000
,
0010
0100
0000
0100
0010
1000
0100
0000
0010
0001
0000
0001
0010
0100
1000
0000
,
0010
0100
0000
0100
0001
0100
0001
0000
0020
0000
0000
0000
0031
0000
0000
0000
,
0001
0100
0000
0100
0001
0010
0000
0000
0100
1000
0000
1000
0010
1000
0000
1000
,
0100
0010
0000
0100
1000
0001
0100
0000
0020
0000
0030
0000
0010
0000
0000
0000
,
1000
0100
0000
0100
0010
0000
0001
0000
0100
0010
0000
0010
1000
0000
0001
0000
,
0100
0001
0000
0100
0001
1000
0001
0000
0020
0000
0030
0000
0010
0000
0000
0000
,
0001
0000
1000
0000
0100
0000
0010
0000
0001
1000
0100
1000
0001
0000
1000
0000
,
0110
0100
0000
0001
1100
0000
0001
1000
,
0110
0010
0000
1000
0011
0000
1001
0000
,
0100
0010
0000
0010
1000
0000
1000
0100
,
0010
0001
0100
1000
0100
0010
1000
0100
0010
0000
0110
0000
0000
0000
0000
0000
;

//---------------dance-single - Telperion----------------
#NOTES:
     dance-single:
     Telperion:
     Medium:
     7:
     0.385,0.425,0.210,0.210,0.132:
2000
0000
0000
0000
,
0000
0000
0000
0000
,
0002
0000
0000
0000
,
0000
0000
0000
3000
,
0200
0000
0000
0000
,
0000
0000
0003
0000
,
0020
0000
0000
0330
,
0000
0110
0000
0000
,
0000
0000
0000
0010
1000
0000
0000
0100
0000
0000
0000
0010
0001
0000
0000
0100
,
0000
0000
0000
0010
0100
0000
0000
0001
0000
0000
0000
0010
0100
0000
0000
1000
,
0000
0000
0000
0001
0100
0000
0100
0010
0000
0000
0000
0010
1000
0000
1000
0001
,
0000
0000
0000
0001
0010
0000
0010
0100
0000
0000
0000
0100
0010
0000
0010
0001
,
0000
0000
0000
0001
0100
0000
0100
0010
0000
0000
0000
0010
1000
0000
1000
0001
,
0000
0100
0001
1000
,
0100
0001
0100
1000
,
0001
0000
1000
0100
0010
0000
0101
0000
,
1000
0000
0010
0100
0001
0000
0110
0000
,
1001
0000
1000
0001
0010
0000
0011
0000
,
1000
0000
0000
0000
0001
0000
0010
0000
0100
0000
0000
0100
1000
0000
0010
0000
,
0100
0000
0000
0100
1000
0000
0100
0000
0001
0000
0000
0000
0010
0000
0001
0000
,
0101
0000
1100
0001
0100
0000
1010
0000
,
1000
0001
0100
0010
1000
0000
0110
0000
,
1000
0000
0100
0000
0010
0000
0001
0000
0010
0000
0000
0000
1001
0000
0000
1000
,
0001
0000
0100
0000
1000
0000
0100
0000
0010
0000
0000
0000
0110
0000
0000
0010
,
1000
0000
0100
0000
0001
0000
0100
0000
0010
0000
0000
0001
0100
0000
0010
0000
,
2000
0000
0000
0000
3001
0000
0000
0001
1000
0000
0100
0000
0010
0000
0000
0000
,
0101
0000
0000
0000
1100
0000
0000
1000
0001
0000
0100
0000
0010
0000
0100
0000
,
0001
1000
0100
1000
0001
1000
0100
1000
,
0001
0010
0100
0010
0001
0010
0002
0000
,
1003
0000
1000
0010
0001
0010
0200
0000
,
0001
0000
0301
0010
0100
1000
0001
0010
,
0110
1000
1010
0100
0001
0010
0100
2000
,
0002
0000
3003
0000
,
0000
0000
0000
0000
,
1000
0100
0001
0010
,
0100
0001
1000
0000
,
0001
0000
0001
1000
0001
0100
0010
0000
,
0000
0010
0100
0001
0010
0000
0000
0010
,
0001
1000
0100
1000
0001
0100
0001
2000
,
0001
0000
3001
1000
0010
0100
0001
1000
,
0020
0130
0110
0000
,
0002
0013
0011
0000
,
0200
1300
1200
1300
,
1002
0103
0101
0000
,
0020
1030
2002
3003
,
0010
0001
0100
1000
,
0020
0031
2002
3003
,
0001
0000
0000
0000
1000
0000
0001
0000
0010
0001
0000
0000
0100
0010
0000
0000
,
0010
1000
0100
0010
0001
0000
0001
0010
,
0100
1000
0010
0100
0001
0000
0001
0100
,
0010
1000
0010
0100
1000
0000
1000
0100
,
0010
0100
0010
0100
2002
0000
3003
0000
;

//---------------dance-single - Telperion----------------
#NOTES:
     dance-single:
     Telperion:
     Easy:
     4:
     0.282,0.283,0.246,0.265,0.000:
0002
0000
0000
0000
,
0003
0000
0000
0000
,
2000
0000
0000
0000
,
3000
0000
0000
0000
,
0020
0000
0000
0000
,
0200
0000
0330
0000
,
0220
0000
0000
0000
,
0000
0330
0000
0000
,
0000
0001
0010
0001
,
0100
0010
1000
0100
,
1000
0001
0010
0100
,
1000
0010
0100
0001
,
1000
0100
1000
0010
,
0100
0000
0000
0000
,
0001
1000
0001
1001
,
0100
0010
0001
1001
,
0100
0010
1000
0011
,
0100
1001
0100
0010
,
0001
1000
0001
0100
,
0010
1001
1000
0100
,
0010
1001
0010
0100
,
0001
0011
0100
1000
,
0010
1010
0100
0010
,
1000
0100
1000
0100
,
0001
0100
0001
0100
,
2000
0000
0001
3001
,
1000
0100
0010
0001
,
0100
0000
0010
0000
0100
0010
0100
0000
,
0001
0000
0100
0000
0001
0100
0001
0000
,
0010
0000
0001
0000
0010
0001
0010
0000
,
0100
0000
1000
0000
0001
1000
0001
0000
,
2000
0000
3001
0000
0001
1000
0001
0000
,
2002
0000
0000
0000
,
3003
0000
0000
0000
,
1000
1100
0001
0101
,
1100
0101
1001
0000
,
0020
0000
0000
0000
,
0130
0000
0110
0000
,
0010
1000
0100
0000
0010
0001
0100
0020
,
0000
0000
0000
0000
,
1030
0001
2002
3003
,
0010
1000
2200
3300
,
1000
0001
0022
0033
,
0001
1000
2020
3030
,
0001
0100
0220
0330
,
0010
1000
0220
0330
,
0001
0010
0220
0330
,
1000
0001
2002
3003
,
1001
0000
0000
0001
1000
0000
0100
0000
,
0110
0000
0000
0010
0001
0000
0100
0000
,
0110
0000
0000
0010
1000
0000
0100
0000
,
1000
0100
1000
0001
0200
0000
0300
0000
;

//---------------dance-single - Telperion----------------
#NOTES:
     dance-single:
     Telperion:
     Beginner:
     2:
     0.096,0.118,0.110,0.037,0.000:
1000
0000
0000
0000
,
0000
0000
0000
0000
,
0001
0000
0000
0000
,
0000
0000
0000
0000
,
1000
0000
0000
0000
,
0000
0000
0000
0000
,
0002
0000
0000
0000
,
0003
0000
0000
0000
,
0000
1001
0000
0000
,
0000
1001
0000
0000
,
0000
1001
0000
0000
,
0000
1001
0000
0000
,
0000
1001
0000
0000
,
0000
0000
0000
0000
,
1001
0000
0000
0000
,
1000
0000
0000
0000
,
0100
0000
0000
0000
,
0001
0000
0000
0000
,
1000
0000
0000
0000
,
0010
0000
0000
0000
,
0100
0000
0000
0000
,
1000
0000
0000
0000
,
0100
0000
0000
0000
,
1000
0000
0000
0000
,
0001
0000
0000
0000
,
2002
3003
0000
0000
,
0100
0000
0000
0000
,
0010
0000
0010
0000
,
0100
0000
0100
0000
,
0001
0000
0000
0000
,
1000
0000
0000
0000
,
0100
0000
0100
0000
,
0020
0000
0000
0000
,
0030
0000
0000
0000
,
0010
0000
0001
0000
,
0100
0000
0000
0000
,
0010
0000
1000
0000
,
0001
0000
1000
0000
,
0100
0000
0010
0000
,
0001
0000
1000
0000
,
0001
0000
0000
0000
,
1001
0000
0000
0000
,
1000
0000
0000
0000
,
1001
0000
0000
0000
,
0010
0000
0000
0000
,
1001
0000
0000
0000
,
0010
0000
0000
0000
,
1001
0000
0000
0000
,
1000
0000
1000
0000
,
0001
0000
0001
0000
,
1000
0000
1000
0000
,
0001
0000
1001
0000
;

//---------------dance-double - Telperion----------------
#NOTES:
     dance-double:
     Telperion:
     Hard:
     9:
     0.516,0.664,0.091,0.146,0.566:
00000000
00000000
00000000
00000000
,
00000000
00000000
00000000
00000000
,
00000000
00000000
00000000
00000000
,
00000000
00000000
00000000
00000000
,
00200000
00000000
00000000
00000000
,
00002000
00000000
00300000
00000000
,
00013000
00100000
00010000
00100000
,
01000000
00100000
10000000
01000000
,
00100000
00000000
00010000
00000000
10000000
00000000
01000000
00010000
,
00001000
00000100
00000010
00000000
00001000
00000100
00000010
00001000
,
00010000
00000000
01000000
00000000
00100000
00000000
00000000
00010000
00000000
01000000
00000000
00100000
10000000
00000000
00000000
01000000
,
00000000
00100000
00000000
00001000
00010000
00000000
00000000
00100000
00000000
01000000
00000000
00010000
00001000
00000000
00000010
00000100
,
00000000
00001000
00000000
00000100
00000010
00000000
00000000
00001000
00000000
00000100
00000000
00000010
00000001
00000000
00001000
00000001
,
00001000
00000001
00000100
00001000
,
00000100
00000010
00001000
00000100
,
00000010
00000001
00000000
00000100
00000010
00000000
00000001
00000000
00000010
00001000
00000000
00000100
00000010
00000000
00001000
00000000
,
00010000
00000010
00000000
00000100
00001000
00000000
00010000
00000000
01000000
00100000
00000000
00001000
00010000
00000000
00100000
00000000
,
01000000
00010000
00000000
00100000
01000000
00000000
10000000
00000000
00100000
01000000
00000000
10000000
01000000
00000000
00010000
00000000
,
00100000
01000000
00000000
10000000
01000000
00000000
00100000
00000000
00010000
01000000
00000000
00100000
10000000
00000000
00100000
00000000
,
01000000
10000000
00000000
01000000
00010000
00000000
00100000
00000000
01000000
00010000
00000000
00001000
00010000
00000000
01000000
00000000
,
00010000
00001000
00000000
00000100
00001000
00000000
00000100
00000000
00000010
00001000
00000000
00000100
00010000
00000000
00001000
00000000
,
00000010
00000001
00000000
00000010
00000100
00000000
00001000
00000000
00000010
00000100
00000000
00000001
00000100
00000000
00000010
00000000
,
00001000
00000100
00000000
00000010
00000001
00000100
00000000
00000010
00001000
00000001
00000000
00000100
00000010
00000000
00000100
00000000
,
00001000
00010000
00001000
00000100
00000010
00001000
00000100
00010000
,
00001000
00000000
00010000
00000000
00100000
00000000
00010000
00000000
00001000
00000000
00010000
00000000
01000000
00010000
01000000
10000000
,
00020000
00000000
00000000
00000000
00031000
00000000
00000100
00000000
00000010
00000001
00000000
00000001
00000100
00000000
00000010
00000000
,
00001000
00000100
00000000
00000100
00010000
00000000
00001000
00000000
01000000
00010000
00000000
00010000
00100000
00000000
01000000
00000000
,
10000000
00100000
00000000
00100000
10000000
00010000
01000000
00001000
00010000
00001000
00000000
00001000
00010000
00000010
00001000
00000001
,
00000100
00000010
00000000
00000010
00000100
00000001
00001000
00000100
00000010
00000001
00000000
00000001
00000010
00000100
00001000
00000100
,
00010000
00001000
00000000
00001000
00100000
00010000
00100000
01000000
10000000
00010000
00000000
00010000
01000000
00100000
01000000
00010000
,
00100000
00001000
00000000
00001000
00010000
00001000
00010000
00001000
00010000
00001000
00010000
00000000
00012000
00000000
00000000
00000000
,
00013000
00000100
00000000
00000100
00000010
00000000
00000001
00000000
00000100
00000010
00000000
00000100
00001000
00000000
00010000
00000000
,
00022000
00000000
00000000
00000000
,
00000000
00000000
00033000
00000000
,
00001000
00010000
00001000
00010000
00001000
00000000
00000000
00000000
00100000
00010000
00100000
00010000
00100000
00000000
00000000
00000000
,
00010000
01000000
00010000
01000000
00010000
00000000
00000000
00000000
10000000
01000000
10000000
01000000
10000000
00000000
00000000
00000000
,
00100000
01000000
00100000
01000000
00100000
10000000
01000000
00100000
00010000
00000000
00000000
00000000
00110000
00000000
00000000
00000000
,
00000000
00000000
00010000
01000000
00100000
00000000
00010000
00000000
00011000
00000000
00000000
00000000
00000000
00000000
00000000
00000000
,
00001000
00001000
00000100
00000001
00000010
00000100
00001000
00010000
,
00100000
00000000
00100000
00010000
01000000
00100000
00010000
00001000
,
00011000
00011000
00022000
00033000
,
00001000
00000100
00000000
00000100
00000001
00000000
00000010
00000000
00001000
00010000
00001000
00010000
00100000
00000000
10000000
00000000
,
01000000
00010000
00000000
00010000
00001000
00000000
00000000
00000000
00022000
00000000
00000000
00000000
00033000
00000000
00000000
00000000
,
00010000
00100000
00000000
00100000
01000000
00000000
00010000
00000000
10000000
01000000
10000000
01000000
00100000
00000000
00001000
00000000
,
00020000
00031000
00022000
00033000
,
00010000
01000000
00000000
01000000
10000000
00000000
00100000
00000000
00010000
00001000
00010000
00001000
00000100
00000000
00000001
00000000
,
00000010
00001000
00000000
00001000
00010000
00000000
00001000
00000000
00022000
00000000
00000000
00000000
00033000
00000000
00000000
00000000
,
00001000
00010000
00000000
00001000
00100000
00000000
01000000
00000000
10000000
00100000
00000000
01000000
00100000
00000000
00010000
00000000
,
00001000
00100000
00000000
01000000
00010000
00000000
00001000
00000100
,
00000010
00001000
00000000
00000100
00000010
00000000
00000001
00000010
,
00001000
00010000
00000000
00100000
01000000
00000000
00001000
00010000
,
01000000
00100000
00010000
01000000
20000000
00000000
00000000
00000000
,
30000000
00000000
00000000
00000000
;

//---------------dance-double - Telperion----------------
#NOTES:
     dance-double:
     Telperion:
     Medium:
     7:
     0.408,0.451,0.091,0.137,0.324:
00000000
00000000
00000000
00000000
,
00000000
00000000
00000000
00000000
,
00000000
00000000
00000000
00000000
,
00000000
00000000
00000000
00000000
,
20000000
00000000
00000000
00000000
,
00020000
00000000
30000000
00000000
,
02030000
00100000
00100000
00100000
,
03100000
00100000
00100000
00100000
,
00100000
00100000
10000000
01000000
,
00100000
00000000
00001000
00000000
00010000
00000000
00100000
00010000
,
00001000
00000000
00100000
01000000
00010000
00000000
00001000
00100000
,
00010000
00000000
00010000
01000000
00100000
00000000
00010000
00001000
,
00000100
00000000
00000010
00000100
00000001
00000000
00000010
00000100
,
00001000
00000001
00001000
00000001
,
00001000
00000001
00001000
00000001
,
00001000
00000000
00000000
00001000
00000001
00000000
00000000
00000001
00000100
00000000
00000000
00000100
00000010
00000000
00000000
00000010
,
00001000
00000000
00000000
00001000
00000100
00000000
00000000
00000100
00000010
00000000
00000000
00000010
00000100
00000000
00000000
00000100
,
00010000
00000000
00000000
00010000
00001000
00000000
00000000
00001000
00000100
00000000
00000000
00000100
00001000
00000000
00000000
00001000
,
00010000
00000000
00000000
00010000
00001000
00000000
00000000
00001000
00100000
00000000
00000000
00100000
00001000
00000000
00000000
00001000
,
00010000
00000000
00000000
00010000
00100000
00000000
01000000
00000000
00010000
00000000
00000000
00010000
00100000
00000000
01000000
00000000
,
10000000
00000000
00000000
10000000
00010000
00000000
10000000
00000000
01000000
00000000
00000000
01000000
00100000
00000000
01000000
00000000
,
00010000
00000000
00000000
00010000
00001000
00000000
00010000
00000000
00000100
00000000
00000000
00000100
00001000
00000000
00000100
00000000
,
00000010
00000000
00000000
00000010
00000001
00000000
00000100
00000000
00000001
00001000
00000000
00001000
00000001
00000000
00000100
00000000
,
00000010
00000000
00000000
00000010
00001000
00000000
00000000
00001000
00000100
00000000
00000000
00000100
00000010
00000000
00000000
00000010
,
00001000
00000000
00000000
00001000
00010000
00000000
00000000
00010000
00001000
00010000
00000000
00010000
00001000
00010000
00001000
00010000
,
00002000
00000000
00000000
00000000
00013000
00000000
00000000
00000000
00010000
00001000
00000000
00001000
00010000
00000000
00100000
00000000
,
00010000
00000000
00000000
00010000
00100000
00000000
01000000
00000000
00010000
00000000
00000000
00010000
10000000
00000000
01000000
00000000
,
00100000
00010000
10000000
01000000
00100000
00010000
10000000
01000000
,
00010000
00001000
00100000
00001000
00010000
00000100
00001000
00000100
,
00000010
00000000
00000000
00000010
00000001
00000000
00000100
00000000
00000010
00000000
00000000
00000010
00001000
00000000
00000100
00000000
,
00010000
00000000
00000000
00010000
00001000
00000000
00000100
00000000
00000010
00000000
00000000
00000010
00000100
00000000
00001000
00000000
,
00010000
00000000
00000000
00010000
01000000
00000000
00100000
00000000
00010000
00000000
00000000
00010000
10000000
00000000
00000000
10000000
,
00200000
00000000
00000000
00000000
,
00300000
00000000
00000000
00000000
,
01000000
00000000
00010000
10000000
01000000
00000000
10000000
00000000
01000000
00000000
10000000
00010000
01000000
00000000
00010000
00000000
,
01000000
00000000
00000000
01000000
00100000
00000000
00000000
00100000
00010000
00000000
00000000
00010000
00001000
00000000
00000000
00001000
,
00000100
00000000
00000000
00000100
00000010
00000000
00000000
00000010
00001000
00000000
00000000
00001000
00000100
00000000
00000000
00000100
,
00000010
00000000
00000000
00000010
00000001
00000000
00000000
00000001
00000100
00000000
00000000
00000100
00001000
00000000
00000100
00000000
,
00000020
00000000
00020030
00000000
,
00002000
00033000
00011000
00000000
,
00001000
00010000
00100000
10000000
02000000
00000000
00000000
00000000
,
13000000
00000000
00000000
10000000
01000000
00000000
00000000
01000000
00100000
00000000
00000000
00100000
00001000
00000000
00000000
00001000
,
00010000
00001000
00000010
00000001
00000200
00000000
00000000
00000000
,
00000301
00000000
00000000
00000001
00000010
00000000
00000000
00000010
00000100
00000000
00000000
00000100
00001000
00000000
00000000
00001000
,
00000001
00000100
00001000
00000100
00000020
00000000
00000000
00000000
,
00001030
00000000
00000000
00001000
00000100
00000000
00000000
00000100
00000010
00000000
00000000
00000010
00001000
00000000
00000000
00001000
,
00020000
00230000
20300000
00000000
,
31000000
10000000
01000000
00000000
00010000
01000000
00010000
00000000
,
00001000
00011000
00000000
00000000
00110000
00000000
01100000
00000000
,
10000000
11000000
00000000
00000000
01010000
00000000
00011000
00000000
,
00010000
00010010
00000000
00000000
00000110
00000000
00001001
00000000
,
00000001
00000010
00000100
00001000
00020000
00000000
00000000
00000000
,
00030000
00000000
00000000
00000000
;

//---------------dance-double - Telperion----------------
#NOTES:
     dance-double:
     Telperion:
     Easy:
     3:
     0.155,0.165,0.073,0.210,0.000:
00000000
00000000
00000000
00000000
,
00000000
00000000
00000000
00000000
,
00000000
00000000
00000000
00000000
,
00000000
00000000
00000000
00000000
,
20000000
00000000
00000000
00000000
,
32000000
00000000
00000000
00000000
,
03200000
00000000
00000000
00000000
,
00300000
00000000
00000000
01000000
,
01000000
01000000
00100000
01000000
,
00000000
00100000
00010000
00100000
,
00000000
00001000
00010000
00000010
,
00000000
00000100
00000001
00000010
,
00000100
00001000
00000001
00000010
,
00000100
00000000
00000000
00000000
,
00000000
00000000
00000000
00000000
,
00002000
00000000
00000000
00000000
,
00003002
00000000
00000000
00000000
,
00000203
00000000
00000000
00000000
,
00002300
00000000
00003000
00000000
,
00020000
00000000
00000000
00000000
,
00032000
00000000
00000000
00000000
,
00023000
00000000
00030000
00000000
,
00001000
00000000
00010000
00000000
,
00001000
00100000
00010000
00000000
,
10000000
00100000
01000000
00010000
,
00200000
00300000
00100000
00000000
,
00010000
00010000
00000000
00000000
,
10000000
00000000
01000000
00000000
,
00010000
00000000
00000000
00000000
,
00002000
00000000
00003000
00000000
,
00020000
00000000
00030000
00000000
,
00000100
00000100
00000000
00000000
,
00000010
00000001
00000100
00000000
,
00000010
00001000
00000100
00000000
,
00010000
00001000
00100000
00010000
,
00000000
00100000
01000000
00000000
,
10000000
00100000
01000000
00010000
,
00000000
00100000
01000000
00000000
,
00200000
00000000
00302000
00000000
,
00013000
00000000
00000000
00000000
,
00011000
00000000
00022000
00000000
,
00033000
00000000
00000000
00000000
,
00011000
00000000
00022000
00000000
,
00033000
00000000
00000000
00000000
,
00011000
00000000
00022000
00000000
,
00033000
00000000
00000000
00000000
,
00011000
00000000
00022000
00000000
,
00033000
00000000
00000000
00000000
,
00001000
00000000
00010000
00000000
,
00100000
00000000
01000000
00000000
,
00010000
00000000
00100000
00000000
,
01000000
00000000
00100000
00000000
01000000
01000000
00000000
00000000
;
