#TITLE:Carouselle;
#SUBTITLE:;
#ARTIST:Tim Exile;
#TITLETRANSLIT:;
#SUBTITLETRANSLIT:;
#ARTISTTRANSLIT:;
#CREDIT:;
#BANNER:;
#BACKGROUND:;
#LYRICSPATH:;
#CDTITLE:;
#MUSIC:Carouselle.mp3;
#OFFSET:-11.000;
#SAMPLESTART:89.810;
#SAMPLELENGTH:9.570;
#SELECTABLE:YES;
#DISPLAYBPM:117.000:175.000;
#BPMS:0.000=175.000,94.000=116.667,115.000=175.000,272.000=116.667;
#STOPS:115.000=2.600
;
#BGCHANGES:;

//---------------dance-single - ----------------
#NOTES:
     dance-single:
     :
     Hard:
     8:
     0.510,0.551,0.428,0.158,0.048:
0100
0010
0100
0010
0100
0000
0001
0000
,
1000
0000
0001
1000
0000
1000
0002
0000
,
0000
0003
1000
0001
,
0101
0000
0000
1010
0000
0000
1100
0000
,
0000
0011
0000
0000
1001
0000
0000
0110
,
0000
0000
1001
1000
0001
0100
0000
0010
,
1000
0001
0001
0000
1000
0001
0010
0100
,
1000
0000
0000
0100
0000
0000
0010
0000
0000
0001
0000
0000
1001
0000
0000
0000
,
1000
0000
0100
0010
0000
0100
1000
0000
,
0001
0000
0100
0010
0000
0100
0001
0001
,
1000
0000
0001
0100
0000
0001
0100
0000
,
0001
0000
1000
0100
0000
0000
1100
0000
,
1000
0100
0000
1000
0100
0000
0010
0000
,
0001
0100
0000
0100
0001
1000
0100
0010
,
0001
0100
0010
1000
0100
0000
0010
0001
,
0000
1000
1001
0000
0110
0000
0010
1000
,
0100
0010
0100
0000
0011
0000
0001
1000
,
0000
1000
0001
0000
1000
0010
0100
0001
,
0000
0000
0001
0000
1001
0000
0000
0000
0001
0000
0000
1000
0000
0000
0001
0000
,
0100
0000
0110
0000
0001
1000
0001
1000
,
0000
0001
0100
0001
0010
0100
1000
0100
,
0000
0010
0001
0000
1000
0010
0001
0010
,
1000
0000
0100
0000
0010
0000
0000
0000
0001
0000
0000
1000
0000
0000
0001
0000
,
0100
0110
1001
1010
,
0101
0011
1001
1010
,
1100
1000
0001
0010
0001
1000
0001
0100
,
0220
0000
0330
0000
0010
1000
0100
0010
,
0002
0000
0010
1000
0010
0000
0100
0000
,
2003
0010
3001
0110
,
1002
0000
0000
0010
0000
0000
1000
0000
,
0000
0100
0000
0000
1000
0000
0100
0000
,
2003
0000
0000
0010
0000
0000
0001
0000
,
0000
0010
0000
0000
0100
0000
3001
0000
,
0001
1000
0000
1000
0001
0000
0001
0100
,
0000
0100
0001
0000
1000
0000
0010
0000
,
0100
0010
0000
2002
0000
0000
0000
0000
,
0000
0000
0000
3003
,
1000
0100
0010
0001
0010
0001
0100
0000
,
0001
1000
0001
1000
0000
0100
0010
0000
,
0100
1000
0100
1000
0001
0000
0101
0001
,
0000
1000
0000
0001
1000
0000
0110
0000
,
1000
0001
1000
0010
0100
0010
1000
0100
,
0000
0010
0001
1000
0001
0000
0101
0000
,
1000
0100
0010
0100
1000
0000
0001
0001
,
0000
1000
0001
0000
0101
0000
1010
0000
,
1000
0100
0010
0001
0100
0010
1000
0100
,
1000
0001
0100
0010
0100
0000
0110
0000
,
2002
0000
3003
1001
,
1010
0000
0000
0101
0000
0000
0011
0000
,
0000
1100
0000
0000
1001
0000
0000
0110
,
0000
0000
1001
0000
1000
0100
1000
0001
,
0100
0001
0100
0001
1000
0010
1000
0010
,
0100
0000
0000
0010
0000
0000
0100
0000
0000
0001
0000
0000
1001
0000
0000
0000
,
1000
0100
0010
0001
0000
0100
0100
0000
,
0001
0100
0010
1000
0000
0100
0100
0000
,
0011
0000
1000
0100
1100
0000
0010
0001
,
0000
0100
0100
0000
0010
1000
0100
0010
,
0000
0100
0010
0000
0010
0001
1000
0001
,
0000
1000
0001
1000
0001
0100
1000
0100
,
0001
1000
0100
0010
0001
0100
0001
1000
,
1100
0000
0000
0022
0000
0000
0033
0000
,
0101
0000
0000
2020
0000
0000
3030
0000
,
1000
0001
1000
0100
0000
0010
0001
0000
,
0001
0000
0000
1000
0000
0000
0001
0000
0220
0000
0000
0000
0330
0000
0000
0000
,
0010
1000
0100
0010
0000
0010
0100
0010
,
0001
1000
0001
0100
0000
0001
1000
0001
,
0100
0000
0001
1000
0001
0000
1000
0000
,
0001
0000
0000
1000
0000
0000
0100
0000
2000
0000
0000
0000
3000
0000
0000
0000
,
0001
0000
0001
1000
0000
1000
0010
0000
0010
0100
0000
0100
,
0001
1001
1100
0011
,
1000
0001
0100
0010
1000
0000
0101
0000
,
1000
0100
0001
0100
2000
0000
0010
0000
,
0001
0100
3002
0010
,
1003
0110
0000
0000
;

//---------------dance-single - ----------------
#NOTES:
     dance-single:
     :
     Medium:
     6:
     0.407,0.522,0.309,0.095,0.020:
1000
0000
0001
1000
0001
0000
1000
0000
,
0010
0000
0100
0001
0000
0001
2000
0000
,
0000
3000
0001
1000
,
0001
0000
0000
0010
0000
0000
0100
0000
,
0000
1000
0000
0000
0001
0000
0000
0010
,
0000
0100
1000
0001
,
0100
0000
0010
0000
1000
0001
1000
0000
,
0001
0000
0000
1000
0000
0000
0001
0000
0000
1000
0000
0000
0001
0000
0000
0000
,
1000
0000
0000
0001
0000
0000
0100
0000
,
0001
0000
0000
1000
0000
0000
0100
0000
,
1000
0000
0001
0100
0000
0100
0001
0000
,
1000
0000
0100
1000
0000
0000
1001
0000
,
0000
0001
0000
0000
0100
0000
0010
0000
,
0000
1000
0000
0000
0100
0000
1000
0001
,
1000
0000
0001
1000
0001
0000
0100
0010
,
0000
0100
0010
0000
1001
0000
0000
1001
,
0000
0010
0100
0000
0110
0000
0000
0110
,
0000
0001
1000
0000
1000
0000
0100
0010
,
0000
0001
0010
0000
0001
0000
1000
0001
,
0000
0000
1001
0000
1000
0000
0010
0100
,
0000
0100
0001
0000
1000
0000
0001
0100
,
0001
0000
1000
0000
0100
0000
0010
0100
,
1000
0000
0000
0000
0100
0000
0000
0000
0010
0000
0000
0001
0000
0000
0010
0000
,
0001
1100
1001
0011
,
0101
1010
0101
0011
,
1100
0000
1001
0000
0001
0100
0010
1000
,
0002
0000
0003
0000
1000
0010
1000
0000
,
0001
0000
1000
0000
0100
0010
0100
0000
,
0010
0001
1000
1001
,
1000
0000
0000
0100
0000
0000
0010
0000
,
0000
0001
0000
0000
1000
0000
0001
0000
,
1000
0000
0000
0010
0000
0000
0100
0000
,
0000
0001
0000
0000
0100
0000
0001
0000
,
0100
0100
0000
0001
0001
0000
1000
1000
,
0000
0100
0100
0000
0010
0000
0100
0000
,
0220
0000
0000
0000
,
0000
0000
0000
0330
,
0010
0000
0001
0000
0000
1000
0001
0000
,
1000
0000
0010
1000
0000
1000
0001
0000
,
0100
0000
0001
0100
0001
0000
1000
0000
,
0100
1000
0100
0000
1000
0001
1000
0000
,
0001
0000
1000
0000
0100
0010
0100
0000
,
0010
0000
0001
1000
0000
1000
0001
0000
,
1000
0000
0010
0100
0010
0000
1000
0000
,
0001
1000
0100
0010
,
0011
0000
0000
1100
0000
0000
1000
0001
,
0000
1000
0000
0001
0100
0000
0001
0000
,
2002
0000
0003
3001
,
1001
0000
0000
1000
0000
0000
0010
0000
,
0000
0100
0000
0000
0001
0000
0000
1000
,
0000
0000
1100
0000
0010
0001
0000
0000
,
1000
0000
0001
0100
0001
1000
0100
0010
,
0100
0000
0000
0010
0000
0000
0001
0000
0000
1000
0000
0000
0001
0000
0000
0000
,
1001
0000
0001
0100
0000
0100
0001
0000
,
1000
0000
0100
1000
0000
1000
0100
0000
,
1000
0001
1000
0010
,
0100
0000
0001
0100
0000
0100
0001
0000
,
0001
1000
0000
1000
0100
0000
0010
0000
,
0001
1000
0000
1000
0010
0000
0100
0001
,
0100
0000
0001
1000
0001
0000
1000
0100
,
1000
0000
0000
2002
0000
0000
3003
0000
,
0001
0000
0000
0202
0000
0000
0303
0000
,
1000
0000
0010
0100
0000
0000
0101
0000
,
0001
0000
1000
0100
1000
0000
1001
0000
,
0001
0010
0001
1000
,
0010
0000
0100
0000
0010
1000
0010
0000
,
1000
0000
0100
0000
0010
0001
0010
0000
,
0001
0000
0100
0001
1000
0000
0000
0000
,
1001
1010
0101
0011
,
0110
0011
1100
1010
,
0101
1001
0220
0330
,
0010
1000
0010
0100
0001
0000
0010
0000
,
0001
1000
0100
0000
1000
0100
0010
0001
,
1000
1001
0000
0000
;

//---------------dance-single - ----------------
#NOTES:
     dance-single:
     :
     Beginner:
     2:
     0.139,0.174,0.143,0.000,0.000:
1001
0000
0000
0000
,
0001
0000
0000
0000
,
0100
0000
0000
0000
,
0010
0000
0000
1000
,
0000
0000
0001
0000
,
0000
1000
0000
0000
,
0000
0000
0000
0000
,
1001
0000
0000
0000
,
1001
0000
0000
0000
,
0001
0000
0000
0000
,
0100
0000
0001
0000
,
0100
0000
0000
0010
,
0000
0000
0000
0100
,
0000
0000
0000
0001
,
0000
1000
0000
0001
,
0000
0000
1001
0000
,
0000
0000
0110
0000
,
0000
0000
0010
0000
,
1000
0000
1001
0000
,
0000
0000
0001
0000
,
0100
0000
0001
0000
,
1000
0000
0100
0000
,
0010
0000
0001
0000
,
0000
0000
1000
0000
,
0001
0000
0100
0000
,
0001
0000
0100
0000
,
0110
0000
0100
0000
,
0001
0000
1000
0000
,
0010
0010
0010
0010
,
0110
0000
0000
0000
,
0000
0000
0000
0000
,
1001
0000
0000
0000
,
0000
0000
0000
0000
,
1001
0000
0000
0000
,
0000
0000
0000
0000
,
0110
0000
0000
0000
,
0000
0000
0000
0000
,
0100
0000
0001
0000
,
1000
0000
0100
0000
,
1000
0000
0000
0000
,
0001
0000
0000
0000
,
1000
0000
0100
0000
,
0010
0000
0001
0000
,
1000
0000
0000
0000
,
0001
0000
0000
0000
,
1000
0000
0010
0000
,
1000
0000
0001
0000
,
0001
0000
0000
0000
,
1000
0000
0000
1000
,
0000
0000
0001
0000
,
0000
0001
0000
0000
,
1000
0000
0000
0000
,
0010
0000
0000
0000
,
0110
0000
0000
0000
,
1001
0000
0000
0000
,
1000
0000
0000
0001
,
0000
0000
0110
0000
,
0000
0000
1001
0000
,
0000
0000
0001
0000
,
1000
0000
0001
0000
,
1001
0000
0000
0000
,
0110
0000
0000
0000
,
0010
0000
1000
0000
,
0001
0000
0000
0000
,
1000
0000
0001
0000
,
1000
0000
0100
0000
,
0010
0000
0001
0000
,
0100
0000
0001
0000
,
1000
0000
0001
0000
,
0100
0000
0010
0000
,
0100
0000
0110
0000
,
0100
0000
0001
0000
,
1000
0000
0001
0001
,
0001
0001
0000
0000
;

//---------------dance-double - ----------------
#NOTES:
     dance-double:
     :
     Hard:
     8:
     0.502,0.493,0.372,0.182,0.051:
10000000
00000000
00010000
00100000
00001000
00000000
00010000
00000000
,
00000100
00000000
00000010
00000001
00000000
00000001
00000100
00000000
,
00000010
00001000
00000010
00001000
00000001
00000000
00001000
00000000
,
00001100
00000000
00000000
00010100
00000000
00000000
00011000
00000000
,
00000000
01001000
00000000
00000000
01100000
00000000
00000000
10010000
,
00000000
00000000
00110000
00000000
10000000
01000000
00000000
00100000
,
00010000
00100000
00001000
00000000
00010000
00000100
00000010
00000001
,
00000100
00000000
00000000
00000010
00000000
00000000
00001000
00000000
00000000
00000100
00000000
00000000
00010100
00000000
00000000
00000000
,
00011000
00000000
00001000
01000000
00000000
01000000
00010000
00000000
,
10000000
00000000
00010000
10000000
00000000
10000000
01000000
00100000
,
00010000
00000000
00100000
00001000
00000000
00010000
00000100
00000000
,
00001000
00000100
00000000
00000010
00000100
00000000
00001001
00000000
,
00001000
00000100
00000000
00000100
00010000
00000000
00001000
00000000
,
01000000
00010000
00000000
00010000
01000000
00100000
10000000
01000000
,
00100000
00010000
00100000
00001000
01000000
00000000
00001000
00000100
,
00000000
00001000
00010000
00000000
00011000
00000000
00000000
00020200
,
00000000
00000000
00030300
00000000
00001100
00000000
00000000
00000022
,
00000000
00000000
00000033
00000000
00000001
00001000
00000010
00001000
,
00000100
00000000
00000000
00001000
00000000
00000000
00000100
00000000
00010000
00000000
00001000
00000000
01000000
00000000
00010000
00000000
,
00000000
00000000
10010000
00000000
00110000
00000000
00100000
00001000
,
00100000
00001000
00010000
00000000
00000100
00001000
00000100
00000000
,
00000010
00000000
00000001
00000100
00000001
00000000
00001000
00000010
,
00001000
00000000
00000000
00000000
00000100
00000000
00000000
00000000
00001000
00000000
00000000
00000001
00000000
00000000
00001000
00000000
,
00000100
00010100
00011000
01001000
,
10100000
10010000
00210000
00001000
,
00010000
00001000
01000000
00010000
,
00002000
00000000
00303000
00000000
00100000
00001000
00010000
00000100
,
00002000
00000000
00000010
00000000
00000001
00000001
00000001
00000000
,
00000010
00000001
00000100
00000000
00000001
00000000
00003001
00000000
,
00000020
00000000
00000000
00001000
00000000
00000000
00000001
00000000
,
00000000
00001000
00000000
00000000
00000100
00000000
00000130
00000000
,
00020000
00000000
00000000
00001000
00000000
00000000
00000010
00000000
,
00000000
00000100
00000000
00000000
00001000
00000000
00031000
00000000
,
00001000
01000000
00000000
01000000
00010000
00000000
00010000
10000000
,
00000000
10000000
01000000
00100000
00010000
00000000
00110000
00000000
,
00101000
00000000
00000000
00022000
00000000
00000000
00000000
00000000
,
00000000
00000000
00000000
00033000
,
00010000
00000100
00001000
00000100
00000010
00000100
00001000
00000000
,
00000100
00010000
00001000
00010000
00000000
00001000
01000000
00000000
,
00100000
10000000
01000000
00010000
01000000
10000000
00010000
00000000
,
00100000
00001000
00010000
00000000
00001000
00100000
00001000
00000000
,
00010000
00000100
00000001
00000100
00001000
00000010
00000100
00000010
,
00001000
00000100
00010000
00000100
00010000
00000000
00011000
00000000
,
00001000
01000000
10000000
01000000
00010000
00000000
10000000
01000000
,
00000000
00100000
00010000
00100000
00001000
00010000
00000100
00000000
,
00001100
00000000
00000010
00000001
00000100
00000000
00000010
00001000
,
00000100
00000000
00000000
00001000
00000000
00000000
00000001
00000000
00001000
00000000
00000000
00000000
00000100
00000000
00000000
00000000
,
00000220
00000000
00000030
00000300
,
00000110
00000000
00000000
00000011
00000000
00000000
00001100
00000000
,
00000000
00010100
00000000
00000000
00011000
00000000
00000000
01001000
,
00000000
00000000
01010000
00000000
00010000
01000000
00100000
10000000
,
00100000
10000000
01000000
00100000
00010000
00100000
00001000
00010000
,
00000100
00000000
00000000
00010000
00000000
00000000
00000100
00000000
00000000
00001000
00000000
00000000
00001001
00000000
00000000
00000000
,
00000101
00000000
00001000
00000010
00000000
00001000
00000100
00010000
,
00001000
00000000
00100000
00010000
00000000
10000000
01000000
00100000
,
00010000
00100000
00001000
00010000
00000100
00000000
00000010
00000100
,
00000000
00000010
00000001
00000000
00001001
00000000
00001000
00000010
,
00001000
00000100
00010000
00000000
00000100
00000000
00010000
00001000
,
00010000
00000000
00001000
01000000
00100000
01000000
00010000
01000000
,
00100000
01000000
00010000
10000000
01000000
00100000
00010000
01000000
,
01010000
00000000
00000000
20020000
00000000
00000000
30030000
00000000
,
11000000
00000000
00000000
20020000
00000000
00000000
30030000
00000000
,
00010000
00000000
00100000
00000000
00001000
00000000
00010000
00000000
00001000
00000000
00000000
00010000
00000000
00000000
00000100
00000000
,
00010000
00000100
00002000
00000002
00000000
00000000
00003003
00000000
,
00001010
00000000
00001000
00000100
00001000
00000100
00000000
00000100
,
00010000
00001000
01000000
00010000
10000000
00000000
00010000
01000000
,
00010000
00000000
00100000
00001000
00100000
00000000
00001000
00000000
,
00010000
00000000
00000000
00001000
00000000
00000000
00020000
00000000
00002000
00000000
00000000
00000000
00033000
00000000
00000000
00000000
,
00011000
00000000
00010000
00000100
00000000
00000100
00010000
00000000
00010000
00000100
00000000
00000100
,
00001000
00000000
00000001
00000000
00001000
00000010
00000100
00000001
,
00001000
00000100
00001000
00000100
00000022
00000000
00000033
00000000
,
00001000
00000010
00010000
00001000
00010000
00000000
00001000
00100000
,
00010000
01000000
00100000
00000000
00100000
10000000
01000000
00100000
,
01100000
10010000
00000000
00000000
;

//---------------dance-double - ----------------
#NOTES:
     dance-double:
     :
     Medium:
     6:
     0.429,0.522,0.499,0.214,0.016: // measure 1
00010000
00000000
00100000
00010000
00100000
00000000
00010000
00000000
,  // measure 2
10000000
00000000
00100000
01000000
00000000
01000000
00100000
00000000
,  // measure 3
10000000
01000000
00100000
00010000
,  // measure 4
00110000
00000000
00000000
00101000
00000000
00000000
00011000
00000000
,  // measure 5
00000000
00010100
00000000
00000000
00000110
00000000
00000000
00000011
,  // measure 6
00000000
00001001
00001000
00000010
,  // measure 7
00001000
00000000
00000100
00000000
00001000
00000100
00001000
00000100
,  // measure 8
00001000
00000000
00000000
00001000
00000000
00000000
00000001
00000000
00000000
00000001
00000000
00000000
00001000
00000000
00000000
00000000
,  // measure 9
00001002
00000000
00000000
00001000
00000000
00000000
00001000
00000000
,  // measure 10
00000203
00000000
00000000
00000010
00000000
00000000
00000010
00000000
,  // measure 11
00000320
00000000
00000000
00001000
00000000
00000000
00002030
00000000
,  // measure 12
00000000
00000100
00000000
00000000
00003100
00000000
00010200
00000000
,  // measure 13
00000000
00010000
00000000
00000000
00010000
00000000
00020300
00000000
,  // measure 14
00000000
00001000
00000000
00000000
00031000
00000000
00001000
00100000
,  // measure 15
00001000
00000000
00100000
00010000
00100000
00000000
00010000
10000000
,  // measure 16
00000000
10000000
00010000
00000000
00110000
00000000
00000000
00220000
,  // measure 17
00000000
00000000
00330000
00000000
11000000
00000000
00000000
22000000
,  // measure 18
00000000
00000000
33000000
00000000
10010000
00000000
10000000
00010000
,  // measure 19
00000000
00000000
01010000
00000000
01001000
00000000
01000000
00001000
,  // measure 20
00000000
00000000
00011000
00000000
00010000
00000000
00000000
00000100
,  // measure 21
00000000
00001000
00000100
00000000
00001000
00000000
00000001
00000100
,  // measure 22
00000001
00000000
00001000
00000000
00000001
00000000
00001000
00000100
,  // measure 23
00001000
00000001
00000010
00000001
,  // measure 24
00000100
00000010
00001010
00000101
,  // measure 25
00001010
00001100
00010100
00011000
,  // measure 26
00101000
00110000
01010000
10100000
,  // measure 27
20020000
30030000
11000000
00110000
,  // measure 28
01010000
01001000
00101000
00010100
,  // measure 29
00001100
00000011
00001001
00000110
,  // measure 30
00000010
00000000
00000000
00000010
00000000
00000000
00010000
00000000
,  // measure 31
00000000
00010000
00000000
00000000
00001000
00000000
00010000
00000000
,  // measure 32
00001000
00000000
00000000
00001000
00000000
00000000
01000000
00000000
,  // measure 33
00000000
01000000
00000000
00000000
00100000
00000000
10000000
00000000
,  // measure 34
00010000
00000000
00000000
10000000
00000000
00000000
01000000
00000000
,  // measure 35
00000000
00100000
00000000
00000000
00010000
00000000
00100000
00000000
,  // measure 36
00002000
00000000
00000000
00020000
00000000
00000000
00000000
00000000
,  // measure 37
00000000
00000000
00000000
00033000
,  // measure 38
00001000
00000000
00010000
00000000
00000100
00001000
00000100
00000000
,  // measure 39
00010000
00000000
00001000
01000000
00000000
01000000
00001000
00000000
,  // measure 40
01000000
00000000
00100000
01000000
00100000
00000000
10000000
00000000
,  // measure 41
01000000
00100000
00010000
01000000
,  // measure 42
00010000
00000000
10000000
00010000
10000000
00000000
00010000
00100000
,  // measure 43
00010000
00000000
00100000
00001000
00100000
00000000
00011000
00000000
,  // measure 44
00010100
00000000
00001000
00000100
00001000
00000000
00000001
00001000
,  // measure 45
00000000
00001000
00000010
00000000
00000100
00000001
00000100
00000000
,  // measure 46
00000001
00000000
00001000
00000100
00010000
00000000
00001000
01000000
,  // measure 47
00010000
00000000
01000000
00100000
10000000
00000000
00010000
00000000
,  // measure 48
20020000
00000000
00030000
30000000
,  // measure 49
00010000
00000000
00000000
10000000
00000000
00000000
01000000
00000000
,  // measure 50
00000000
00100000
00000000
00000000
00001000
00000000
00000000
00010000
,  // measure 51
00000000
00000000
00000100
00000000
00000010
00000001
00000000
00000001
,  // measure 52
00001000
00000001
00000100
00000010
,  // measure 53
00001000
00000000
00000000
00001000
00000000
00000000
00000100
00000000
00000000
00000100
00000000
00000000
00010000
00000000
00000000
00000000
,  // measure 54
00011000
00000000
00001000
01000000
00000000
01000000
00001000
00000000
,  // measure 55
01000000
00000000
00100000
01000000
00000000
01000000
00010000
00000000
,  // measure 56
10000000
00000000
01000000
00100000
00010000
00000000
00100000
00001000
,  // measure 57
00000000
00100000
00001000
00000000
00011000
00000000
00010000
00000100
,  // measure 58
00010000
00000000
00000100
00000000
00001000
00000000
00000001
00000010
,  // measure 59
00000001
00000000
00001000
00000000
00000010
00000100
00000001
00000000
,  // measure 60
00001000
00000000
00000100
00001000
00000000
00001000
00000100
00000000
,  // measure 61
00001001
00000000
00000000
00002020
00000000
00000000
00003030
00000000
,  // measure 62
00001100
00000000
00000000
00020200
00000000
00000000
00030300
00000000
,  // measure 63
00010000
00000000
00001000
00100000
00001000
00000000
00100000
00000000
,  // measure 64
00010000
01000000
00200000
00300000
,  // measure 65
10100000
00000000
00000000
02020000
00000000
00000000
03030000
00000000
,  // measure 66
00110000
00000000
00000000
22000000
00000000
00000000
33000000
00000000
,  // measure 67
00100000
00000000
00010000
00100000
00010000
00000000
00100000
00000000
,  // measure 68
00001000
00000000
00010000
00001000
00010000
00000000
00000100
00000000
,  // measure 69
00001100
00000011
00000101
00001010
,  // measure 70
00000110
00001010
00001100
00010100
,  // measure 71
00011000
00101000
00220000
00330000
,  // measure 72
10000000
01000000
00100000
00010000
00100000
00000000
00010000
00000000
,  // measure 73
01000000
00100000
10000000
01000000
,  // measure 74
00100000
01100000
00000000
00000000
;

//---------------dance-double - ----------------
#NOTES:
     dance-double:
     :
     Easy:
     4:
     0.273,0.319,0.119,0.095,0.000: // measure 1
10000000
00010000
01000000
00010000
,  // measure 2
01000000
00000000
00100000
10000000
,  // measure 3
01000000
00000000
00100000
00010000
,  // measure 4
00100000
00000000
00000000
00001000
00000000
00000000
00100000
00000000
,  // measure 5
00000000
00001000
00000000
00000000
00010000
00000000
00000000
00001000
,  // measure 6
00000000
00020000
00000000
00000000
,  // measure 7
00000000
00000000
00031000
00010000
,  // measure 8
00001000
00010000
00000100
00001000
,  // measure 9
00001001
00000000
00000000
00000000
,  // measure 10
00000110
00000000
00000000
00000000
,  // measure 11
00000010
00000000
00000000
00000010
00000000
00000000
00000010
00000000
,  // measure 12
00000000
00000100
00000000
00000000
00000100
00000000
00000001
00000000
,  // measure 13
00000000
00001000
00000000
00000000
00000000
00000000
00000100
00000000
,  // measure 14
00000000
00010000
00000000
00000000
00010000
00000000
00001000
00000000
,  // measure 15
01000000
00000000
00010000
00000000
01000000
00000000
00000000
00010000
,  // measure 16
00000000
00000000
10000000
00000000
10010000
00000000
00000000
10010000
,  // measure 17
00000000
00000000
00000000
00000000
01100000
00000000
00000000
01100000
,  // measure 18
00000000
00000000
00100000
10000000
,  // measure 19
00010000
01000000
00001000
00010000
,  // measure 20
00001000
00000000
00010000
00000100
,  // measure 21
00010000
00000100
00000010
00000001
,  // measure 22
00000010
00000000
00000001
00000100
,  // measure 23
00000001
00000000
00001000
00000010
,  // measure 24
00001000
00000000
00000001
00001000
,  // measure 25
00000100
00010000
00001000
01000000
,  // measure 26
00010000
10000000
00100000
01000000
,  // measure 27
01100000
00000000
00100000
10000000
,  // measure 28
01000000
00100000
00010000
00100000
,  // measure 29
00001000
00010000
00001000
00011000
,  // measure 30
00001000
00000000
00000000
00100000
,  // measure 31
00000000
00000000
00010000
10000000
,  // measure 32
00010000
00000000
00000000
01000000
,  // measure 33
00000000
00000000
00001000
01000000
,  // measure 34
00001000
00000000
00000000
00010000
,  // measure 35
00000000
00000000
00000100
00001000
,  // measure 36
00000200
00000000
00000000
00000000
,  // measure 37
00000000
00000000
00000000
00000300
,  // measure 38
00000010
00001000
00000010
00001000
,  // measure 39
00000100
00010000
00000100
00000000
,  // measure 40
00010000
00001000
00010000
00001000
,  // measure 41
01000000
00010000
01000000
00000000
,  // measure 42
00010000
10000000
01000000
00100000
,  // measure 43
00010000
00100000
00001000
00000000
,  // measure 44
00010000
00000100
00010000
00000100
,  // measure 45
00000010
00000001
00000100
00000000
,  // measure 46
00000010
00001000
00000001
00000100
,  // measure 47
00000010
00001000
00000100
00010000
,  // measure 48
00022000
00000000
00003000
00030000
,  // measure 49
00001000
00000000
00000000
00010000
00000000
00000000
00001000
00000000
,  // measure 50
00000000
01000000
00000000
00000000
00010000
00000000
00000000
01000000
,  // measure 51
00000000
00000000
00010000
00000000
00000000
10000000
00000000
00000000
,  // measure 52
00010000
10000000
00010000
01000000
,  // measure 53
00100000
00000000
00000000
00000000
,  // measure 54
10010000
00000000
00000000
20020000
00000000
00000000
30030000
00000000
,  // measure 55
01100000
00000000
00000000
02200000
00000000
00000000
03300000
00000000
,  // measure 56
01000000
00010000
00100000
00001000
,  // measure 57
00010000
00000000
00000100
00000000
00001000
00000000
00000000
00002000
,  // measure 58
00000000
00000000
00003000
00000000
00000010
00000000
00000000
00000020
,  // measure 59
00000000
00000030
00001000
00000100
,  // measure 60
00001000
00000100
00010000
00001000
,  // measure 61
01000000
00000000
00000000
02000000
00000000
00000000
03000000
00000000
,  // measure 62
00010000
00000000
00000000
00020000
00000000
00000000
00030000
00000000
,  // measure 63
10000000
01000000
00100000
00010000
,  // measure 64
01000000
00100000
10000000
00000000
,  // measure 65
00010000
00100000
00001000
00000000
,  // measure 66
00001000
00100000
00010000
00000000
,  // measure 67
00100000
00001000
00010000
00000100
,  // measure 68
00000010
00000100
00000010
00000000
,  // measure 69
00000010
00000001
00000100
00001000
,  // measure 70
00000100
00000001
00001000
00000100
,  // measure 71
00010000
00001000
00011000
00000000
,  // measure 72
00001000
00100000
00010000
01000000
,  // measure 73
00100000
10000000
01000000
00100000
,  // measure 74
01000000
01100000
00000000
00000000
;

//---------------dance-single - ----------------
#NOTES:
     dance-single:
     :
     Easy:
     4:
     0.268,0.377,0.111,0.079,0.000:
0001
1000
0010
0100
,
0001
0000
1000
0001
,
1000
0000
0001
0100
,
0001
0000
0000
0001
0000
0000
1000
0000
,
0000
1000
0000
0000
0100
0000
0000
0100
,
0000
0010
0001
0010
,
0001
1000
0010
0100
,
0002
0000
0000
0003
,
1001
0000
0000
0000
,
1000
0000
0000
0000
,
0010
0000
0000
0000
,
0100
0000
0000
0001
,
0000
0001
0000
0000
0000
0000
1000
0000
,
0000
1000
0000
0000
0000
0000
0010
0000
,
0100
0010
0100
0001
,
0000
1000
0000
0000
1001
0000
0000
1001
,
0000
0000
0000
0000
0110
0000
0000
0110
,
0000
0000
0010
1000
,
0001
0100
0001
1000
,
0100
0000
0010
0001
,
0100
0000
0010
1000
,
0100
0000
1000
0001
,
1000
0001
0100
0001
,
0100
0000
0001
1000
,
0010
0100
0001
1000
,
0100
0010
0001
0100
,
0010
0000
0100
0001
,
1000
0100
0010
0001
,
1000
0001
1000
1001
,
0001
0000
0000
1000
,
0000
0000
0010
1000
,
0100
0000
0000
0010
,
0000
0000
0001
1000
,
0001
0000
0000
0100
,
0000
0000
0010
0100
,
0002
0000
0000
0000
,
0000
0000
0000
0003
,
1000
0001
1000
0001
,
0100
0010
0100
0000
,
0001
0100
0001
0000
,
1000
0010
1000
0000
,
0001
1000
0100
0010
,
0100
0010
0001
0000
,
1000
0010
1000
0010
,
0100
0000
0010
0000
,
1000
0100
0010
0001
,
1000
0100
0010
0002
,
2000
3000
1000
1003
,
0001
0000
0000
0001
0000
0000
1000
0000
,
0000
1000
0000
0000
0010
0000
0000
0010
,
0000
0000
0100
0000
0000
0100
0000
0000
,
0001
0000
1000
0000
,
2002
0000
0000
3003
,
1001
0000
0000
0001
0000
0000
0001
0000
,
0100
0000
0000
0100
0000
0000
0100
0000
,
0010
1000
0010
0100
,
0001
0000
0010
0000
0001
0000
0000
0001
,
0000
0000
0001
0000
1000
0000
0000
1000
,
0000
1000
0010
0100
,
0001
0010
0100
0010
,
0110
0000
0000
2002
0000
0000
3003
0000
,
1001
0000
0000
0220
0000
0000
0330
0000
,
0010
1000
0010
0100
,
0001
1000
0100
0000
,
0010
0001
0100
0000
,
0001
1000
0100
0000
,
0010
0001
0100
0010
,
0100
0010
1000
0000
,
0001
0100
0010
1000
,
0100
0010
0001
1000
,
0001
0100
0110
0000
,
0010
1000
0100
0010
,
0001
0100
0001
1000
,
0100
0110
0000
0000
;
