#TITLE:Bulletproof;
#SUBTITLE:;
#ARTIST:La Roux;
#TITLETRANSLIT:;
#SUBTITLETRANSLIT:;
#ARTISTTRANSLIT:;
#GENRE:;
#CREDIT:;
#MENUCOLOR:;
#BANNER:Licenses - Bulletproof.png;
#BACKGROUND:Licenses - Bulletproof-BG.png;
#LYRICSPATH:Licenses - Bulletproof.lrc;
#CDTITLE:;
#MUSIC:Licenses - Bulletproof.mp3;
#OFFSET:-0.060;
#SAMPLESTART:48.550;
#SAMPLELENGTH:12.000;
#SELECTABLE:YES;
#LISTSORT:;
#BPMS:0.000=123.000;
#STOPS:;
#TICKCOUNT:0.000=2;
#BGCHANGES:15.750=Square1.avi=1.082=1=0=1,
19.750=Circle11.avi=0.947=0=0=1,
23.750=Tunnel7.avi=1.319=0=0=1,
27.750=Tunnel6.avi=0.923=0=0=1,
31.750=Cube12A.avi=1.606=0=0=1,
43.750=Square1.avi=1.082=0=1=1,
47.750=Cube7.avi=1.000=0=0=1,
59.750=Circle11.avi=0.947=0=1=1,
63.750=Cube12AR.avi=1.606=0=0=1,
75.750=Tunnel7.avi=1.319=0=1=1,
79.750=Cube7R.avi=1.000=0=0=1,
91.750=Tunnel6.avi=0.923=0=1=1,
93.750=Pentagon1.avi=1.478=0=0=1,
95.750=Square1R.avi=0.541=0=0=1,
99.750=Kaleidoscope5.avi=1.000=0=0=1,
107.750=Rotation5.avi=1.353=0=0=1,
111.750=Rotation5R.avi=1.367=0=0=1,
115.750=Kaleidoscope4.avi=1.353=0=0=1,
123.750=Ribbon2.avi=0.854=0=0=1,
131.750=Tunnel7.avi=1.319=0=1=1,
135.750=Tunnel6.avi=0.923=0=1=1,
139.750=Square1.avi=1.082=0=1=1,
142.750=Pentagon1.avi=1.478=0=1=1,
143.750=Circle11.avi=0.947=0=1=1,
147.750=Tunnel7.avi=1.319=0=1=1,
151.750=Tunnel6.avi=0.923=0=1=1,
154.750=Square1.avi=1.082=0=1=1,
155.750=Circle11.avi=0.947=0=1=1,
158.750=Pentagon1.avi=1.478=0=1=1,
159.750=Tunnel7R.avi=0.659=0=0=1,
163.750=Kaleidoscope5.avi=1.000=0=1=1,
171.750=Rotation5.avi=1.353=0=1=1,
175.750=Rotation5R.avi=1.367=0=1=1,
179.750=Kaleidoscope4.avi=1.353=0=1=1,
187.750=Ribbon2.avi=0.854=0=1=1,
195.750=Licenses - Bulletproof-BG.png=1.000=0=0=0;
#KEYSOUNDS:;
#ATTACKS:;

//---------------dance-single - BEGINNER----------------
#NOTES:
     dance-single:
     BEGINNER:
     Beginner:
     2:
     0.133,0.152,0.000,0.163,0.000:
0000
0000
0000
0000
,
0000
0000
0000
0000
,
0000
0000
0000
0000
,
0000
0000
0000
0000
,
0010
0000
0000
0000
,
0100
0000
0000
0000
,
0001
0000
0000
0000
,
0100
0000
0000
0000
,
1000
1000
1000
0000
,
0001
0000
0100
0000
,
1000
0000
0010
0000
,
0001
0000
0000
0000
,
0001
0001
0001
0000
,
0010
0000
1000
0000
,
0100
0000
0001
0000
,
0100
0000
0000
0000
,
0100
0100
0100
0000
,
0010
0000
1000
0000
,
0100
0000
0001
0000
,
0010
0000
0000
0000
,
0010
0010
0010
0000
,
0001
0000
0100
0000
,
1000
0000
0100
0000
,
0001
0001
0000
1000
,
0000
1000
1000
0000
,
0010
0000
0100
0000
,
0010
0000
0100
0000
,
0020
0000
0030
0000
,
0200
0000
0300
0000
,
0001
0000
1000
0000
,
0001
0000
1000
0000
,
0002
0000
0003
0000
,
2000
0000
3000
0000
,
0002
0000
0003
0000
,
0200
0000
0300
0000
,
0200
0000
0300
0000
,
2000
0000
3000
0000
,
0020
0000
0030
0000
,
2000
0000
3000
0000
,
0020
0000
0030
0000
,
0002
0000
0003
0000
,
0001
0000
1000
0000
,
0010
0000
0100
0000
,
0020
0000
0030
0000
,
0200
0000
0300
0000
,
0100
0000
0010
0000
,
0001
0000
1000
0000
,
0002
0000
0003
0000
,
2000
0000
3000
0000
,
0000
0100
0100
0100
;

//---------------dance-single - BASIC----------------
#NOTES:
     dance-single:
     BASIC:
     Easy:
     3:
     0.197,0.228,0.020,0.153,0.000:
0000
0000
0000
0000
,
0000
0000
0000
0000
,
0000
0000
0000
0000
,
0000
0000
0000
0000
,
1000
0100
1000
1000
,
0001
0100
0001
0001
,
0010
0100
0010
0010
,
0100
0000
0010
0000
,
1000
0010
0001
0100
,
1000
0000
0001
0000
,
0100
0000
0010
0000
,
0100
0000
0000
0000
,
0001
0010
1000
0100
,
0001
0000
1000
0000
,
0010
0000
0100
0000
,
0010
0000
0000
0000
,
0100
0010
1000
0001
,
0100
0000
0001
0000
,
1000
0000
0010
0000
,
0001
0000
0000
0000
,
0001
1000
0010
0100
,
0001
0000
0010
0000
,
1000
0000
0100
0000
,
0001
1000
0000
1000
,
0000
0001
0000
0001
,
1000
1000
0010
1000
,
1001
0001
0010
0001
,
0200
0000
0300
0000
,
0020
0000
0030
0000
,
1000
0010
0100
0100
,
0010
0100
0001
0001
,
2000
0000
3000
0000
,
0002
0000
0003
0000
,
2000
3000
0100
0000
,
0002
0003
0100
0000
,
0002
0003
0100
0010
,
1000
1000
0001
0001
,
0020
0030
0100
0000
,
2000
3000
0001
0100
,
0002
0003
1000
0010
,
2000
0000
0000
3000
,
0001
0001
0100
0001
,
0010
0010
0100
0010
,
2000
0000
3000
0000
,
0200
0000
0300
0000
,
0001
0100
1000
1000
,
0010
1000
0001
0001
,
0200
0000
0300
0000
,
0020
0000
0030
0000
,
1000
1000
0001
1001
;

//---------------dance-single - DIFFICULT----------------
#NOTES:
     dance-single:
     DIFFICULT:
     Medium:
     6:
     0.364,0.331,0.102,0.173,0.051:
0000
0000
0000
0000
,
0000
0000
0000
0000
,
0000
0000
0000
0000
,
0000
0000
0000
0000
,
0010
0000
0000
0000
0100
0000
0000
0000
0001
0000
0000
0001
0000
0000
0001
0000
,
0100
0000
0000
0000
0010
0000
0000
0000
1000
0000
0000
1000
0000
0000
1000
0000
,
0010
0000
0000
0000
1000
0000
0000
0000
0100
0000
0000
0100
0000
0000
0100
0000
,
1000
0000
0000
0000
0001
0000
0000
1000
0000
0000
0001
0000
0000
1000
0000
0000
,
0001
0000
1000
0000
0001
0100
0001
0000
,
1000
0000
0001
0000
1000
0100
1000
0000
,
0010
0100
0001
0000
0010
0100
1000
0000
,
0020
0000
0130
0110
,
1000
0000
0100
0000
0001
0100
0001
0000
,
1000
0000
0010
0000
0001
0010
0001
0000
,
0010
0100
0001
0000
0010
0100
1000
0000
,
2000
0000
3001
1001
,
0001
0100
0001
0000
0001
0100
0001
0000
,
1000
0100
1000
0000
1000
0100
1000
0000
,
0001
1000
0010
0000
1000
0001
0100
0000
,
0020
0000
0130
1001
,
0001
0100
1000
0000
1000
0100
0001
0000
,
1000
0010
0001
0000
0001
0010
1000
0000
,
0010
0100
0001
0000
0100
1000
0010
0000
,
0000
0100
0001
0100
0000
0100
1000
0100
,
0000
0000
0000
0000
0001
0000
0000
1000
0000
0000
0001
0000
0000
0000
1000
0000
,
0000
0100
0000
0001
0000
0100
0000
0010
,
0000
1000
0000
0010
0000
1000
0000
1000
,
0020
0100
0000
0100
0000
0100
0030
0100
,
0002
0010
0000
0010
0000
0010
0003
0001
,
0000
1000
0000
0010
0000
0100
0000
0001
,
0000
1000
0000
0010
0000
0100
0000
1000
,
0002
1000
0000
0100
0000
0103
0000
1000
,
0001
2000
0000
0100
0000
3100
0000
1000
,
0002
0000
1000
0000
0010
0003
1100
0000
,
0020
1000
0130
0101
,
0200
1000
0301
1100
,
1000
0000
0100
0000
0001
0000
0000
0001
0000
0000
1000
0000
0000
1000
0000
0000
,
2000
0001
3100
1100
,
0002
0100
1003
0101
,
0020
0001
0130
1010
,
1000
0000
0100
0000
1000
0000
0000
1000
0000
0000
0001
0000
0000
0000
0001
0000
,
0000
0010
0000
0100
0000
1000
0000
0001
,
0000
0010
0000
0100
0000
1000
0000
0001
,
2000
0010
0000
0100
0000
3010
0000
1000
,
0002
0100
0000
0010
0000
0103
0000
0010
,
0000
1000
0000
0001
0100
0001
0000
0010
,
0000
0001
0000
1000
0100
1000
0000
0100
,
2000
0010
0000
0001
0000
3100
0000
1000
,
0002
0010
0000
1000
0000
0103
0000
1000
,
0010
0000
0100
0000
0010
0000
0000
0000
1000
0000
0000
0001
0000
0000
1001
0000
;

//---------------dance-single - EXPERT----------------
#NOTES:
     dance-single:
     EXPERT:
     Hard:
     8:
     0.501,0.483,0.010,0.071,0.500:
0000
0000
0000
0000
,
0000
0000
0000
0000
,
0000
0000
0000
0000
,
0000
0000
0000
0000
,
1000
0000
0100
0000
1000
0000
0100
0000
1000
0000
0001
0100
0000
1000
0100
0000
,
0001
0000
0010
0000
0001
0000
0010
0000
0001
0000
1000
0010
0000
0001
0010
0000
,
0100
0000
1000
0000
0010
0000
1000
0000
0100
0000
0010
0001
0000
0100
0001
0000
,
0100
0000
0001
0000
0010
0000
0000
0010
0000
0000
0100
0000
0000
0100
0000
0000
,
0010
0000
0100
0000
1000
0000
0100
0000
0010
0000
0100
1000
0000
0000
0001
0000
,
0100
1000
0000
0100
0000
0000
0001
0000
0010
0000
1000
0010
0000
0000
0001
0000
,
0010
0100
0000
1000
0000
0000
0010
0000
0100
0000
0001
0100
0000
0000
0010
0000
,
1000
0000
0010
0000
0100
0000
0000
0001
0000
0000
1000
0000
0000
0010
0000
0000
,
1000
0000
0010
0000
0100
0000
0001
0000
0100
0000
0010
0100
0000
0000
1000
0000
,
0010
0000
0100
0001
0000
0000
0001
0000
0010
0000
0100
1000
0000
0000
1000
0000
,
0010
0000
0100
0001
0000
0000
1000
0000
0010
0000
0100
0000
0010
1000
0000
0100
,
0000
0000
1000
0000
0001
0000
0000
0010
0000
0000
0100
0000
0000
1000
0000
0000
,
0001
0000
0100
0000
0001
0000
0100
0000
1000
0000
0010
1000
0000
0000
0010
0000
,
0100
0000
0001
1000
0000
0000
0010
0000
0100
0000
1000
0001
0000
0000
0100
0000
,
0010
0000
0001
0000
0100
0000
0010
1000
0000
0000
0010
0000
0100
0001
0000
0000
,
0100
0000
0001
0000
0010
0000
0000
1000
0000
0000
0100
0000
0000
0001
0000
0000
,
0010
0000
0100
0000
1000
0000
0001
0000
0100
0000
0001
1000
0000
0000
0001
0000
,
1000
0100
0000
1000
0000
0001
0000
0000
0010
0000
0100
1000
0000
0010
0000
0000
,
1000
0100
0000
0010
0000
0000
0001
0000
0100
0000
0010
1000
0000
0010
0000
0000
,
1000
0010
0100
0001
0000
0010
0100
1000
,
0000
0000
0100
0000
0012
0000
0000
0010
0000
0000
1000
0000
0000
0003
1000
0000
,
0100
1000
0000
0000
0001
0000
0010
0100
0000
0000
0000
1000
0100
0000
0010
0000
,
0001
0100
0000
0000
0010
0000
1000
0100
0000
0000
0000
0001
0100
0000
0010
0000
,
1000
0010
0000
0000
0100
0000
0010
1000
0000
0000
0000
0010
0100
0000
1000
0000
,
0100
0001
0000
0000
1000
0000
0100
0010
0000
0000
0000
0001
0100
0000
0010
0000
,
0001
0100
0000
0000
1000
0000
0010
0100
0000
0000
0000
0010
1000
0000
0100
0000
,
1000
0001
0000
0000
0100
0000
0001
1000
0000
0000
0000
0100
1000
0000
0010
0000
,
0001
0100
0000
0000
0010
0000
0100
1000
0000
0000
0000
0100
0010
0000
0001
0000
,
0100
0010
0000
0000
1000
0000
0010
0100
0000
0000
0000
0001
0100
0000
0010
0000
,
2000
0000
0001
0000
3010
0000
0001
0100
,
0002
0000
0100
0000
0013
0000
0100
0010
,
2000
0000
0010
0000
3100
0000
0010
1000
,
0100
0000
0010
0000
0001
0000
0000
0100
0000
0000
0010
0000
0000
1000
0000
0000
,
0200
0000
1000
0000
0301
0000
0100
0001
,
2000
0000
0010
0000
3100
0000
0001
0100
,
2000
0000
0000
0000
0100
0000
0000
0000
3010
0000
0000
0000
0010
0100
0000
0000
,
0010
0000
0100
0000
0001
0000
0000
0010
0000
0000
0100
0000
0000
1000
0000
0000
,
0001
0100
0000
0000
1000
0000
0010
0100
0000
0000
0000
0010
1000
0000
0001
0000
,
1000
0100
0000
0000
1000
0000
0001
0100
0000
0000
0000
1000
0100
0000
0001
0000
,
0100
0010
0000
0000
1000
0000
0001
0010
0000
0000
0000
1000
0010
0000
0100
0000
,
0010
0100
0000
0000
0001
0000
1000
0100
0000
0000
0000
0001
0100
0000
0010
0000
,
1000
0010
0000
0000
1000
0000
0100
1000
0000
0000
0000
0001
0100
0000
0010
0000
,
1000
0100
0000
0000
0010
0000
0001
0100
0000
0000
0000
0001
0010
0000
0100
0000
,
1000
0001
0000
0000
1000
0000
0001
0100
0000
0000
0000
0010
0100
0000
1000
0000
,
0100
0001
0000
0000
1000
0000
0100
0010
0000
0000
0000
0001
0100
0000
0010
0000
,
0000
0000
1000
0000
0001
0100
0001
0000
1000
0000
0000
0010
0000
0000
0100
0000
;
