#TITLE:1901;
#SUBTITLE:;
#ARTIST:Phoenix;
#TITLETRANSLIT:;
#SUBTITLETRANSLIT:;
#ARTISTTRANSLIT:;
#GENRE:;
#CREDIT:;
#MENUCOLOR:;
#BANNER:Licenses - 1901.png;
#BACKGROUND:Licenses - 1901-BG.png;
#LYRICSPATH:Licenses - 1901.lrc;
#CDTITLE:;
#MUSIC:Licenses - 1901.mp3;
#OFFSET:-0.020;
#SAMPLESTART:80.000;
#SAMPLELENGTH:12.000;
#SELECTABLE:YES;
#LISTSORT:;
#DISPLAYBPM:144.000;
#BPMS:0.000=144.000;
#STOPS:;
#TICKCOUNT:0.000=2;
#BGCHANGES:-0.250=Licenses - 1901.avi=1.000=1=0=0,
99999=-nosongbg-=1.000=0=0=0 // don't automatically add -songbackground-
;
#KEYSOUNDS:;
#ATTACKS:;

//---------------dance-single - BEGINNER----------------
#NOTES:
     dance-single:
     BEGINNER:
     Beginner:
     1:
     0.142,0.169,0.009,0.141,0.000:
0000
0000
0000
0000
,
0000
0000
0000
0000
,
0000
0000
0000
0000
,
0000
0000
0000
0000
,
0000
0000
0100
0000
,
0000
0000
0100
0000
,
0000
0000
0010
0000
,
0000
0000
0010
0000
,
1000
0000
1000
0000
,
0000
0000
1000
0000
,
0000
0000
0001
0000
,
0000
0000
0001
0000
,
0001
0000
0001
0000
,
0000
0000
0001
0000
,
0000
0000
1000
0000
,
0000
0000
1000
0000
,
0100
0000
0001
0000
,
0100
0000
1000
0000
,
0200
0000
0300
0000
,
0020
0000
0030
0000
,
0001
0000
0010
0000
,
1000
0000
0010
0000
,
0002
0000
0003
0000
,
2000
0000
3000
0000
,
1000
0000
0100
0000
,
0001
0000
0010
0000
,
1000
0000
0010
0000
,
0001
0000
0100
0000
,
1000
0000
0100
0000
,
0010
0000
0001
0000
,
0200
0000
0300
0000
,
0020
0000
0030
0000
,
1000
0000
1000
0000
,
1000
0000
0100
0000
,
0001
0000
1000
0000
,
0020
0000
0030
0000
,
0001
0000
0001
0000
,
0010
0000
0100
0000
,
1000
0000
1000
0000
,
0010
0000
0100
0000
,
0010
0000
0010
0000
,
1000
0000
0001
0000
,
0100
0000
0100
0000
,
0020
0000
0030
0000
,
0001
0000
0001
0000
,
0001
0000
0010
0000
,
0100
0000
0100
0000
,
0100
0000
1000
1000
,
0000
0001
0000
0001
,
0000
1000
0000
1000
,
2000
0000
3000
0000
,
0002
0000
0003
0000
,
0000
0100
0000
0100
,
0000
0010
0000
0010
,
0020
0000
0030
0000
,
0200
0000
0300
0000
,
0000
0001
0000
0100
,
0000
0001
0000
0100
,
0200
0000
0300
0000
,
0002
0000
0003
0000
,
0000
1000
0000
0010
,
0000
1000
0000
0010
,
0020
0000
0030
0000
,
2000
0000
3000
0000
,
1001
0000
0000
0000
;

//---------------dance-single - BASIC----------------
#NOTES:
     dance-single:
     BASIC:
     Easy:
     4:
     0.283,0.286,0.044,0.361,0.000:
0000
0000
0000
0000
,
0000
0000
0000
0000
,
0000
0000
0000
0000
,
0000
0000
0000
0000
,
0000
0000
2000
3000
,
0000
0000
0002
0003
,
0000
0000
0200
0300
,
0000
0000
0010
0000
,
0110
0000
0002
0003
,
0100
0000
2000
3000
,
0100
0000
0002
0003
,
1000
0000
0020
0030
,
0100
0010
2000
3000
,
0100
0010
0002
0003
,
0010
0100
2000
3000
,
0010
0100
0002
0003
,
0100
0000
0001
0100
,
0001
1000
0100
1000
,
0001
0000
0020
0030
,
1000
0000
0020
0030
,
0001
0001
1000
1000
,
0001
0100
0010
1000
,
0010
0000
0200
0300
,
0010
0000
0200
0300
,
0001
0100
1000
0010
,
0001
0010
1000
0100
,
0001
0100
0001
1000
,
0100
1000
0001
0100
,
0000
0010
1000
0100
,
0001
0100
1000
0010
,
0001
0100
0002
0003
,
1000
0100
2000
3000
,
0001
0001
0001
0001
,
0010
0001
1000
0100
,
1000
1000
1000
1000
,
0020
0000
0000
0030
,
0110
1000
0001
0100
,
0001
0010
1000
0100
,
0010
0100
1000
0001
,
0100
1000
0010
0001
,
1001
0100
1000
0001
,
0100
0010
0100
0001
,
0010
0001
1000
0100
,
0020
0000
0000
0030
,
0110
0001
0100
0010
,
1000
0001
1000
1000
,
0010
0100
1000
0001
,
1000
0100
0001
0001
,
0100
0002
0003
0200
,
0300
0002
0003
0100
,
0001
0100
0020
0030
,
1000
0100
0020
0030
,
0001
2000
3000
0200
,
0300
2000
3000
0100
,
0001
0100
2000
3000
,
0001
0010
2000
3000
,
1000
0002
0003
0020
,
0030
0002
0003
0010
,
0001
0100
2000
3000
,
1000
0010
0002
0003
,
0010
0200
0300
2000
,
3000
0002
0003
0010
,
0100
0010
0002
0003
,
0100
0010
2000
3000
,
0220
0000
0000
0000
,
0330
0000
0000
0000
;

//---------------dance-single - DIFFICULT----------------
#NOTES:
     dance-single:
     DIFFICULT:
     Medium:
     6:
     0.386,0.487,0.203,0.317,0.018:
0000
0000
0000
0000
,
0000
0000
0000
0000
,
0000
0000
0000
0000
,
0000
0000
0000
0000
,
0000
0000
0200
0000
,
0300
0000
0020
0000
,
0030
0000
0002
0000
,
0003
0000
2000
3000
,
0001
0110
0002
0003
,
1000
0110
2000
3000
,
0100
0101
0020
0030
,
0100
1100
0020
0030
,
1000
0001
0020
0030
,
0001
1000
0200
0300
,
0100
1000
0020
0030
,
0100
0001
0020
0030
,
0001
0000
1000
0000
0001
0100
0001
0000
,
0010
1000
0010
0000
1000
0000
0100
0000
,
0010
0001
0200
0300
,
0010
0100
2000
3000
,
0010
0000
0010
0000
1000
0100
1000
0000
,
0001
0100
0001
0000
1000
0001
1000
0000
,
0100
1000
0020
0030
,
0100
0001
0020
0030
,
1000
0100
0001
0010
,
1000
0100
0001
0000
0001
0100
1000
0000
,
0001
0100
1000
0010
,
0001
0010
1000
0000
1000
0010
0001
0000
,
0000
1000
0010
1000
,
0100
0000
0010
0000
0001
0100
0001
0000
,
0100
0001
0020
0030
,
0100
1000
0020
0030
,
0100
0000
0000
0100
0000
0000
0100
0000
,
0001
0100
0001
0000
0010
0000
1010
0000
,
1000
0000
0000
1000
0000
0000
0100
0000
,
0010
0000
0000
0010
0000
0000
0010
0000
0100
0000
0000
0100
0000
0000
0100
0000
,
1000
0000
1000
0000
1000
0100
1000
0000
,
0001
0100
0010
0000
1000
0000
0001
0000
,
0010
0000
0010
0000
0001
0100
0001
0000
,
1000
0100
0010
0000
0001
0000
1000
0000
,
0110
0000
1000
0000
0001
0100
0001
0000
,
1000
0100
1000
0000
0100
0000
0010
0000
,
0001
0000
1000
0000
0010
0100
0010
0000
,
1000
0000
0000
1000
0000
0000
1000
0000
0001
0000
0000
0001
0000
0000
0001
0000
,
1000
0000
1000
0000
1000
0100
0010
0000
,
0001
0010
0100
1000
0001
0000
1000
0000
,
0001
0000
0001
0000
0001
0100
0010
0000
,
1000
0100
0010
0001
0100
0000
0010
0000
,
1000
0120
1030
0120
,
1030
0120
0031
0120
,
0031
0000
1000
0000
0001
0100
1000
0000
,
0001
0000
1000
0000
1000
0100
0001
0000
,
1000
0210
0301
0210
,
0301
0210
1300
0210
,
1300
0000
0001
0000
1000
0100
0010
0000
,
0001
0000
1000
0000
0100
0001
0010
0000
,
0001
0120
1030
0120
,
0031
1200
0310
0201
,
0310
0000
1000
0000
0001
0010
0100
0000
,
1000
0000
0001
0000
1000
0010
0100
0000
,
0001
1020
0130
0021
,
0130
1200
0310
0201
,
0310
0000
1000
0000
0100
1000
0010
0000
,
1000
0000
0100
0000
0001
0010
0100
0000
,
2002
0000
0000
0000
,
3003
0000
0000
0000
;

//---------------dance-single - EXPERT----------------
#NOTES:
     dance-single:
     EXPERT:
     Hard:
     8:
     0.585,0.544,0.308,0.317,0.079:
0000
0000
0000
0000
,
0000
0000
0000
0000
,
0000
0000
0000
0000
,
0000
0000
0000
0000
,
0000
0000
0000
0200
1000
1000
1000
1300
,
0000
0000
0000
0002
0100
0100
0100
0103
,
0000
0000
0000
0020
0001
0001
0001
0031
,
0000
0000
0000
2000
0100
0100
0100
3100
,
0001
0000
1100
0001
0010
0010
0100
0100
,
1000
0000
0101
1000
0100
0100
1000
1000
,
0001
0000
0110
0001
1000
1000
0010
0010
,
0001
0000
1100
0001
0100
0100
0010
0010
,
1000
0000
0110
1000
0100
0100
0001
0001
,
1000
0000
0101
1000
0001
0001
0010
0010
,
1000
0000
0011
0100
1000
1000
0010
0010
,
0100
0000
0110
1000
0100
0100
0001
0001
,
0100
0000
1100
0000
0001
0010
0100
0000
,
1000
0100
0010
0000
0001
0000
1000
0100
,
0010
0001
0100
0020
1000
1000
1000
1030
,
0100
0000
1000
0002
1000
1000
1000
1003
,
1100
0000
0101
0000
1000
0100
0001
0100
,
1000
0010
0001
0010
1000
0100
0010
0001
,
0100
0000
0010
2000
0001
0001
0001
3001
,
0100
0000
0010
0002
1000
1000
1000
1003
,
0001
0100
1000
0000
0001
0100
1000
0100
,
0001
0010
1000
0000
1000
0010
0001
0100
,
0010
0100
0001
0010
0100
0000
1000
0010
,
0100
0010
1000
0001
0100
0001
1000
0100
,
0010
0000
0001
0000
0010
0100
1000
0001
,
1000
0100
1000
0000
0001
0010
0100
0000
,
1000
0000
0101
2000
0001
0001
0010
3010
,
0100
0000
0101
0002
1000
1000
0010
0013
,
1000
0000
0100
1000
0100
0000
1000
0000
0001
0000
1000
0000
0100
0000
0000
0000
,
1000
0000
0001
0100
0001
0000
1000
0000
0001
0000
0100
0000
0010
0000
0000
0000
,
1000
0000
0010
1000
0010
0000
1000
0000
0001
0000
0010
0000
0100
0000
0000
0000
,
0021
0000
0000
0001
0030
0000
0001
0000
1200
0000
0000
1000
0300
0000
1000
0000
,
1000
0000
0000
1000
0010
0000
0100
0000
0001
0000
0010
0000
0100
0000
1000
0000
,
0001
0000
0000
1000
0100
0000
0001
0000
0100
0000
0010
0000
1000
0000
0000
0000
,
1000
0000
0000
0010
0100
0000
1000
0000
0100
0000
0001
0000
0010
0000
0100
0000
,
1000
0000
0000
0001
0010
0000
0001
0000
1000
0000
1000
0000
0001
0000
0000
0000
,
0110
0000
0000
0001
0010
0000
0001
0000
0100
0000
0010
0000
1000
0000
0100
0000
,
0010
0000
0000
0100
1000
0000
0010
0000
1000
0000
0100
0000
0001
0000
0000
0000
,
0100
0000
0000
1000
0001
0000
1000
0000
0100
0000
0010
0000
0001
0000
0100
0000
,
1020
0000
0000
1000
0030
0000
1000
0000
0201
0000
0000
0001
0300
0000
0001
0000
,
1000
0000
0000
0001
0100
0000
0010
0000
1000
0000
0100
0000
0010
0000
0001
0000
,
1000
0000
0000
0001
0100
0000
0001
0000
0010
0000
0100
0000
1000
0000
0000
0000
,
0010
0000
0000
1000
0100
0000
0001
0000
0010
0000
0100
0000
1000
0000
0001
0000
,
0010
0000
0000
0100
1000
0000
0001
0000
0100
0000
0010
0000
1000
0000
0001
0000
,
0010
0210
0301
0210
,
0301
0210
1300
0210
,
1300
0000
0001
1000
0100
1000
0001
0010
,
0100
0000
1000
0001
0100
0001
1000
0001
,
0010
0201
0310
0201
,
0310
1200
0310
1200
,
0310
0000
0001
0100
1000
0001
1000
0100
,
0001
0000
1000
0100
0001
1000
0001
0100
,
1000
1002
0013
2001
,
3010
1002
0103
2001
,
3100
0000
0001
2000
0010
0010
0100
3100
,
0001
0000
1000
0002
0010
0010
0100
0103
,
1000
1002
0103
0120
,
1030
2001
3100
0120
,
0031
0000
0100
0020
1000
1000
0001
0031
,
0100
0000
1000
0020
0001
0001
1000
1030
,
0220
0000
0000
0000
,
0330
0000
0000
0000
;

//---------------dance-double - BASIC----------------
#NOTES:
     dance-double:
     BASIC:
     Easy:
     3:
     0.231,0.254,0.035,0.335,0.000: // measure 1
00000000
00000000
00000000
00000000
,  // measure 2
00000000
00000000
00000000
00000000
,  // measure 3
00000000
00000000
00000000
00000000
,  // measure 4
00000000
00000000
00000000
00000000
,  // measure 5
00000000
00000000
00000200
00000000
,  // measure 6
00000300
00000000
00002000
00000000
,  // measure 7
00003000
00000000
00020000
00000000
,  // measure 8
00030000
00000000
02000000
00000000
,  // measure 9
13000000
00000000
00200000
00300000
,  // measure 10
01000000
00000000
00020000
00030000
,  // measure 11
01000000
00000000
00002000
00003000
,  // measure 12
00010000
00000000
00000200
00000300
,  // measure 13
00000010
00000100
00000002
00000003
,  // measure 14
00000010
00000100
00002000
00003000
,  // measure 15
00000100
00010000
00002000
00003000
,  // measure 16
00100000
00001000
00020000
00030000
,  // measure 17
01000000
00000000
10000000
01000000
,  // measure 18
10000000
00010000
01000000
00010000
,  // measure 19
00001000
00000100
00000020
00000030
,  // measure 20
00000001
00001000
00000020
00000030
,  // measure 21
00001000
00001000
00010000
00010000
,  // measure 22
00001000
00001000
00010000
00010000
,  // measure 23
00100000
00010000
00002000
00003000
,  // measure 24
00000010
00001000
00020000
00030000
,  // measure 25
00010000
01000000
10000000
00100000
,  // measure 26
00010000
00010000
00001000
00001000
,  // measure 27
00000010
00001000
00000100
00000001
,  // measure 28
00000010
00000010
00001000
00000100
,  // measure 29
00001000
00000100
00000010
00000001
,  // measure 30
00000100
00001000
00010000
00100000
,  // measure 31
10000000
00000000
00020000
00030000
,  // measure 32
00001000
00000000
00000002
00000003
,  // measure 33
00000100
00000000
00000000
00000000
,  // measure 34
00000001
00001000
00000100
00000010
,  // measure 35
00000001
00000000
00000000
00000000
,  // measure 36
00002000
00000000
00020000
00033000
,  // measure 37
00011000
00000000
00000000
00000000
,  // measure 38
00010000
00001000
00100000
01000000
,  // measure 39
00000000
00000000
00000000
00000000
,  // measure 40
00010000
00001000
00000010
00000100
,  // measure 41
00001001
00000000
00000000
00000000
,  // measure 42
00000001
00000100
00001000
00000100
,  // measure 43
00000001
00000000
00000000
00000000
,  // measure 44
00002000
00000000
00020000
00033000
,  // measure 45
00011000
00000000
00000000
00000000
,  // measure 46
00010000
01000000
00100000
00010000
,  // measure 47
00000000
00000000
00000000
00000000
,  // measure 48
00001000
00000010
00000100
00001000
,  // measure 49
00000000
00000020
00000030
00002000
,  // measure 50
00003000
00020000
00030000
02000000
,  // measure 51
03000000
00000000
10000000
00000000
,  // measure 52
01000000
00000000
00010000
00000000
,  // measure 53
00000000
00200000
00300000
00020000
,  // measure 54
00030000
00002000
00003000
00000200
,  // measure 55
00000300
00000000
00001000
00000000
,  // measure 56
00000100
00000000
00000001
00000000
,  // measure 57
00000000
00000200
00000300
00000020
,  // measure 58
00000030
00002000
00003000
00020000
,  // measure 59
00030000
00000000
01000000
00000000
,  // measure 60
00100000
00000000
10000000
00000000
,  // measure 61
00000000
02000000
03000000
00020000
,  // measure 62
00030000
00002000
00003000
00000200
,  // measure 63
00000300
00000000
00000010
00000000
,  // measure 64
00001000
00000000
00010000
00000000
,  // measure 65
00011000
00000000
00000000
00000000
;

//---------------dance-double - DIFFICULT----------------
#NOTES:
     dance-double:
     DIFFICULT:
     Medium:
     5:
     0.379,0.479,0.176,0.370,0.000: // measure 1
00000000
00000000
00000000
00000000
,  // measure 2
00000000
00000000
00000000
00000000
,  // measure 3
00000000
00000000
00000000
00000000
,  // measure 4
00000000
00000000
00000000
00000000
,  // measure 5
00000000
00000000
00000020
00000000
,  // measure 6
00000030
00000000
00000002
00000000
,  // measure 7
00000003
00000000
00000200
00000000
,  // measure 8
00000300
00000000
00002000
00000000
,  // measure 9
00013000
00011000
00200000
00300000
,  // measure 10
10000000
01000000
20000000
30000000
,  // measure 11
00100000
00010000
00002000
00003000
,  // measure 12
00000010
00000100
00000020
00000030
,  // measure 13
00001000
00000001
00000020
00000030
,  // measure 14
00001000
00010000
00200000
00300000
,  // measure 15
01000000
10000000
02000000
03000000
,  // measure 16
00010000
00001000
00000200
00000300
,  // measure 17
00001000
00000000
00000000
00000000
00010000
00001000
00010000
00000000
,  // measure 18
00001000
00010000
00001000
00000000
00000100
00000000
00000010
00000000
,  // measure 19
00001000
00010000
00002000
00003000
,  // measure 20
00010000
00100000
20000000
30000000
,  // measure 21
01000000
00000000
01000000
00000000
10000000
01000000
10000000
00000000
,  // measure 22
00010000
01000000
00010000
00000000
00001000
00010000
00001000
00000000
,  // measure 23
00000100
00000001
00002000
00003000
,  // measure 24
01000000
00010000
20000000
30000000
,  // measure 25
00100000
00000000
00100000
00000000
10000000
01000000
00010000
00000000
,  // measure 26
00001000
00000100
00000001
00000000
00000010
00000000
00000100
00000000
,  // measure 27
00001000
00000000
00000001
00000010
00001000
00000000
00010000
00100000
,  // measure 28
10000000
00100000
10000000
01000000
,  // measure 29
00000000
00100000
00010000
10000000
,  // measure 30
01000000
00100000
00010000
00000000
00001000
00000100
00000010
00000000
,  // measure 31
00001000
00000001
00000020
00000030
,  // measure 32
00000001
00001000
00000020
00000030
,  // measure 33
00001000
00000000
00000000
00000100
00000000
00000000
00010000
00000000
,  // measure 34
00001000
00001000
00010000
00010000
,  // measure 35
00100000
00000000
00000000
10000000
00000000
00000000
01000000
00000000
,  // measure 36
20000000
32000000
03020000
02030000
,  // measure 37
13000000
00000000
11000000
00000000
10000000
01000000
00010000
00000000
,  // measure 38
01000000
00001000
00010000
00010000
,  // measure 39
00000010
00000000
00000110
00000000
00000001
00000010
00000100
00000000
,  // measure 40
00001000
00000000
00000100
00000000
00010000
00001000
01000000
00000000
,  // measure 41
01100000
00000000
10000000
00000000
00010000
00000000
10000000
00100000
,  // measure 42
00010000
00001000
00100000
00001000
,  // measure 43
00010000
00000000
00000100
00000000
00001000
00000010
00000100
00000000
,  // measure 44
00000002
00000023
00000230
00002300
,  // measure 45
00013000
00000000
01000000
00000000
10000000
01000000
00010000
00000000
,  // measure 46
10000000
00100000
00010000
00000000
00001000
00000000
00000100
00000000
,  // measure 47
00000001
00000000
00000010
00000000
00000001
00000010
00001000
00000000
,  // measure 48
00000001
00000100
00001000
00000000
00000100
00000000
00010000
00000000
,  // measure 49
00001000
00021000
00130000
00120000
,  // measure 50
00031000
00021000
01030000
01020000
,  // measure 51
00031000
00000000
00001000
00000000
00010000
01000000
10000000
00000000
,  // measure 52
10000000
00000000
00010000
00000000
10000000
01000000
00010000
00000000
,  // measure 53
00001000
00012000
00003100
00002100
,  // measure 54
00013000
00012000
00003010
00002010
,  // measure 55
00013000
00000000
00001000
00000000
00000010
00000100
00001000
00000000
,  // measure 56
00000001
00000000
00001000
00000000
00000010
00000100
00000001
00000000
,  // measure 57
00001000
00002100
00013000
00021000
,  // measure 58
01030000
01020000
00031000
00012000
,  // measure 59
00003100
00000000
00000001
00000000
00000010
00000100
00001000
00000000
,  // measure 60
00000001
00000000
00000100
00000000
00001000
00010000
00100000
00000000
,  // measure 61
01000000
00120000
00031000
00012000
,  // measure 62
00003010
00002010
00013000
00021000
,  // measure 63
00130000
00000000
01000000
00000000
10000000
01000000
00100000
00000000
,  // measure 64
10000000
00000000
01000000
00000000
00010000
00001000
00000100
00000000
,  // measure 65
00000001
00000000
00000000
00000000
;

//---------------dance-double - DIFFICULT----------------
#NOTES:
     dance-double:
     DIFFICULT:
     Hard:
     8:
     0.515,0.507,0.343,0.440,0.035: // measure 1
00000000
00000000
00000000
00000000
,  // measure 2
00000000
00000000
00000000
00000000
,  // measure 3
00000000
00000000
00000000
00000000
,  // measure 4
00000000
00000000
00000000
00000000
,  // measure 5
01000000
00000000
00020000
20000000
,  // measure 6
30030000
00000000
02000000
00200000
,  // measure 7
03300000
00000000
00020000
00002000
,  // measure 8
00033000
00000000
00000200
00000320
,  // measure 9
00001030
00000000
00000101
00000000
00000002
00000100
00000103
00000000
,  // measure 10
00001000
00000000
00011000
00000000
02000000
00100000
03100000
00000000
,  // measure 11
10000000
00000000
11000000
00000000
00020000
00001000
00031000
00000000
,  // measure 12
00000100
00000000
00000110
00000000
00000002
00000010
00000013
00000000
,  // measure 13
00001000
00000000
00011000
00000000
00000020
00000100
00000130
00000000
,  // measure 14
00001000
00000000
00011000
00000000
00200000
01000000
01300000
00000000
,  // measure 15
10000000
00000000
01100000
00000000
00020000
00001000
00031000
00000000
,  // measure 16
00000001
00000000
00000110
00000000
00002000
00010000
00013000
00000000
,  // measure 17
00000100
00000000
00001001
00000000
00000001
00000100
00000001
00000000
,  // measure 18
00001000
00000100
00001000
00000000
00000010
00000000
00001000
00000100
,  // measure 19
00010000
00000010
00001000
00000000
00000020
00001000
00001030
00000000
,  // measure 20
00000100
00000000
00010000
00000000
00200000
10000000
10300000
00000000
,  // measure 21
11000000
00000000
01010000
00000000
10000000
01000000
00010000
01000000
,  // measure 22
10000000
01000000
00010000
00000000
00000100
00000001
00000010
00000100
,  // measure 23
00001000
00000000
00000001
00000000
00000020
00000100
00000130
00000000
,  // measure 24
00001000
00000000
00000001
00000000
00000020
00000100
00000130
00000000
,  // measure 25
00000110
00000000
00001001
00000000
00000001
00000100
00001000
01000000
,  // measure 26
00010000
01000000
00100000
00000000
10000000
01000000
00100000
00010000
,  // measure 27
01000000
00000000
00010000
01000000
00001000
00000000
00010000
00001000
,  // measure 28
00000010
00000000
00000001
00000000
00000010
00000100
00001000
00000001
,  // measure 29
00000100
00000000
00000001
00000000
00000010
00000100
00001000
00100000
,  // measure 30
01000000
00010000
01000000
00000000
00010000
00000000
10000000
00000000
,  // measure 31
10000000
00000000
01000000
00000000
00020000
01000000
10030000
00000000
,  // measure 32
10000000
00000000
01000000
00000000
20000000
01000000
30010000
00000000
,  // measure 33
01010000
00001000
00001100
00000001
,  // measure 34
00000010
00000100
00000010
00000000
00000001
00001000
00000001
00000000
,  // measure 35
00000110
00001000
00011000
01000000
,  // measure 36
00012000
00000000
00010000
00003000
00010000
00000000
00021000
00000000
00001000
00030000
00001000
00000000
,  // measure 37
00011000
00000000
00000010
00000000
00000001
00000100
00000010
00000000
,  // measure 38
00000001
00000100
00000010
00001000
00000100
00010000
00001000
00000000
,  // measure 39
00100000
00000000
01000000
00000000
10000000
00100000
00010000
00000000
,  // measure 40
00100000
01000000
10000000
01000000
00010000
00001000
00000100
00000000
,  // measure 41
00000110
00000000
00000001
00000000
00001000
00000100
00001000
00000000
,  // measure 42
00000100
00010000
00001000
00010000
00000010
00010000
00001000
00000000
,  // measure 43
00100000
00000000
01000000
00000000
10000000
01000000
00010000
00000000
,  // measure 44
00000210
00000000
00000010
00000300
00000010
00000000
00002001
00000000
00000001
00003000
00000001
00000000
,  // measure 45
00000001
00000000
00000100
00000000
00000001
00000100
00000010
00000000
,  // measure 46
00001000
00000100
00010000
00001000
01000000
00100000
10000000
00000000
,  // measure 47
00010000
00000000
10000000
00000000
00100000
01000000
10000000
00000000
,  // measure 48
10000000
01000000
00010000
00001000
00000100
00000001
00000010
00000000
,  // measure 49
00000001
00000201
00001300
02010000
,  // measure 50
13000000
12000000
03010000
00001200
,  // measure 51
00000301
00000000
00000100
00000020
00001000
00001000
00001000
00001030
,  // measure 52
00000100
00000000
00001000
00000002
00000010
00000010
00000010
00000010
,  // measure 53
00000103
00000021
00001030
00210000
,  // measure 54
10300000
10200000
00310000
00001020
,  // measure 55
00000031
00000000
00000100
00000020
00001000
00001000
00001000
00001030
,  // measure 56
00000100
00000000
00010000
00002000
01000000
01000000
01000000
01003000
,  // measure 57
00010000
01020000
00130000
00120000
,  // measure 58
01030000
00002100
00003010
00002010
,  // measure 59
00003100
00000000
00001000
00000002
00000100
00000100
00000010
00000013
,  // measure 60
00001000
00000000
00010000
00002000
01000000
01000000
00010000
00013000
,  // measure 61
01000000
12000000
03010000
00001200
,  // measure 62
00000301
00000021
00001030
00210000
,  // measure 63
10300000
00000000
01000000
00200000
00010000
00010000
00001000
00301000
,  // measure 64
00000100
00000000
00001000
00000020
00001000
00001000
00010000
00010030
,  // measure 65
00000100
00000000
00000000
00000000
;
